osu file format v13

[General]
AudioFilename: 02. .mp3
AudioLeadIn: 0
PreviewTime: 53273
Countdown: 0
SampleSet: Soft
StackLeniency: 0.7
Mode: 3
LetterboxInBreaks: 0
SpecialStyle: 0
WidescreenStoryboard: 1

[Editor]
DistanceSpacing: 1.5
BeatDivisor: 4
GridSize: 32
TimelineZoom: 2

[Metadata]
Title:STEP (TV Size)
TitleUnicode:STEP (TV Size)
Artist:ClariS
ArtistUnicode:ClariS
Creator:Soldsaga KunG
Version:7K HD
Source:Nisekoi
Tags:ニセコイ kz livetune - [ S o r a ] - Sora P i k o B a k a Piko
BeatmapID:422104
BeatmapSetID:170412

[Difficulty]
HPDrainRate:7
CircleSize:7
OverallDifficulty:7
ApproachRate:5
SliderMultiplier:1.4
SliderTickRate:1

[Events]
//Background and Video events
Video,0,"NisekoiOP2.avi"
0,0,"nisekoi-12-end-card.jpg",0,0
//Break Periods
//Storyboard Layer 0 (Background)
//Storyboard Layer 1 (Fail)
//Storyboard Layer 2 (Pass)
//Storyboard Layer 3 (Foreground)
//Storyboard Sound Samples
Sample,12545,0,"kick01.ogg",70
Sample,12648,0,"snare03.ogg",70
Sample,12750,0,"hithat01.ogg",50
Sample,12750,0,"kick01.ogg",70
Sample,12853,0,"snare03.ogg",70
Sample,12956,0,"kick01.ogg",70
Sample,13161,0,"snare03.ogg",60
Sample,13161,0,"hithat01.ogg",50
Sample,48915,0,"kick01.ogg",70
Sample,54668,0,"01.ogg",70
Sample,55901,0,"hithat01.ogg",70
Sample,57545,0,"hithat01.ogg",70
Sample,59189,0,"hithat01.ogg",70
Sample,60832,0,"hithat01.ogg",70
Sample,62476,0,"hithat01.ogg",70
Sample,64120,0,"hithat01.ogg",70
Sample,65764,0,"hithat01.ogg",70
Sample,67408,0,"clap02.ogg",70
Sample,67408,0,"hithat01.ogg",70
Sample,69052,0,"hithat01.ogg",70
Sample,70695,0,"hithat01.ogg",70
Sample,72339,0,"hithat01.ogg",70
Sample,73983,0,"hithat01.ogg",70
Sample,75627,0,"hithat01.ogg",70
Sample,77271,0,"hithat01.ogg",70
Sample,78915,0,"hithat01.ogg",70
Sample,83024,0,"hithat01.ogg",50
Sample,85079,0,"hithat01.ogg",50
//Background Colour Transformations
3,100,163,162,255

[TimingPoints]
422,410.958904109589,4,2,1,40,1,0
5353,-100,4,2,1,40,0,0
5558,-100,4,2,1,40,0,0
5969,-100,4,2,1,40,0,0
6072,-100,4,2,1,40,0,0
6689,-100,4,2,1,40,0,0
10901,-100,4,2,1,40,0,0
11106,-100,4,2,1,40,0,0
11312,-100,4,2,1,40,0,0
13161,-100,4,2,1,40,0,0
13264,-100,4,2,1,40,0,0
13572,-100,4,2,1,40,0,0
14394,-100,4,2,1,40,0,0
15627,-100,4,2,1,40,0,0
16038,-100,4,2,1,40,0,0
16449,-100,4,2,1,40,0,0
16860,-100,4,2,1,40,0,0
17271,-100,4,2,1,40,0,0
17682,-100,4,2,1,40,0,0
18504,-100,4,2,1,40,0,0
18915,-100,4,2,1,40,0,0
19326,-100,4,2,1,40,0,0
19531,-100,4,2,1,40,0,0
19737,-100,4,2,1,40,0,0
21380,-100,4,2,1,40,0,0
21791,-100,4,2,1,40,0,0
22613,-100,4,2,1,40,0,0
23538,-100,4,2,1,40,0,0
25079,-100,4,2,1,40,0,0
25695,-100,4,2,1,40,0,0
25798,-100,4,2,1,40,0,0
26312,-100,4,2,1,40,0,0
26620,-100,4,2,1,40,0,0
26723,-100,4,2,1,40,0,0
38435,-100,4,2,1,40,0,0
39668,-100,4,2,1,40,0,0
39874,-100,4,2,1,40,0,0
41312,-100,4,2,1,40,0,0
42339,-100,4,2,1,40,0,0
42442,-100,4,2,1,40,0,0
43778,-100,4,2,1,40,0,0
43880,-100,4,2,1,40,0,0
45627,-100,4,2,1,40,0,0
45935,-100,4,2,1,40,0,0
46243,-100,4,2,1,40,0,0
47271,-100,4,2,1,40,0,0
47682,-100,4,2,1,40,0,0
48915,-100,4,2,1,40,0,0
49737,-100,4,2,1,40,0,0
51586,-100,4,2,1,40,0,0
51997,-100,4,2,1,40,0,0
52100,-100,4,2,1,40,0,0
52819,-100,4,2,1,40,0,0
53435,-100,4,2,1,40,0,0
54668,-100,4,2,1,70,0,1
67408,-100,4,2,1,70,0,1
67716,-100,4,2,1,70,0,0
67819,-100,4,2,1,70,0,1
70182,-100,4,2,1,70,0,1
70285,-100,4,2,1,70,0,1
79326,-100,4,2,1,70,0,1
79737,-100,4,2,1,70,0,1
80558,-100,4,2,1,70,0,1
80661,-100,4,2,1,70,0,1
80969,-100,4,2,1,70,0,0
85079,-100,4,2,1,70,0,0
85285,-100,4,2,1,70,0,0
87134,-100,4,2,1,70,0,0
87237,-100,4,2,1,70,0,0
87442,-100,4,2,1,70,0,0

[HitObjects]
182,192,5353,5,0,0:0:0:50:cymbal01.ogg
329,192,5353,1,0,0:0:0:60:snare01.ogg
256,192,5558,1,0,0:0:0:60:snare01.ogg
402,192,5558,1,0,0:0:0:10:kick01.ogg
329,192,5764,1,0,0:0:0:60:snare02.ogg
475,192,5764,1,0,0:0:0:10:snare02.ogg
36,192,6072,1,0,0:0:0:60:snare02.ogg
182,192,6072,1,0,0:0:0:10:kick01.ogg
475,192,6380,1,0,0:0:0:60:snare01.ogg
329,192,6380,1,0,0:0:0:10:kick01.ogg
402,192,6586,1,0,0:0:0:60:snare02.ogg
36,192,6586,128,0,6997:0:0:0:60:snare03.ogg
329,192,6689,1,0,0:0:0:60:06.ogg
256,192,6791,1,0,0:0:0:60:07.ogg
182,192,6894,1,0,0:0:0:60:08.ogg
109,192,6997,1,0,0:0:0:50:cymbal01.ogg
329,192,6997,1,0,0:0:0:60:kick01.ogg
182,192,7202,1,0,0:0:0:60:kick01.ogg
329,192,7408,1,0,0:0:0:50:hithat01.ogg
475,192,7408,1,0,0:0:0:60:snare03.ogg
402,192,7613,1,0,0:0:0:60:kick01.ogg
329,192,7819,1,0,0:0:0:50:hithat01.ogg
256,192,8024,1,0,0:0:0:60:kick01.ogg
182,192,8230,1,0,0:0:0:50:hithat01.ogg
329,192,8230,1,0,0:0:0:60:snare03.ogg
36,192,8435,1,0,0:0:0:60:kick01.ogg
182,192,8641,1,0,0:0:0:50:hithat01.ogg
475,192,8641,1,0,0:0:0:60:kick01.ogg
402,192,8743,1,0,0:0:0:0:
329,192,8846,1,0,0:0:0:60:kick01.ogg
256,192,8949,1,0,0:0:0:0:
182,192,9052,1,0,0:0:0:50:hithat01.ogg
36,192,9052,1,0,0:0:0:60:snare03.ogg
329,192,9257,1,0,0:0:0:60:kick01.ogg
402,192,9360,1,0,0:0:0:60:snare03.ogg
475,192,9463,1,0,0:0:0:50:hithat01.ogg
402,192,9565,1,0,0:0:0:60:snare03.ogg
329,192,9668,1,0,0:0:0:60:kick01.ogg
256,192,9771,1,0,0:0:0:0:
182,192,9874,1,0,0:0:0:50:hithat01.ogg
36,192,9874,1,0,0:0:0:60:snare03.ogg
256,192,10079,1,0,0:0:0:60:14.ogg
475,192,10285,128,0,10695:0:0:0:50:hithat01.ogg
109,192,10285,1,0,0:0:0:60:snare03.ogg
36,192,10695,128,0,11106:0:0:0:50:hithat01.ogg
109,192,11106,128,0,11517:0:0:0:50:hithat01.ogg
256,192,11517,1,0,0:0:0:50:hithat01.ogg
475,192,11723,128,0,12134:0:0:0:10:kick01.ogg
182,192,11723,1,0,0:0:0:60:kick01.ogg
402,192,12134,128,0,12339:0:0:0:60:kick01.ogg
329,192,12339,1,0,0:0:0:50:hithat01.ogg
256,192,12545,1,0,0:0:0:10:kick01.ogg
182,192,12648,1,0,0:0:0:60:19.ogg
109,192,12750,1,0,0:0:0:60:20.ogg
36,192,12853,1,0,0:0:0:60:21.ogg
109,192,12956,1,0,0:0:0:60:22.ogg
182,192,13058,1,0,0:0:0:60:23.ogg
36,192,13161,1,0,0:0:0:60:clap01.ogg
329,192,13161,1,0,0:0:0:60:24.ogg
475,192,13367,1,0,0:0:0:60:25.ogg
256,192,13367,1,0,0:0:0:0:
182,192,13572,128,0,15011:0:0:0:50:cymbal01.ogg
329,192,13572,128,0,15011:0:0:0:10:27.ogg
36,192,15216,128,0,15627:0:0:0:50:hithat01.ogg
109,192,15216,1,0,0:0:0:0:
475,192,15627,128,0,16038:0:0:0:50:hithat01.ogg
402,192,15627,1,0,0:0:0:0:
109,192,16038,128,0,16449:0:0:0:50:hithat01.ogg
182,192,16038,1,0,0:0:0:0:
256,192,16449,1,0,0:0:0:50:hithat01.ogg
402,192,16654,1,0,0:0:0:10:31.ogg
182,192,16860,128,0,17271:0:0:0:50:hithat01.ogg
329,192,17271,128,0,17682:0:0:0:50:hithat01.ogg
109,192,17682,128,0,18093:0:0:0:50:hithat01.ogg
182,192,17682,1,0,0:0:0:0:
402,192,18093,128,0,18504:0:0:0:50:hithat01.ogg
256,192,18298,1,0,0:0:0:0:
36,192,18504,128,0,18915:0:0:0:50:hithat01.ogg
182,192,18915,128,0,19326:0:0:0:50:hithat01.ogg
329,192,19326,128,0,19737:0:0:0:50:hithat01.ogg
475,192,19737,1,0,0:0:0:50:hithat01.ogg
109,192,19942,1,0,0:0:0:60:37.ogg
329,192,20148,128,0,20558:0:0:0:50:hithat01.ogg
256,192,20558,128,0,20969:0:0:0:50:hithat01.ogg
182,192,20969,128,0,21380:0:0:0:50:hithat01.ogg
329,192,21380,1,0,0:0:0:50:hithat01.ogg
256,192,21586,1,0,0:0:0:0:
402,192,21791,128,0,22202:0:0:0:50:hithat01.ogg
329,192,22202,128,0,22613:0:0:0:50:hithat01.ogg
256,192,22613,128,0,23024:0:0:0:50:hithat01.ogg
182,192,23024,128,0,23435:0:0:0:50:hithat01.ogg
109,192,23435,128,0,24257:0:0:0:50:hithat01.ogg
256,192,24052,1,0,0:0:0:0:
402,192,24257,128,0,25079:0:0:0:50:hithat01.ogg
256,192,25079,1,0,0:0:0:10:snare01.ogg
36,192,25285,1,0,0:0:0:10:snare01.ogg
182,192,25285,1,0,0:0:0:60:snare01.ogg
475,192,25490,128,0,26312:0:0:0:60:snare02.ogg
36,192,25490,1,0,0:0:0:10:kick01.ogg
182,192,25490,1,0,0:0:0:0:
109,192,25695,1,0,0:0:0:60:snare01.ogg
182,192,25798,1,0,0:0:0:60:snare02.ogg
256,192,25901,1,0,0:0:0:60:snare01.ogg
402,192,26106,1,0,0:0:0:60:snare01.ogg
329,192,26312,1,0,0:0:0:0:
109,192,26312,1,0,0:0:0:0:
182,192,26517,1,0,0:0:0:0:
256,192,26723,1,0,0:0:0:50:cymbal01.ogg
475,192,26723,1,0,0:0:0:50:kick01.ogg
329,192,26928,1,0,0:0:0:60:kick01.ogg
182,192,27134,1,0,0:0:0:60:snare03.ogg
36,192,27134,1,0,0:0:0:60:clap01.ogg
109,192,27339,1,0,0:0:0:60:kick01.ogg
329,192,27545,1,0,0:0:0:10:kick01.ogg
182,192,27750,1,0,0:0:0:60:kick01.ogg
256,192,27956,1,0,0:0:0:60:snare03.ogg
402,192,27956,1,0,0:0:0:60:clap01.ogg
329,192,28161,1,0,0:0:0:60:kick01.ogg
256,192,28264,1,0,0:0:0:0:
182,192,28367,1,0,0:0:0:60:kick01.ogg
36,192,28572,1,0,0:0:0:60:kick01.ogg
182,192,28778,1,0,0:0:0:60:snare03.ogg
329,192,28778,1,0,0:0:0:60:clap01.ogg
256,192,28983,1,0,0:0:0:60:kick01.ogg
329,192,29189,1,0,0:0:0:10:kick01.ogg
402,192,29394,1,0,0:0:0:60:kick01.ogg
256,192,29600,1,0,0:0:0:60:snare03.ogg
109,192,29600,1,0,0:0:0:60:clap01.ogg
36,192,29805,1,0,0:0:0:0:
329,192,30011,1,0,0:0:0:0:
475,192,30011,1,0,0:0:0:0:
182,192,30216,1,0,0:0:0:0:
256,192,30421,1,0,0:0:0:0:
402,192,30421,1,0,0:0:0:0:
109,192,30627,1,0,0:0:0:60:kick01.ogg
182,192,30832,1,0,0:0:0:60:kick01.ogg
256,192,31038,1,0,0:0:0:60:kick01.ogg
329,192,31243,1,0,0:0:0:60:snare03.ogg
475,192,31243,1,0,0:0:0:60:clap01.ogg
36,192,31449,1,0,0:0:0:60:kick01.ogg
109,192,31552,1,0,0:0:0:0:
182,192,31654,1,0,0:0:0:60:kick01.ogg
256,192,31860,1,0,0:0:0:60:kick01.ogg
329,192,32065,1,0,0:0:0:60:snare03.ogg
475,192,32065,1,0,0:0:0:60:clap01.ogg
402,192,32271,1,0,0:0:0:60:kick01.ogg
329,192,32476,1,0,0:0:0:60:kick01.ogg
256,192,32682,1,0,0:0:0:60:kick01.ogg
182,192,32887,1,0,0:0:0:60:snare03.ogg
36,192,32887,1,0,0:0:0:60:clap01.ogg
256,192,33093,1,0,0:0:0:60:kick01.ogg
329,192,33298,1,0,0:0:0:60:kick01.ogg
256,192,33504,1,0,0:0:0:60:kick01.ogg
182,192,33709,1,0,0:0:0:60:snare03.ogg
36,192,33709,1,0,0:0:0:60:clap01.ogg
329,192,33915,1,0,0:0:0:60:kick01.ogg
402,192,34120,1,0,0:0:0:60:kick01.ogg
329,192,34326,1,0,0:0:0:60:kick01.ogg
182,192,34531,1,0,0:0:0:60:snare03.ogg
36,192,34531,1,0,0:0:0:60:clap01.ogg
475,192,34737,1,0,0:0:0:60:kick01.ogg
402,192,34839,1,0,0:0:0:0:
329,192,34942,1,0,0:0:0:60:kick01.ogg
109,192,34942,1,0,0:0:0:60:43.ogg
256,192,35148,1,0,0:0:0:60:kick01.ogg
182,192,35353,1,0,0:0:0:60:snare03.ogg
402,192,35353,1,0,0:0:0:60:clap01.ogg
329,192,35558,1,0,0:0:0:0:
402,192,35661,1,0,0:0:0:0:
475,192,35764,1,0,0:0:0:0:
36,192,35969,1,0,0:0:0:0:
329,192,36175,1,0,0:0:0:0:
475,192,36175,1,0,0:0:0:0:
182,192,36380,1,0,0:0:0:60:kick01.ogg
329,192,36586,128,0,36997:0:0:0:60:kick01.ogg
36,192,36586,1,0,0:0:0:60:47.ogg
182,192,36791,1,0,0:0:0:60:kick01.ogg
402,192,36997,1,0,0:0:0:60:snare03.ogg
475,192,37202,1,0,0:0:0:60:kick01.ogg
402,192,37305,1,0,0:0:0:60:snare03.ogg
329,192,37408,1,0,0:0:0:60:kick01.ogg
36,192,37613,1,0,0:0:0:60:kick01.ogg
256,192,37819,1,0,0:0:0:60:snare03.ogg
402,192,37819,1,0,0:0:0:60:clap01.ogg
36,192,38024,1,0,0:0:0:60:kick01.ogg
109,192,38127,1,0,0:0:0:0:
182,192,38230,1,0,0:0:0:60:snare01.ogg
256,192,38332,1,0,0:0:0:0:
329,192,38435,1,0,0:0:0:60:snare02.ogg
475,192,38435,1,0,0:0:0:60:snare01.ogg
36,192,38435,128,0,39463:0:0:0:10:kick01.ogg
402,192,38641,1,0,0:0:0:60:snare02.ogg
256,192,38641,1,0,0:0:0:60:snare01.ogg
329,192,38846,1,0,0:0:0:60:snare01.ogg
182,192,38846,1,0,0:0:0:0:
182,192,39257,1,0,0:0:0:60:snare01.ogg
329,192,39463,1,0,0:0:0:70:snare02.ogg
475,192,39463,1,0,0:0:0:70:snare01.ogg
109,192,39874,1,0,0:0:0:50:hithat01.ogg
256,192,39874,1,0,0:0:0:50:cymbal01.ogg
402,192,39874,1,0,0:0:0:50:clap02.ogg
36,192,40079,1,0,0:0:0:0:
182,192,40285,1,0,0:0:0:50:hithat01.ogg
475,192,40490,1,0,0:0:0:50:hithat01.ogg
402,192,40593,1,0,0:0:0:50:hithat01.ogg
329,192,40695,1,0,0:0:0:50:hithat01.ogg
36,192,40901,1,0,0:0:0:0:
182,192,40901,1,0,0:0:0:0:
329,192,41106,1,0,0:0:0:50:hithat01.ogg
475,192,41106,1,0,0:0:0:60:kick01.ogg
109,192,41312,1,0,0:0:0:50:hithat01.ogg
402,192,41312,1,0,0:0:0:0:
256,192,41517,1,0,0:0:0:50:hithat01.ogg
36,192,41723,1,0,0:0:0:0:
402,192,41928,1,0,0:0:0:50:hithat01.ogg
182,192,42134,1,0,0:0:0:50:hithat01.ogg
256,192,42237,1,0,0:0:0:50:hithat01.ogg
329,192,42339,1,0,0:0:0:50:hithat01.ogg
475,192,42339,1,0,0:0:0:50:cymbal01.ogg
402,192,42545,1,0,0:0:0:0:
329,192,42648,1,0,0:0:0:0:
256,192,42750,1,0,0:0:0:50:hithat01.ogg
36,192,42750,1,0,0:0:0:60:kick01.ogg
109,192,42956,1,0,0:0:0:0:
182,192,43161,1,0,0:0:0:50:hithat01.ogg
329,192,43161,1,0,0:0:0:60:kick01.ogg
256,192,43367,1,0,0:0:0:0:
475,192,43572,1,0,0:0:0:50:hithat01.ogg
182,192,43778,1,0,0:0:0:50:cymbal01.ogg
329,192,43778,1,0,0:0:0:50:hithat01.ogg
109,192,43880,1,0,0:0:0:0:
36,192,43983,1,0,0:0:0:50:hithat01.ogg
109,192,44189,1,0,0:0:0:0:
329,192,44394,1,0,0:0:0:50:hithat01.ogg
182,192,44394,1,0,0:0:0:60:kick01.ogg
402,192,44600,1,0,0:0:0:50:hithat01.ogg
256,192,44600,1,0,0:0:0:0:
36,192,44805,1,0,0:0:0:50:hithat01.ogg
182,192,44805,1,0,0:0:0:60:kick01.ogg
256,192,45011,1,0,0:0:0:0:
329,192,45216,1,0,0:0:0:50:hithat01.ogg
402,192,45421,1,0,0:0:0:0:
475,192,45627,1,0,0:0:0:50:cymbal01.ogg
256,192,45627,1,0,0:0:0:50:hithat01.ogg
402,192,45832,1,0,0:0:0:0:
329,192,45935,1,0,0:0:0:0:
256,192,46038,1,0,0:0:0:50:hithat01.ogg
109,192,46038,1,0,0:0:0:60:kick01.ogg
36,192,46243,1,0,0:0:0:50:hithat01.ogg
109,192,46449,1,0,0:0:0:50:hithat01.ogg
256,192,46449,1,0,0:0:0:60:kick01.ogg
182,192,46654,1,0,0:0:0:0:
256,192,46860,1,0,0:0:0:50:hithat01.ogg
402,192,46860,1,0,0:0:0:60:kick01.ogg
329,192,47065,1,0,0:0:0:50:hithat01.ogg
256,192,47271,1,0,0:0:0:50:cymbal01.ogg
109,192,47271,1,0,0:0:0:50:hithat01.ogg
182,192,47476,1,0,0:0:0:0:
36,192,47682,1,0,0:0:0:50:hithat01.ogg
256,192,47682,1,0,0:0:0:60:kick01.ogg
109,192,47887,1,0,0:0:0:0:
182,192,47990,1,0,0:0:0:0:
256,192,48093,1,0,0:0:0:50:hithat01.ogg
402,192,48298,1,0,0:0:0:0:
329,192,48401,1,0,0:0:0:0:
256,192,48504,1,0,0:0:0:50:hithat01.ogg
475,192,48504,128,0,49737:0:0:0:60:kick01.ogg
36,192,48709,1,0,0:0:0:50:hithat01.ogg
109,192,48915,1,0,0:0:0:50:hithat01.ogg
256,192,48915,1,0,0:0:0:50:cymbal01.ogg
182,192,49120,1,0,0:0:0:0:
256,192,49326,1,0,0:0:0:50:hithat01.ogg
329,192,49531,1,0,0:0:0:50:hithat01.ogg
256,192,49634,1,0,0:0:0:0:
182,192,49737,1,0,0:0:0:10:hithat01.ogg
402,192,49737,1,0,0:0:0:10:hithat01.ogg
36,192,49942,1,0,0:0:0:0:
109,192,50148,1,0,0:0:0:10:hithat01.ogg
256,192,50148,1,0,0:0:0:60:kick01.ogg
402,192,50148,1,0,0:0:0:0:
182,192,50353,1,0,0:0:0:10:hithat01.ogg
329,192,50353,1,0,0:0:0:10:hithat01.ogg
475,192,50353,1,0,0:0:0:60:kick01.ogg
402,192,50764,1,0,0:0:0:10:hithat01.ogg
256,192,50764,1,0,0:0:0:60:kick01.ogg
109,192,50764,1,0,0:0:0:0:
329,192,50969,1,0,0:0:0:10:hithat01.ogg
182,192,50969,1,0,0:0:0:10:hithat01.ogg
36,192,50969,1,0,0:0:0:60:kick01.ogg
256,192,51175,1,0,0:0:0:10:hithat01.ogg
109,192,51175,1,0,0:0:0:60:cymbal01.ogg
402,192,51175,1,0,0:0:0:60:snare01.ogg
475,192,51175,128,0,52819:0:0:0:60:clap02.ogg
36,192,51586,1,0,0:0:0:60:snare02.ogg
402,192,51791,1,0,0:0:0:60:snare01.ogg
182,192,51997,1,0,0:0:0:60:snare01.ogg
256,192,52100,1,0,0:0:0:60:snare01.ogg
329,192,52202,1,0,0:0:0:60:snare01.ogg
36,192,52408,1,0,0:0:0:60:snare01.ogg
109,192,52408,1,0,0:0:0:0:
182,192,52613,1,0,0:0:0:60:snare01.ogg
402,192,52819,1,0,0:0:0:60:snare01.ogg
256,192,52819,1,0,0:0:0:60:snare02.ogg
36,192,53435,5,0,0:0:0:10:kick01.ogg
109,192,53435,128,0,53846:0:0:0:0:
402,192,53846,128,0,54257:0:0:0:10:kick01.ogg
475,192,53846,1,0,0:0:0:0:
256,192,54257,128,0,54668:0:0:0:0:
109,192,54257,1,0,0:0:0:0:
402,192,54668,1,0,0:0:0:60:hithat01.ogg
109,192,54668,1,0,0:0:0:50:cymbal01.ogg
36,192,54874,1,0,0:0:0:10:kick01.ogg
109,192,55079,1,0,0:0:0:60:hithat01.ogg
329,192,55079,1,0,0:0:0:60:snare03.ogg
182,192,55285,1,0,0:0:0:60:kick01.ogg
329,192,55490,1,0,0:0:0:10:kick01.ogg
475,192,55695,1,0,0:0:0:60:kick01.ogg
182,192,55901,1,0,0:0:0:60:snare03.ogg
36,192,55901,1,0,0:0:0:60:kick01.ogg
256,192,56106,1,0,0:0:0:0:
329,192,56312,1,0,0:0:0:60:kick01.ogg
182,192,56517,1,0,0:0:0:60:kick01.ogg
109,192,56723,1,0,0:0:0:60:hithat01.ogg
402,192,56723,1,0,0:0:0:60:snare03.ogg
182,192,56928,1,0,0:0:0:60:01.ogg
329,192,57134,1,0,0:0:0:10:kick01.ogg
475,192,57339,1,0,0:0:0:60:kick01.ogg
109,192,57545,1,0,0:0:0:60:snare03.ogg
402,192,57545,1,0,0:0:0:60:kick01.ogg
182,192,57750,1,0,0:0:0:60:03.ogg
329,192,57750,1,0,0:0:0:0:
36,192,57956,1,0,0:0:0:60:kick01.ogg
402,192,57956,1,0,0:0:0:60:01.ogg
475,192,58161,1,0,0:0:0:60:kick01.ogg
256,192,58367,1,0,0:0:0:60:hithat01.ogg
402,192,58367,1,0,0:0:0:60:snare03.ogg
109,192,58572,1,0,0:0:0:60:kick01.ogg
182,192,58778,1,0,0:0:0:60:kick01.ogg
109,192,58983,1,0,0:0:0:60:kick01.ogg
329,192,59189,1,0,0:0:0:60:snare03.ogg
475,192,59189,1,0,0:0:0:60:kick01.ogg
36,192,59394,1,0,0:0:0:0:
182,192,59600,1,0,0:0:0:60:kick01.ogg
256,192,59805,1,0,0:0:0:10:kick01.ogg
329,192,60011,1,0,0:0:0:60:hithat01.ogg
182,192,60011,1,0,0:0:0:60:snare03.ogg
256,192,60216,1,0,0:0:0:60:kick01.ogg
182,192,60421,1,0,0:0:0:10:kick01.ogg
109,192,60627,1,0,0:0:0:60:kick01.ogg
182,192,60832,1,0,0:0:0:60:snare03.ogg
402,192,60832,1,0,0:0:0:60:kick01.ogg
256,192,61038,1,0,0:0:0:0:
475,192,61038,1,0,0:0:0:0:
36,192,61243,1,0,0:0:0:60:kick01.ogg
182,192,61243,1,0,0:0:0:60:01.ogg
329,192,61449,1,0,0:0:0:60:kick01.ogg
402,192,61654,1,0,0:0:0:60:hithat01.ogg
109,192,61654,1,0,0:0:0:60:snare03.ogg
182,192,61860,1,0,0:0:0:60:kick01.ogg
256,192,62065,1,0,0:0:0:10:kick01.ogg
329,192,62271,1,0,0:0:0:60:kick01.ogg
402,192,62476,1,0,0:0:0:60:snare03.ogg
109,192,62476,1,0,0:0:0:60:kick01.ogg
36,192,62682,1,0,0:0:0:0:
109,192,62887,1,0,0:0:0:60:kick01.ogg
182,192,63093,1,0,0:0:0:60:kick01.ogg
256,192,63298,1,0,0:0:0:60:hithat01.ogg
475,192,63298,1,0,0:0:0:60:snare03.ogg
329,192,63504,1,0,0:0:0:60:01.ogg
402,192,63709,1,0,0:0:0:60:kick01.ogg
329,192,63915,1,0,0:0:0:60:kick01.ogg
256,192,64120,1,0,0:0:0:60:snare03.ogg
36,192,64120,1,0,0:0:0:60:kick01.ogg
109,192,64326,1,0,0:0:0:60:03.ogg
182,192,64428,1,0,0:0:0:60:04.ogg
256,192,64531,1,0,0:0:0:60:kick01.ogg
475,192,64737,1,0,0:0:0:10:kick01.ogg
402,192,64839,1,0,0:0:0:60:02.ogg
329,192,64942,1,0,0:0:0:60:hithat01.ogg
182,192,65148,1,0,0:0:0:60:kick01.ogg
402,192,65148,1,0,0:0:0:60:01.ogg
36,192,65353,1,0,0:0:0:10:kick01.ogg
256,192,65558,1,0,0:0:0:60:kick01.ogg
109,192,65764,1,0,0:0:0:60:snare03.ogg
329,192,65764,1,0,0:0:0:60:kick01.ogg
182,192,65969,1,0,0:0:0:50:cymbal01.ogg
402,192,65969,1,0,0:0:0:60:clap02.ogg
256,192,66175,1,0,0:0:0:60:01.ogg
182,192,66380,1,0,0:0:0:60:snare01.ogg
329,192,66380,1,0,0:0:0:10:kick01.ogg
109,192,66586,1,0,0:0:0:60:snare01.ogg
402,192,66586,1,0,0:0:0:10:kick01.ogg
329,192,66791,1,0,0:0:0:60:snare01.ogg
36,192,66997,1,0,0:0:0:60:snare01.ogg
109,192,67100,1,0,0:0:0:0:
182,192,67202,1,0,0:0:0:60:snare01.ogg
256,192,67305,1,0,0:0:0:60:04.ogg
329,192,67408,1,0,0:0:0:60:cymbal01.ogg
402,192,67511,1,0,0:0:0:0:
475,192,67613,1,0,0:0:0:0:
402,192,67716,1,0,0:0:0:0:
329,192,67819,1,0,0:0:0:50:cymbal01.ogg
36,192,67819,1,0,0:0:0:60:hithat01.ogg
182,192,68024,1,0,0:0:0:60:kick01.ogg
329,192,68230,1,0,0:0:0:60:hithat01.ogg
475,192,68230,1,0,0:0:0:60:snare03.ogg
36,192,68435,1,0,0:0:0:60:kick01.ogg
182,192,68435,1,0,0:0:0:60:01.ogg
109,192,68641,1,0,0:0:0:60:kick01.ogg
182,192,68846,1,0,0:0:0:60:kick01.ogg
256,192,69052,1,0,0:0:0:60:snare03.ogg
402,192,69052,1,0,0:0:0:60:kick01.ogg
329,192,69257,1,0,0:0:0:0:
256,192,69360,1,0,0:0:0:0:
475,192,69463,1,0,0:0:0:60:kick01.ogg
182,192,69463,1,0,0:0:0:0:
329,192,69668,1,0,0:0:0:60:kick01.ogg
475,192,69874,1,0,0:0:0:60:hithat01.ogg
36,192,69874,1,0,0:0:0:60:snare03.ogg
109,192,70079,1,0,0:0:0:60:01.ogg
182,192,70285,1,0,0:0:0:10:kick01.ogg
36,192,70490,1,0,0:0:0:60:kick01.ogg
256,192,70695,1,0,0:0:0:60:snare03.ogg
402,192,70695,1,0,0:0:0:60:kick01.ogg
36,192,70901,1,0,0:0:0:60:03.ogg
109,192,71004,1,0,0:0:0:60:04.ogg
182,192,71106,1,0,0:0:0:60:kick01.ogg
402,192,71312,1,0,0:0:0:10:kick01.ogg
256,192,71517,1,0,0:0:0:60:hithat01.ogg
109,192,71517,1,0,0:0:0:60:snare03.ogg
402,192,71723,1,0,0:0:0:60:01.ogg
182,192,71928,1,0,0:0:0:10:kick01.ogg
402,192,72134,1,0,0:0:0:60:kick01.ogg
256,192,72339,1,0,0:0:0:60:snare03.ogg
36,192,72339,1,0,0:0:0:60:kick01.ogg
109,192,72545,1,0,0:0:0:0:
182,192,72648,1,0,0:0:0:0:
256,192,72750,1,0,0:0:0:60:kick01.ogg
329,192,72956,1,0,0:0:0:10:kick01.ogg
109,192,73161,1,0,0:0:0:60:hithat01.ogg
256,192,73161,1,0,0:0:0:60:snare03.ogg
182,192,73367,1,0,0:0:0:60:01.ogg
475,192,73572,1,0,0:0:0:10:kick01.ogg
256,192,73778,1,0,0:0:0:60:kick01.ogg
109,192,73983,1,0,0:0:0:60:snare03.ogg
402,192,73983,1,0,0:0:0:60:kick01.ogg
256,192,74189,1,0,0:0:0:0:
256,192,74394,1,0,0:0:0:60:01.ogg
36,192,74600,1,0,0:0:0:10:kick01.ogg
182,192,74805,1,0,0:0:0:60:hithat01.ogg
329,192,74805,1,0,0:0:0:60:kick01.ogg
475,192,75011,1,0,0:0:0:60:kick01.ogg
109,192,75216,1,0,0:0:0:60:kick01.ogg
402,192,75422,1,0,0:0:0:60:kick01.ogg
329,192,75627,1,0,0:0:0:60:kick01.ogg
182,192,75627,1,0,0:0:0:60:01.ogg
36,192,75832,1,0,0:0:0:0:
109,192,75935,1,0,0:0:0:0:
182,192,76038,1,0,0:0:0:60:01.ogg
329,192,76243,1,0,0:0:0:10:kick01.ogg
256,192,76449,1,0,0:0:0:60:hithat01.ogg
475,192,76449,1,0,0:0:0:60:kick01.ogg
109,192,76654,1,0,0:0:0:60:01.ogg
329,192,76654,128,0,77476:0:0:0:0:
182,192,76860,1,0,0:0:0:10:kick01.ogg
36,192,77065,1,0,0:0:0:60:kick01.ogg
109,192,77271,1,0,0:0:0:60:snare03.ogg
475,192,77271,1,0,0:0:0:60:kick01.ogg
256,192,77476,1,0,0:0:0:60:03.ogg
402,192,77682,128,0,79326:0:0:0:60:kick01.ogg
36,192,77682,1,0,0:0:0:0:
182,192,77887,1,0,0:0:0:60:kick01.ogg
256,192,78093,1,0,0:0:0:60:snare03.ogg
109,192,78298,1,0,0:0:0:60:kick01.ogg
256,192,78504,1,0,0:0:0:10:kick01.ogg
475,192,78709,1,0,0:0:0:60:kick01.ogg
182,192,78915,1,0,0:0:0:60:snare03.ogg
109,192,79120,1,0,0:0:0:0:
475,192,79326,128,0,80558:0:0:0:0:
36,192,79326,1,0,0:0:0:0:
402,192,79942,1,0,0:0:0:0:
109,192,80353,1,0,0:0:0:0:
36,192,80558,1,0,0:0:0:60:clap02.ogg
182,192,80558,1,0,0:0:0:60:kick01.ogg
256,192,80969,1,0,0:0:0:50:cymbal01.ogg
402,192,80969,1,0,0:0:0:60:kick01.ogg
329,192,81175,1,0,0:0:0:60:kick01.ogg
109,192,81380,1,0,0:0:0:50:hithat01.ogg
256,192,81380,1,0,0:0:0:60:snare03.ogg
402,192,81586,1,0,0:0:0:60:kick01.ogg
256,192,81791,1,0,0:0:0:50:hithat01.ogg
475,192,81997,1,0,0:0:0:60:kick01.ogg
256,192,82202,1,0,0:0:0:50:hithat01.ogg
109,192,82202,1,0,0:0:0:60:snare03.ogg
329,192,82408,1,0,0:0:0:60:kick01.ogg
402,192,82613,1,0,0:0:0:50:hithat01.ogg
329,192,82819,1,0,0:0:0:60:kick01.ogg
475,192,83024,1,0,0:0:0:60:snare03.ogg
182,192,83024,1,0,0:0:0:60:clap01.ogg
256,192,83230,1,0,0:0:0:60:kick01.ogg
329,192,83332,1,0,0:0:0:60:snare03.ogg
402,192,83435,1,0,0:0:0:50:hithat01.ogg
109,192,83641,1,0,0:0:0:60:kick01.ogg
256,192,83846,1,0,0:0:0:50:hithat01.ogg
402,192,83846,1,0,0:0:0:60:snare03.ogg
36,192,84052,1,0,0:0:0:60:kick01.ogg
475,192,84257,128,0,84668:0:0:0:50:hithat01.ogg
182,192,84463,1,0,0:0:0:60:kick01.ogg
402,192,84668,128,0,85079:0:0:0:50:hithat01.ogg
36,192,84874,1,0,0:0:0:10:kick01.ogg
329,192,85079,128,0,85490:0:0:0:60:kick01.ogg
182,192,85490,1,0,0:0:0:50:hithat01.ogg
109,192,85695,128,0,86106:0:0:0:50:cymbal01.ogg
182,192,86106,128,0,86312:0:0:0:60:snare01.ogg
256,192,86312,1,0,0:0:0:60:snare01.ogg
329,192,86415,1,0,0:0:0:0:
402,192,86517,1,0,0:0:0:60:18.ogg
475,192,86620,1,0,0:0:0:60:19.ogg
402,192,86723,1,0,0:0:0:60:20.ogg
329,192,86826,1,0,0:0:0:60:21.ogg
256,192,86928,1,0,0:0:0:60:22.ogg
182,192,87031,1,0,0:0:0:60:23.ogg
109,192,87134,1,0,0:0:0:50:cymbal01.ogg
475,192,87134,1,0,0:0:0:60:kick01.ogg
256,192,87339,128,0,89189:0:0:0:50:cymbal01.ogg
329,192,87339,128,0,89189:0:0:0:60:kick01.ogg
402,192,87339,1,0,0:0:0:60:54.ogg
