osu file format v13

[General]
AudioFilename: 02. .mp3
AudioLeadIn: 0
PreviewTime: 53273
Countdown: 0
SampleSet: Soft
StackLeniency: 0.7
Mode: 3
LetterboxInBreaks: 0
SpecialStyle: 0
WidescreenStoryboard: 1

[Editor]
DistanceSpacing: 1.5
BeatDivisor: 4
GridSize: 32
TimelineZoom: 1.3

[Metadata]
Title:STEP (TV Size)
TitleUnicode:STEP (TV Size)
Artist:ClariS
ArtistUnicode:ClariS
Creator:Soldsaga KunG
Version:4K NM
Source:Nisekoi
Tags:ニセコイ kz livetune - [ S o r a ] - Sora P i k o B a k a Piko
BeatmapID:422103
BeatmapSetID:170412

[Difficulty]
HPDrainRate:7
CircleSize:4
OverallDifficulty:7
ApproachRate:5
SliderMultiplier:1.4
SliderTickRate:1

[Events]
//Background and Video events
Video,0,"NisekoiOP2.avi"
0,0,"nisekoi-12-end-card.jpg",0,0
//Break Periods
//Storyboard Layer 0 (Background)
//Storyboard Layer 1 (Fail)
//Storyboard Layer 2 (Pass)
//Storyboard Layer 3 (Foreground)
//Storyboard Sound Samples
Sample,422,0,"01.ogg",70
Sample,730,0,"02.ogg",70
Sample,1038,0,"01.ogg",70
Sample,1449,0,"02.ogg",70
Sample,1654,0,"01.ogg",70
Sample,2065,0,"01.ogg",70
Sample,2374,0,"02.ogg",70
Sample,2682,0,"01.ogg",70
Sample,3093,0,"02.ogg",70
Sample,3298,0,"01.ogg",70
Sample,3504,0,"03.ogg",70
Sample,3606,0,"04.ogg",70
Sample,3709,0,"01.ogg",70
Sample,4017,0,"02.ogg",70
Sample,4326,0,"01.ogg",70
Sample,4737,0,"02.ogg",70
Sample,4942,0,"01.ogg",70
Sample,5353,0,"clap02.ogg",70
Sample,5558,0,"snare02.ogg",10
Sample,5558,0,"kick01.ogg",70
Sample,5764,0,"kick01.ogg",70
Sample,5764,0,"snare02.ogg",10
Sample,5969,0,"kick01.ogg",70
Sample,6072,0,"kick01.ogg",70
Sample,6175,0,"kick01.ogg",70
Sample,6380,0,"kick01.ogg",70
Sample,6586,0,"05.ogg",70
Sample,6689,0,"06.ogg",70
Sample,6791,0,"07.ogg",70
Sample,6894,0,"08.ogg",70
Sample,6997,0,"09.ogg",70
Sample,7613,0,"10.ogg",70
Sample,8024,0,"11.ogg",70
Sample,8230,0,"11.ogg",70
Sample,9257,0,"12.ogg",70
Sample,9668,0,"11.ogg",70
Sample,9874,0,"13.ogg",70
Sample,10079,0,"14.ogg",70
Sample,10695,0,"15.ogg",70
Sample,11106,0,"16.ogg",70
Sample,11517,0,"11.ogg",70
Sample,11723,0,"16.ogg",70
Sample,12134,0,"17.ogg",70
Sample,12545,0,"18.ogg",70
Sample,12545,0,"kick01.ogg",70
Sample,12648,0,"snare03.ogg",70
Sample,12648,0,"19.ogg",70
Sample,12750,0,"kick01.ogg",70
Sample,12750,0,"20.ogg",70
Sample,12750,0,"hithat01.ogg",50
Sample,12853,0,"21.ogg",70
Sample,12853,0,"snare03.ogg",70
Sample,12956,0,"kick01.ogg",70
Sample,12956,0,"22.ogg",70
Sample,13058,0,"23.ogg",70
Sample,13161,0,"hithat01.ogg",50
Sample,13161,0,"24.ogg",70
Sample,13161,0,"snare03.ogg",60
Sample,13264,0,"23.ogg",70
Sample,13367,0,"25.ogg",70
Sample,13469,0,"26.ogg",70
Sample,13572,0,"27.ogg",70
Sample,48915,0,"kick01.ogg",70
Sample,54668,0,"01.ogg",70
Sample,55901,0,"hithat01.ogg",70
Sample,57545,0,"hithat01.ogg",70
Sample,59189,0,"hithat01.ogg",70
Sample,60832,0,"hithat01.ogg",70
Sample,62476,0,"hithat01.ogg",70
Sample,64120,0,"hithat01.ogg",70
Sample,65764,0,"hithat01.ogg",70
Sample,67408,0,"clap02.ogg",70
Sample,67408,0,"hithat01.ogg",70
Sample,69052,0,"hithat01.ogg",70
Sample,70695,0,"hithat01.ogg",70
Sample,72339,0,"hithat01.ogg",70
Sample,73983,0,"hithat01.ogg",70
Sample,75627,0,"hithat01.ogg",70
Sample,77271,0,"hithat01.ogg",70
Sample,78915,0,"hithat01.ogg",70
Sample,83024,0,"hithat01.ogg",50
Sample,85079,0,"hithat01.ogg",50
//Background Colour Transformations
3,100,163,162,255

[TimingPoints]
422,410.958904109589,4,2,1,40,1,0
5353,-100,4,2,1,40,0,0
5558,-100,4,2,1,40,0,0
5969,-100,4,2,1,40,0,0
6072,-100,4,2,1,40,0,0
6689,-100,4,2,1,40,0,0
10901,-100,4,2,1,40,0,0
11106,-100,4,2,1,40,0,0
11312,-100,4,2,1,40,0,0
13161,-100,4,2,1,40,0,0
13264,-100,4,2,1,40,0,0
13572,-100,4,2,1,40,0,0
14394,-100,4,2,1,40,0,0
15627,-100,4,2,1,40,0,0
16038,-100,4,2,1,40,0,0
16449,-100,4,2,1,40,0,0
16860,-100,4,2,1,40,0,0
17271,-100,4,2,1,40,0,0
17682,-100,4,2,1,40,0,0
18504,-100,4,2,1,40,0,0
18915,-100,4,2,1,40,0,0
19326,-100,4,2,1,40,0,0
19531,-100,4,2,1,40,0,0
19737,-100,4,2,1,40,0,0
21380,-100,4,2,1,40,0,0
21791,-100,4,2,1,40,0,0
22613,-100,4,2,1,40,0,0
23538,-100,4,2,1,40,0,0
25079,-100,4,2,1,40,0,0
25695,-100,4,2,1,40,0,0
25798,-100,4,2,1,40,0,0
26312,-100,4,2,1,40,0,0
26620,-100,4,2,1,40,0,0
26723,-100,4,2,1,40,0,0
38435,-100,4,2,1,40,0,0
39668,-100,4,2,1,40,0,0
39874,-100,4,2,1,40,0,0
41312,-100,4,2,1,40,0,0
42339,-100,4,2,1,40,0,0
42442,-100,4,2,1,40,0,0
43778,-100,4,2,1,40,0,0
43880,-100,4,2,1,40,0,0
45627,-100,4,2,1,40,0,0
45935,-100,4,2,1,40,0,0
46243,-100,4,2,1,40,0,0
47271,-100,4,2,1,40,0,0
47682,-100,4,2,1,40,0,0
48915,-100,4,2,1,40,0,0
49737,-100,4,2,1,40,0,0
51586,-100,4,2,1,40,0,0
51997,-100,4,2,1,40,0,0
52100,-100,4,2,1,40,0,0
52819,-100,4,2,1,40,0,0
53435,-100,4,2,1,40,0,0
54668,-100,4,2,1,70,0,1
67408,-100,4,2,1,70,0,1
67716,-100,4,2,1,70,0,1
67819,-100,4,2,1,70,0,1
70182,-100,4,2,1,70,0,1
70285,-100,4,2,1,70,0,1
79326,-100,4,2,1,70,0,1
79737,-100,4,2,1,70,0,1
80558,-100,4,2,1,70,0,1
80661,-100,4,2,1,70,0,1
80969,-100,4,2,1,70,0,0
85079,-100,4,2,1,70,0,0
85285,-100,4,2,1,70,0,0
87134,-100,4,2,1,70,0,0
87237,-100,4,2,1,70,0,0
87442,-100,4,2,1,70,0,0

[HitObjects]
64,192,5353,5,0,0:0:0:50:cymbal01.ogg
192,192,5353,1,0,0:0:0:60:snare01.ogg
320,192,5558,1,0,0:0:0:60:snare01.ogg
320,192,5764,1,0,0:0:0:60:snare02.ogg
448,192,6072,1,0,0:0:0:60:snare02.ogg
448,192,6380,1,0,0:0:0:60:snare01.ogg
192,192,6586,1,0,0:0:0:60:snare02.ogg
64,192,6997,1,0,0:0:0:50:cymbal01.ogg
320,192,6997,1,0,0:0:0:60:kick01.ogg
448,192,7408,1,0,0:0:0:50:hithat01.ogg
320,192,7819,1,0,0:0:0:50:hithat01.ogg
64,192,8230,1,0,0:0:0:50:hithat01.ogg
448,192,8230,1,0,0:0:0:60:snare03.ogg
320,192,8641,1,0,0:0:0:50:hithat01.ogg
448,192,8846,1,0,0:0:0:60:kick01.ogg
192,192,9052,1,0,0:0:0:50:hithat01.ogg
64,192,9052,1,0,0:0:0:60:snare03.ogg
320,192,9463,1,0,0:0:0:50:hithat01.ogg
64,192,9874,1,0,0:0:0:50:hithat01.ogg
448,192,9874,1,0,0:0:0:60:snare03.ogg
320,192,10285,1,0,0:0:0:0:
192,192,10695,1,0,0:0:0:0:
64,192,10695,1,0,0:0:0:0:
320,192,10901,1,0,0:0:0:0:
192,192,11312,1,0,0:0:0:0:
320,192,11517,1,0,0:0:0:0:
192,192,11723,1,0,0:0:0:0:
64,192,11723,1,0,0:0:0:0:
320,192,12134,1,0,0:0:0:0:
448,192,12339,1,0,0:0:0:0:
192,192,12648,1,0,0:0:0:0:
64,192,12956,1,0,0:0:0:0:
192,192,13161,1,0,0:0:0:0:
320,192,13367,1,0,0:0:0:0:
192,192,13572,128,0,15011:0:0:0:50:cymbal01.ogg
448,192,13572,1,0,0:0:0:0:
64,192,15216,128,0,15627:0:0:0:50:hithat01.ogg
448,192,15627,128,0,16038:0:0:0:50:hithat01.ogg
192,192,16038,128,0,16449:0:0:0:50:hithat01.ogg
320,192,16449,1,0,0:0:0:50:hithat01.ogg
448,192,16654,1,0,0:0:0:10:31.ogg
64,192,16860,128,0,18504:0:0:0:50:hithat01.ogg
448,192,17682,1,0,0:0:0:50:hithat01.ogg
320,192,18504,1,0,0:0:0:50:hithat01.ogg
64,192,18915,1,0,0:0:0:50:hithat01.ogg
448,192,19326,1,0,0:0:0:50:hithat01.ogg
320,192,19531,1,0,0:0:0:60:34.ogg
64,192,19737,1,0,0:0:0:50:hithat01.ogg
192,192,19942,1,0,0:0:0:60:37.ogg
448,192,20148,128,0,20764:0:0:0:50:hithat01.ogg
64,192,20969,1,0,0:0:0:50:hithat01.ogg
320,192,21791,128,0,22202:0:0:0:50:hithat01.ogg
192,192,22202,128,0,22613:0:0:0:50:hithat01.ogg
448,192,22613,128,0,23024:0:0:0:50:hithat01.ogg
320,192,23024,128,0,23435:0:0:0:50:hithat01.ogg
64,192,23435,128,0,24257:0:0:0:50:hithat01.ogg
448,192,24257,128,0,25079:0:0:0:50:hithat01.ogg
320,192,25079,1,0,0:0:0:10:snare01.ogg
64,192,25285,1,0,0:0:0:10:snare01.ogg
448,192,25490,1,0,0:0:0:60:snare02.ogg
192,192,25695,1,0,0:0:0:60:snare01.ogg
320,192,25798,1,0,0:0:0:0:
64,192,26106,1,0,0:0:0:60:snare01.ogg
448,192,26312,1,0,0:0:0:0:
192,192,26312,1,0,0:0:0:0:
320,192,26723,1,0,0:0:0:50:cymbal01.ogg
64,192,26723,1,0,0:0:0:50:kick01.ogg
192,192,27134,1,0,0:0:0:60:snare03.ogg
448,192,27134,1,0,0:0:0:60:clap01.ogg
320,192,27545,1,0,0:0:0:10:kick01.ogg
64,192,27956,1,0,0:0:0:60:snare03.ogg
192,192,27956,1,0,0:0:0:60:clap01.ogg
448,192,28367,1,0,0:0:0:60:kick01.ogg
64,192,28778,1,0,0:0:0:60:snare03.ogg
320,192,28778,1,0,0:0:0:60:clap01.ogg
192,192,29189,1,0,0:0:0:10:kick01.ogg
448,192,29600,1,0,0:0:0:60:snare03.ogg
64,192,29600,1,0,0:0:0:60:clap01.ogg
320,192,29805,1,0,0:0:0:60:kick01.ogg
192,192,30011,1,0,0:0:0:60:kick01.ogg
64,192,30421,1,0,0:0:0:60:snare03.ogg
320,192,30421,1,0,0:0:0:60:clap01.ogg
448,192,30832,1,0,0:0:0:60:kick01.ogg
320,192,31243,1,0,0:0:0:60:snare03.ogg
64,192,31243,1,0,0:0:0:60:clap01.ogg
192,192,31654,1,0,0:0:0:60:kick01.ogg
448,192,32065,1,0,0:0:0:60:snare03.ogg
192,192,32065,1,0,0:0:0:60:clap01.ogg
320,192,32476,1,0,0:0:0:60:kick01.ogg
64,192,32887,1,0,0:0:0:60:snare03.ogg
448,192,32887,1,0,0:0:0:60:clap01.ogg
320,192,33093,1,0,0:0:0:60:kick01.ogg
192,192,33298,1,0,0:0:0:60:kick01.ogg
448,192,33504,1,0,0:0:0:60:kick01.ogg
64,192,33709,1,0,0:0:0:60:snare03.ogg
320,192,33709,1,0,0:0:0:60:clap01.ogg
192,192,34120,1,0,0:0:0:60:kick01.ogg
448,192,34531,1,0,0:0:0:60:snare03.ogg
64,192,34531,1,0,0:0:0:60:clap01.ogg
320,192,34942,1,0,0:0:0:60:kick01.ogg
192,192,35148,1,0,0:0:0:60:kick01.ogg
64,192,35353,1,0,0:0:0:60:snare03.ogg
320,192,35353,1,0,0:0:0:60:clap01.ogg
448,192,35764,1,0,0:0:0:10:kick01.ogg
64,192,36175,1,0,0:0:0:60:snare03.ogg
320,192,36175,1,0,0:0:0:60:clap01.ogg
192,192,36586,1,0,0:0:0:60:kick01.ogg
448,192,36997,1,0,0:0:0:60:snare03.ogg
320,192,36997,1,0,0:0:0:60:clap01.ogg
64,192,37202,1,0,0:0:0:60:kick01.ogg
320,192,37408,1,0,0:0:0:60:kick01.ogg
192,192,37613,1,0,0:0:0:60:kick01.ogg
448,192,37819,1,0,0:0:0:60:snare03.ogg
64,192,37819,1,0,0:0:0:60:clap01.ogg
192,192,38024,1,0,0:0:0:60:kick01.ogg
320,192,38230,1,0,0:0:0:60:snare01.ogg
64,192,38435,1,0,0:0:0:60:snare02.ogg
448,192,38641,1,0,0:0:0:60:snare02.ogg
320,192,38641,128,0,39463:0:0:0:60:snare01.ogg
192,192,39463,1,0,0:0:0:70:snare02.ogg
64,192,39874,1,0,0:0:0:50:hithat01.ogg
320,192,39874,128,0,40285:0:0:0:50:cymbal01.ogg
192,192,40490,128,0,40901:0:0:0:50:hithat01.ogg
320,192,41106,1,0,0:0:0:50:hithat01.ogg
64,192,41312,128,0,41723:0:0:0:50:hithat01.ogg
448,192,41928,1,0,0:0:0:50:hithat01.ogg
320,192,42339,1,0,0:0:0:50:hithat01.ogg
192,192,42339,1,0,0:0:0:50:cymbal01.ogg
64,192,42750,1,0,0:0:0:50:hithat01.ogg
448,192,42750,1,0,0:0:0:60:kick01.ogg
192,192,43161,128,0,43572:0:0:0:50:hithat01.ogg
320,192,43778,128,0,44189:0:0:0:50:cymbal01.ogg
64,192,44394,1,0,0:0:0:50:hithat01.ogg
448,192,44600,128,0,45421:0:0:0:50:hithat01.ogg
320,192,45421,1,0,0:0:0:0:
64,192,45627,1,0,0:0:0:50:cymbal01.ogg
192,192,45627,1,0,0:0:0:50:hithat01.ogg
448,192,46038,1,0,0:0:0:50:hithat01.ogg
320,192,46038,1,0,0:0:0:60:kick01.ogg
64,192,46449,128,0,47271:0:0:0:50:hithat01.ogg
320,192,46860,1,0,0:0:0:50:hithat01.ogg
448,192,47271,1,0,0:0:0:50:cymbal01.ogg
192,192,47682,1,0,0:0:0:50:hithat01.ogg
448,192,47887,1,0,0:0:0:0:
64,192,48093,128,0,48915:0:0:0:50:hithat01.ogg
448,192,48504,1,0,0:0:0:0:
320,192,48915,1,0,0:0:0:50:hithat01.ogg
448,192,49326,128,0,49737:0:0:0:50:hithat01.ogg
192,192,49737,1,0,0:0:0:10:hithat01.ogg
64,192,50353,1,0,0:0:0:10:hithat01.ogg
448,192,50353,1,0,0:0:0:10:hithat01.ogg
192,192,50764,1,0,0:0:0:10:hithat01.ogg
320,192,50969,1,0,0:0:0:10:hithat01.ogg
64,192,51175,1,0,0:0:0:10:hithat01.ogg
448,192,51175,1,0,0:0:0:60:cymbal01.ogg
64,192,51586,1,0,0:0:0:60:snare02.ogg
192,192,51791,1,0,0:0:0:60:snare01.ogg
448,192,51997,1,0,0:0:0:60:snare01.ogg
320,192,52202,1,0,0:0:0:60:snare01.ogg
192,192,52408,1,0,0:0:0:60:snare01.ogg
448,192,52613,1,0,0:0:0:60:snare01.ogg
64,192,52819,1,0,0:0:0:60:snare01.ogg
320,192,52819,1,0,0:0:0:60:snare02.ogg
64,192,53435,5,0,0:0:0:10:kick01.ogg
448,192,53846,1,0,0:0:0:10:kick01.ogg
192,192,54257,1,0,0:0:0:0:
320,192,54668,1,0,0:0:0:60:hithat01.ogg
448,192,54668,1,0,0:0:0:50:cymbal01.ogg
64,192,55079,1,0,0:0:0:60:hithat01.ogg
320,192,55079,1,0,0:0:0:60:snare03.ogg
192,192,55490,1,0,0:0:0:10:kick01.ogg
320,192,55901,1,0,0:0:0:60:snare03.ogg
64,192,55901,1,0,0:0:0:60:kick01.ogg
192,192,56312,1,0,0:0:0:60:kick01.ogg
448,192,56723,1,0,0:0:0:60:hithat01.ogg
64,192,56723,1,0,0:0:0:60:snare03.ogg
320,192,57134,1,0,0:0:0:10:kick01.ogg
64,192,57339,1,0,0:0:0:60:kick01.ogg
320,192,57545,1,0,0:0:0:60:snare03.ogg
448,192,57545,1,0,0:0:0:60:kick01.ogg
64,192,57750,1,0,0:0:0:60:03.ogg
192,192,57750,1,0,0:0:0:0:
448,192,57956,1,0,0:0:0:60:kick01.ogg
320,192,57956,1,0,0:0:0:60:01.ogg
64,192,58367,1,0,0:0:0:60:hithat01.ogg
320,192,58367,1,0,0:0:0:60:snare03.ogg
192,192,58778,1,0,0:0:0:60:kick01.ogg
448,192,59189,1,0,0:0:0:60:snare03.ogg
64,192,59189,1,0,0:0:0:60:kick01.ogg
192,192,59394,1,0,0:0:0:0:
320,192,59600,1,0,0:0:0:60:kick01.ogg
64,192,59600,1,0,0:0:0:60:01.ogg
192,192,60011,1,0,0:0:0:60:hithat01.ogg
448,192,60011,1,0,0:0:0:60:snare03.ogg
64,192,60421,1,0,0:0:0:10:kick01.ogg
192,192,60832,1,0,0:0:0:60:snare03.ogg
448,192,60832,1,0,0:0:0:60:kick01.ogg
64,192,61243,1,0,0:0:0:60:kick01.ogg
192,192,61449,1,0,0:0:0:60:kick01.ogg
320,192,61654,1,0,0:0:0:60:hithat01.ogg
448,192,61860,1,0,0:0:0:60:kick01.ogg
64,192,61860,1,0,0:0:0:60:01.ogg
192,192,62271,1,0,0:0:0:60:kick01.ogg
320,192,62476,1,0,0:0:0:60:snare03.ogg
448,192,62682,1,0,0:0:0:0:
192,192,62682,1,0,0:0:0:0:
64,192,63093,1,0,0:0:0:60:kick01.ogg
192,192,63298,1,0,0:0:0:60:hithat01.ogg
448,192,63298,1,0,0:0:0:60:snare03.ogg
320,192,63709,1,0,0:0:0:60:kick01.ogg
64,192,64120,1,0,0:0:0:60:snare03.ogg
448,192,64120,1,0,0:0:0:60:kick01.ogg
192,192,64531,1,0,0:0:0:60:kick01.ogg
448,192,64737,1,0,0:0:0:10:kick01.ogg
320,192,64942,1,0,0:0:0:60:hithat01.ogg
192,192,65148,1,0,0:0:0:60:kick01.ogg
448,192,65148,1,0,0:0:0:60:01.ogg
64,192,65558,1,0,0:0:0:60:kick01.ogg
320,192,65558,1,0,0:0:0:60:02.ogg
192,192,65969,1,0,0:0:0:50:cymbal01.ogg
448,192,65969,1,0,0:0:0:60:clap02.ogg
320,192,66380,1,0,0:0:0:60:snare01.ogg
192,192,66380,1,0,0:0:0:10:kick01.ogg
448,192,66586,1,0,0:0:0:60:snare01.ogg
320,192,66791,1,0,0:0:0:60:snare01.ogg
64,192,66791,128,0,67408:0:0:0:60:01.ogg
448,192,67408,1,0,0:0:0:60:cymbal01.ogg
64,192,67819,1,0,0:0:0:50:cymbal01.ogg
320,192,67819,1,0,0:0:0:60:hithat01.ogg
192,192,68230,1,0,0:0:0:60:hithat01.ogg
448,192,68230,1,0,0:0:0:60:snare03.ogg
64,192,68641,1,0,0:0:0:60:kick01.ogg
192,192,69052,1,0,0:0:0:60:snare03.ogg
448,192,69052,1,0,0:0:0:60:kick01.ogg
320,192,69463,1,0,0:0:0:60:kick01.ogg
192,192,69668,1,0,0:0:0:60:kick01.ogg
64,192,69874,1,0,0:0:0:60:hithat01.ogg
320,192,69874,1,0,0:0:0:60:snare03.ogg
192,192,70285,1,0,0:0:0:10:kick01.ogg
320,192,70695,1,0,0:0:0:60:snare03.ogg
448,192,70695,1,0,0:0:0:60:kick01.ogg
192,192,71106,1,0,0:0:0:60:kick01.ogg
64,192,71517,1,0,0:0:0:60:hithat01.ogg
320,192,71517,1,0,0:0:0:60:snare03.ogg
192,192,71928,1,0,0:0:0:10:kick01.ogg
448,192,72339,1,0,0:0:0:60:snare03.ogg
64,192,72339,1,0,0:0:0:60:kick01.ogg
320,192,72545,1,0,0:0:0:0:
192,192,72750,1,0,0:0:0:60:kick01.ogg
64,192,73161,1,0,0:0:0:60:hithat01.ogg
320,192,73161,1,0,0:0:0:60:snare03.ogg
448,192,73572,1,0,0:0:0:10:kick01.ogg
64,192,73983,1,0,0:0:0:60:snare03.ogg
192,192,73983,1,0,0:0:0:60:kick01.ogg
448,192,74394,1,0,0:0:0:60:01.ogg
64,192,74805,1,0,0:0:0:60:hithat01.ogg
192,192,75011,1,0,0:0:0:60:kick01.ogg
64,192,75422,1,0,0:0:0:60:kick01.ogg
192,192,75627,1,0,0:0:0:60:kick01.ogg
320,192,75832,1,0,0:0:0:0:
448,192,76243,1,0,0:0:0:10:kick01.ogg
192,192,76449,1,0,0:0:0:60:hithat01.ogg
64,192,76449,1,0,0:0:0:60:kick01.ogg
320,192,76860,1,0,0:0:0:10:kick01.ogg
64,192,77271,1,0,0:0:0:60:snare03.ogg
320,192,77271,1,0,0:0:0:60:kick01.ogg
192,192,77476,1,0,0:0:0:60:03.ogg
448,192,77476,1,0,0:0:0:0:
320,192,77682,1,0,0:0:0:60:kick01.ogg
64,192,77682,128,0,79120:0:0:0:0:
192,192,78093,1,0,0:0:0:60:snare03.ogg
448,192,78093,1,0,0:0:0:60:kick01.ogg
320,192,78504,1,0,0:0:0:10:kick01.ogg
320,192,78915,1,0,0:0:0:60:clap02.ogg
192,192,79120,1,0,0:0:0:60:snare03.ogg
448,192,79120,1,0,0:0:0:0:
192,192,80558,1,0,0:0:0:60:clap02.ogg
64,192,80969,1,0,0:0:0:50:cymbal01.ogg
320,192,80969,1,0,0:0:0:60:kick01.ogg
192,192,81380,1,0,0:0:0:50:hithat01.ogg
448,192,81380,1,0,0:0:0:60:snare03.ogg
64,192,81791,1,0,0:0:0:50:hithat01.ogg
320,192,82202,1,0,0:0:0:50:hithat01.ogg
192,192,82202,1,0,0:0:0:60:snare03.ogg
448,192,82613,1,0,0:0:0:50:hithat01.ogg
192,192,83024,1,0,0:0:0:60:snare03.ogg
448,192,83024,1,0,0:0:0:60:clap01.ogg
320,192,83230,1,0,0:0:0:60:kick01.ogg
64,192,83435,1,0,0:0:0:50:hithat01.ogg
192,192,83846,1,0,0:0:0:50:hithat01.ogg
448,192,83846,1,0,0:0:0:60:snare03.ogg
320,192,84257,1,0,0:0:0:50:hithat01.ogg
64,192,84668,1,0,0:0:0:50:hithat01.ogg
192,192,84668,128,0,85079:0:0:0:60:snare03.ogg
320,192,85079,128,0,85490:0:0:0:60:kick01.ogg
448,192,85490,128,0,85695:0:0:0:50:hithat01.ogg
64,192,85695,128,0,86312:0:0:0:50:cymbal01.ogg
448,192,86106,1,0,0:0:0:60:snare01.ogg
320,192,86312,1,0,0:0:0:60:snare01.ogg
448,192,86517,1,0,0:0:0:60:18.ogg
192,192,86517,128,0,87134:0:0:0:0:
448,192,87134,1,0,0:0:0:50:cymbal01.ogg
320,192,87339,128,0,89189:0:0:0:50:cymbal01.ogg
64,192,87339,128,0,89189:0:0:0:60:kick01.ogg
