osu file format v13

[General]
AudioFilename: STEP.mp3
AudioLeadIn: 0
PreviewTime: 53440
Countdown: 1
SampleSet: Normal
StackLeniency: 0.7
Mode: 1
LetterboxInBreaks: 0
WidescreenStoryboard: 0

[Editor]
Bookmarks: 81385
DistanceSpacing: 1
BeatDivisor: 4
GridSize: 32
TimelineZoom: 2.1

[Metadata]
Title:STEP (TV Size)
TitleUnicode:STEP (TV Size)
Artist:ClariS
ArtistUnicode:ClariS
Creator:KinomiCandy
Version:Oni
Source:Nisekoi
Tags:-Sh1n1- cxu opening shaft livetune kz alice clara false love
BeatmapID:413655
BeatmapSetID:167082

[Difficulty]
HPDrainRate:5
CircleSize:4
OverallDifficulty:5
ApproachRate:5
SliderMultiplier:1.4
SliderTickRate:1

[Events]
//Background and Video events
0,0,"BG.jpg",0,95
//Break Periods
//Storyboard Layer 0 (Background)
//Storyboard Layer 1 (Fail)
//Storyboard Layer 2 (Pass)
//Storyboard Layer 3 (Foreground)
//Storyboard Sound Samples
//Background Colour Transformations
3,100,163,162,255

[TimingPoints]
427,410.958904109589,4,1,0,70,1,0
54673,-100,4,1,0,70,0,1
67413,-100,4,1,0,70,0,0
67824,-100,4,1,0,70,0,1
79331,-100,4,1,0,70,0,0

[Colours]
Combo1 : 165,0,244
Combo2 : 10,187,239
Combo3 : 244,214,0
Combo4 : 80,218,33
Combo5 : 255,106,34

[HitObjects]
256,192,427,5,8,0:0:0:0:
256,192,735,1,0,0:0:0:0:
256,192,1043,1,8,0:0:0:0:
256,192,1454,1,0,0:0:0:0:
256,192,1659,1,8,0:0:0:0:
256,192,1865,1,0,0:0:0:0:
256,192,1968,1,0,0:0:0:0:
256,192,2070,1,8,0:0:0:0:
256,192,2379,1,0,0:0:0:0:
256,192,2687,1,8,0:0:0:0:
256,192,3098,1,0,0:0:0:0:
256,192,3303,1,8,0:0:0:0:
256,192,3406,1,0,0:0:0:0:
256,192,3509,1,0,0:0:0:0:
256,192,3611,1,0,0:0:0:0:
256,192,3714,1,8,0:0:0:0:
256,192,4022,1,0,0:0:0:0:
256,192,4331,1,8,0:0:0:0:
256,192,4742,1,0,0:0:0:0:
256,192,4947,1,8,0:0:0:0:
256,192,5153,1,0,0:0:0:0:
256,192,5358,1,4,0:0:0:0:
256,192,5563,1,8,0:0:0:0:
256,192,5769,1,8,0:0:0:0:
256,192,5974,1,0,0:0:0:0:
256,192,6077,1,8,0:0:0:0:
256,192,6180,1,0,0:0:0:0:
256,192,6283,1,8,0:0:0:0:
256,192,6385,1,0,0:0:0:0:
256,192,6591,1,12,0:0:0:0:
256,192,7002,1,4,0:0:0:0:
256,192,7413,1,8,0:0:0:0:
256,192,7618,1,0,0:0:0:0:
256,192,8029,1,0,0:0:0:0:
256,192,8235,1,8,0:0:0:0:
256,192,8440,1,0,0:0:0:0:
256,192,8646,1,8,0:0:0:0:
256,192,8748,1,8,0:0:0:0:
256,192,8851,1,0,0:0:0:0:
256,192,8954,1,0,0:0:0:0:
256,192,9057,1,0,0:0:0:0:
256,192,9262,1,8,0:0:0:0:
256,192,9673,1,0,0:0:0:0:
256,192,9879,1,8,0:0:0:0:
256,192,10084,1,0,0:0:0:0:
256,192,10290,1,4,0:0:0:0:
256,192,10700,1,8,0:0:0:0:
256,192,10803,1,0,0:0:0:0:
256,192,10906,1,0,0:0:0:0:
256,192,11009,1,0,0:0:0:0:
256,192,11111,1,8,0:0:0:0:
256,192,11214,1,0,0:0:0:0:
256,192,11317,1,0,0:0:0:0:
256,192,11420,1,0,0:0:0:0:
256,192,11522,1,8,0:0:0:0:
256,192,11728,1,12,0:0:0:0:
256,192,12139,1,8,0:0:0:0:
256,192,12344,1,8,0:0:0:0:
256,192,12550,1,0,0:0:0:0:
256,192,12653,1,8,0:0:0:0:
256,192,12755,1,0,0:0:0:0:
256,192,12858,1,8,0:0:0:0:
256,192,12961,1,8,0:0:0:0:
256,192,13166,1,8,0:0:0:0:
256,192,13269,1,8,0:0:0:0:
256,192,13372,1,0,0:0:0:0:
256,192,13474,1,8,0:0:0:0:
256,192,13577,1,0,0:0:0:0:
256,192,15016,1,0,0:0:0:0:
256,192,15221,1,8,0:0:0:0:
256,192,15632,1,0,0:0:0:0:
256,192,16043,1,8,0:0:0:0:
256,192,16248,1,8,0:0:0:0:
256,192,16454,1,0,0:0:0:0:
256,192,16659,1,0,0:0:0:0:
256,192,16865,1,8,0:0:0:0:
256,192,17687,1,8,0:0:0:0:
256,192,18303,1,0,0:0:0:0:
256,192,18509,1,8,0:0:0:0:
256,192,18920,1,0,0:0:0:0:
256,192,19331,1,8,0:0:0:0:
256,192,19536,1,0,0:0:0:0:
256,192,19742,1,0,0:0:0:0:
256,192,19947,1,0,0:0:0:0:
256,192,20153,1,8,0:0:0:0:
256,192,20974,1,0,0:0:0:0:
256,192,21796,1,8,0:0:0:0:
256,192,22207,1,0,0:0:0:0:
256,192,22618,1,8,0:0:0:0:
256,192,23029,1,8,0:0:0:0:
256,192,23440,1,0,0:0:0:0:
256,192,24057,1,8,0:0:0:0:
256,192,24262,1,8,0:0:0:0:
256,192,24879,1,8,0:0:0:0:
256,192,25084,1,0,0:0:0:0:
256,192,25290,1,8,0:0:0:0:
256,192,25495,1,8,0:0:0:0:
256,192,25598,1,8,0:0:0:0:
256,192,25700,1,0,0:0:0:0:
256,192,25803,1,0,0:0:0:0:
256,192,25906,1,8,0:0:0:0:
256,192,26111,1,0,0:0:0:0:
256,192,26317,1,12,0:0:0:0:
256,192,26728,1,4,0:0:0:0:
256,192,27139,1,8,0:0:0:0:
256,192,27344,1,0,0:0:0:0:
256,192,27550,1,0,0:0:0:0:
256,192,27755,1,0,0:0:0:0:
256,192,27961,1,8,0:0:0:0:
256,192,28166,1,8,0:0:0:0:
256,192,28269,1,8,0:0:0:0:
256,192,28372,1,0,0:0:0:0:
256,192,28783,1,8,0:0:0:0:
256,192,29194,1,0,0:0:0:0:
256,192,29399,1,0,0:0:0:0:
256,192,29605,1,8,0:0:0:0:
256,192,29810,1,8,0:0:0:0:
256,192,30016,1,0,0:0:0:0:
256,192,30426,1,8,0:0:0:0:
256,192,30632,1,0,0:0:0:0:
256,192,31043,1,0,0:0:0:0:
256,192,31248,1,8,0:0:0:0:
256,192,31454,1,0,0:0:0:0:
256,192,31557,1,0,0:0:0:0:
256,192,31659,1,0,0:0:0:0:
256,192,32070,1,8,0:0:0:0:
256,192,32481,1,0,0:0:0:0:
256,192,32687,1,0,0:0:0:0:
256,192,32892,1,8,0:0:0:0:
256,192,33098,1,8,0:0:0:0:
256,192,33200,1,8,0:0:0:0:
256,192,33303,1,0,0:0:0:0:
256,192,33714,1,8,0:0:0:0:
256,192,34125,1,0,0:0:0:0:
256,192,34331,1,8,0:0:0:0:
256,192,34433,1,8,0:0:0:0:
256,192,34536,1,8,0:0:0:0:
256,192,34742,1,0,0:0:0:0:
256,192,34947,1,0,0:0:0:0:
256,192,35358,1,8,0:0:0:0:
256,192,35769,1,0,0:0:0:0:
256,192,35974,1,0,0:0:0:0:
256,192,36180,1,8,0:0:0:0:
256,192,36385,1,0,0:0:0:0:
256,192,36591,1,8,0:0:0:0:
256,192,37002,1,0,0:0:0:0:
256,192,37207,1,0,0:0:0:0:
256,192,37413,1,8,0:0:0:0:
256,192,37824,1,0,0:0:0:0:
256,192,38029,1,0,0:0:0:0:
256,192,38235,1,0,0:0:0:0:
256,192,38440,1,8,0:0:0:0:
256,192,38646,1,8,0:0:0:0:
256,192,38851,1,0,0:0:0:0:
256,192,38954,1,0,0:0:0:0:
256,192,39057,1,8,0:0:0:0:
256,192,39159,1,8,0:0:0:0:
256,192,39262,1,0,0:0:0:0:
256,192,39365,1,0,0:0:0:0:
256,192,39468,1,8,0:0:0:0:
256,192,39879,1,12,0:0:0:0:
256,192,40290,1,0,0:0:0:0:
256,192,40495,1,8,0:0:0:0:
256,192,40906,1,8,0:0:0:0:
256,192,41111,1,8,0:0:0:0:
256,192,41317,1,0,0:0:0:0:
256,192,41522,1,8,0:0:0:0:
256,192,41625,1,8,0:0:0:0:
256,192,41728,1,8,0:0:0:0:
256,192,41831,1,8,0:0:0:0:
256,192,41933,1,8,0:0:0:0:
256,192,42139,1,8,0:0:0:0:
256,192,42344,1,4,0:0:0:0:
256,192,42550,1,8,0:0:0:0:
256,192,42653,1,8,0:0:0:0:
256,192,42755,1,0,0:0:0:0:
256,192,42961,1,8,0:0:0:0:
256,192,43166,1,0,0:0:0:0:
256,192,43577,1,0,0:0:0:0:
256,192,43783,1,12,0:0:0:0:
256,192,44194,1,0,0:0:0:0:
256,192,44399,1,0,0:0:0:0:
256,192,44605,1,0,0:0:0:0:
256,192,44810,1,8,0:0:0:0:
256,192,45016,1,8,0:0:0:0:
256,192,45118,1,8,0:0:0:0:
256,192,45221,1,8,0:0:0:0:
256,192,45324,1,8,0:0:0:0:
256,192,45426,1,8,0:0:0:0:
256,192,45632,1,4,0:0:0:0:
256,192,45940,1,0,0:0:0:0:
256,192,46248,1,0,0:0:0:0:
256,192,46454,1,0,0:0:0:0:
256,192,46865,1,0,0:0:0:0:
256,192,47276,1,12,0:0:0:0:
256,192,47687,1,0,0:0:0:0:
256,192,47892,1,0,0:0:0:0:
256,192,48098,1,0,0:0:0:0:
256,192,48509,1,0,0:0:0:0:
256,192,48920,1,12,0:0:0:0:
256,192,49331,1,8,0:0:0:0:
256,192,49536,1,8,0:0:0:0:
256,192,49742,1,4,0:0:0:0:
256,192,49947,1,8,0:0:0:0:
256,192,50050,1,8,0:0:0:0:
256,192,50153,1,0,0:0:0:0:
256,192,50358,1,12,0:0:0:0:
256,192,50769,1,0,0:0:0:0:
256,192,50974,1,4,0:0:0:0:
256,192,51180,1,4,0:0:0:0:
256,192,51591,1,8,0:0:0:0:
256,192,51796,1,8,0:0:0:0:
256,192,52002,1,0,0:0:0:0:
256,192,52105,1,8,0:0:0:0:
256,192,52207,1,0,0:0:0:0:
256,192,52310,1,8,0:0:0:0:
256,192,52413,1,0,0:0:0:0:
256,192,52618,1,0,0:0:0:0:
256,192,52824,1,12,0:0:0:0:
256,192,53440,1,8,0:0:0:0:
256,192,53851,1,8,0:0:0:0:
256,192,54262,1,8,0:0:0:0:
256,192,54673,1,4,0:0:0:0:
256,192,55084,1,8,0:0:0:0:
256,192,55290,1,0,0:0:0:0:
256,192,55392,1,0,0:0:0:0:
256,192,55495,1,0,0:0:0:0:
256,192,55700,1,0,0:0:0:0:
256,192,55906,1,8,0:0:0:0:
256,192,56111,1,0,0:0:0:0:
256,192,56317,1,0,0:0:0:0:
256,192,56728,1,8,0:0:0:0:
256,192,56933,1,0,0:0:0:0:
256,192,57139,1,0,0:0:0:0:
256,192,57242,1,0,0:0:0:0:
256,192,57344,1,8,0:0:0:0:
256,192,57447,1,8,0:0:0:0:
256,192,57550,1,0,0:0:0:0:
256,192,57755,1,8,0:0:0:0:
256,192,57961,1,0,0:0:0:0:
256,192,58269,1,8,0:0:0:0:
256,192,58372,1,0,0:0:0:0:
256,192,58577,1,8,0:0:0:0:
256,192,58783,1,0,0:0:0:0:
256,192,58988,1,0,0:0:0:0:
256,192,59194,1,8,0:0:0:0:
256,192,59399,1,8,0:0:0:0:
256,192,59605,1,0,0:0:0:0:
256,192,59810,1,8,0:0:0:0:
256,192,59913,1,0,0:0:0:0:
256,192,60016,1,0,0:0:0:0:
256,192,60118,1,0,0:0:0:0:
256,192,60221,1,8,0:0:0:0:
256,192,60426,1,0,0:0:0:0:
256,192,60632,1,8,0:0:0:0:
256,192,60735,1,8,0:0:0:0:
256,192,60837,1,0,0:0:0:0:
256,192,61043,1,8,0:0:0:0:
256,192,61248,1,0,0:0:0:0:
256,192,61556,1,8,0:0:0:0:
256,192,61659,1,0,0:0:0:0:
256,192,61865,1,8,0:0:0:0:
256,192,62070,1,0,0:0:0:0:
256,192,62276,1,0,0:0:0:0:
256,192,62481,1,8,0:0:0:0:
256,192,62687,1,0,0:0:0:0:
256,192,62892,1,0,0:0:0:0:
256,192,63303,1,8,0:0:0:0:
256,192,63509,1,0,0:0:0:0:
256,192,63611,1,8,0:0:0:0:
256,192,63714,1,8,0:0:0:0:
256,192,63920,1,0,0:0:0:0:
256,192,64125,1,8,0:0:0:0:
256,192,64331,1,8,0:0:0:0:
256,192,64536,1,0,0:0:0:0:
256,192,64947,1,8,0:0:0:0:
256,192,65153,1,0,0:0:0:0:
256,192,65563,1,8,0:0:0:0:
256,192,65974,1,8,0:0:0:0:
256,192,66385,1,8,0:0:0:0:
256,192,66488,1,8,0:0:0:0:
256,192,66591,1,0,0:0:0:0:
256,192,66796,1,8,0:0:0:0:
256,192,67002,1,0,0:0:0:0:
256,192,67207,1,0,0:0:0:0:
256,192,67413,1,12,0:0:0:0:
256,192,67824,1,4,0:0:0:0:
256,192,68235,1,8,0:0:0:0:
256,192,68646,1,0,0:0:0:0:
256,192,68851,1,8,0:0:0:0:
256,192,68954,1,8,0:0:0:0:
256,192,69057,1,0,0:0:0:0:
256,192,69262,1,8,0:0:0:0:
256,192,69468,1,0,0:0:0:0:
256,192,69879,1,0,0:0:0:0:
256,192,70084,1,8,0:0:0:0:
256,192,70290,1,0,0:0:0:0:
256,192,70392,1,8,0:0:0:0:
256,192,70495,1,8,0:0:0:0:
256,192,70598,1,8,0:0:0:0:
256,192,70700,1,0,0:0:0:0:
256,192,70906,1,8,0:0:0:0:
256,192,71111,1,0,0:0:0:0:
256,192,71317,1,8,0:0:0:0:
256,192,71420,1,8,0:0:0:0:
256,192,71522,1,0,0:0:0:0:
256,192,71625,1,8,0:0:0:0:
256,192,71831,1,8,0:0:0:0:
256,192,71933,1,0,0:0:0:0:
256,192,72139,1,8,0:0:0:0:
256,192,72242,1,8,0:0:0:0:
256,192,72344,1,0,0:0:0:0:
256,192,72550,1,8,0:0:0:0:
256,192,72755,1,0,0:0:0:0:
256,192,72961,1,8,0:0:0:0:
256,192,73063,1,8,0:0:0:0:
256,192,73166,1,8,0:0:0:0:
256,192,73372,1,8,0:0:0:0:
256,192,73577,1,0,0:0:0:0:
256,192,73885,1,8,0:0:0:0:
256,192,73988,1,0,0:0:0:0:
256,192,74194,1,8,0:0:0:0:
256,192,74399,1,0,0:0:0:0:
256,192,74605,1,8,0:0:0:0:
256,192,74707,1,8,0:0:0:0:
256,192,74810,1,0,0:0:0:0:
256,192,75016,1,8,0:0:0:0:
256,192,75221,1,0,0:0:0:0:
256,192,75427,1,0,0:0:0:0:
256,192,75632,1,8,0:0:0:0:
256,192,75837,1,8,0:0:0:0:
256,192,76043,1,0,0:0:0:0:
256,192,76454,1,8,0:0:0:0:
256,192,76659,1,0,0:0:0:0:
256,192,76762,1,0,0:0:0:0:
256,192,76865,1,0,0:0:0:0:
256,192,77070,1,0,0:0:0:0:
256,192,77276,1,8,0:0:0:0:
256,192,77481,1,8,0:0:0:0:
256,192,77687,1,0,0:0:0:0:
256,192,78098,1,8,0:0:0:0:
256,192,78303,1,0,0:0:0:0:
256,192,78714,1,0,0:0:0:0:
256,192,78920,1,8,0:0:0:0:
256,192,79125,1,0,0:0:0:0:
256,192,80563,1,8,0:0:0:0:
256,192,80666,1,8,0:0:0:0:
256,192,80769,1,8,0:0:0:0:
256,192,80872,1,8,0:0:0:0:
256,192,80974,1,0,0:0:0:0:
256,192,81385,1,8,0:0:0:0:
256,192,81590,1,0,0:0:0:0:
256,192,82001,1,0,0:0:0:0:
256,192,82207,1,8,0:0:0:0:
256,192,82412,1,0,0:0:0:0:
256,192,82516,1,8,0:0:0:0:
256,192,82618,1,8,0:0:0:0:
256,192,82823,1,0,0:0:0:0:
256,192,82926,1,8,0:0:0:0:
256,192,83029,1,0,0:0:0:0:
256,192,83234,1,8,0:0:0:0:
256,192,83440,1,0,0:0:0:0:
256,192,83645,1,0,0:0:0:0:
256,192,83851,1,8,0:0:0:0:
256,192,84056,1,0,0:0:0:0:
256,192,84262,1,4,0:0:0:0:
256,192,84672,1,8,0:0:0:0:
256,192,84776,1,0,0:0:0:0:
256,192,84879,1,0,0:0:0:0:
256,192,84981,1,0,0:0:0:0:
256,192,85084,1,8,0:0:0:0:
256,192,85187,1,0,0:0:0:0:
256,192,85289,1,0,0:0:0:0:
256,192,85392,1,0,0:0:0:0:
256,192,85495,1,8,0:0:0:0:
256,192,85700,1,8,0:0:0:0:
256,192,86111,1,8,0:0:0:0:
256,192,86316,1,8,0:0:0:0:
256,192,86522,1,0,0:0:0:0:
256,192,86625,1,0,0:0:0:0:
256,192,86727,1,8,0:0:0:0:
256,192,86830,1,8,0:0:0:0:
256,192,86933,1,8,0:0:0:0:
256,192,87036,1,8,0:0:0:0:
256,192,87139,1,8,0:0:0:0:
256,192,87344,1,4,0:0:0:0:
