osu file format v13

[General]
AudioFilename: STEP.mp3
AudioLeadIn: 0
PreviewTime: 53440
Countdown: 1
SampleSet: Soft
StackLeniency: 0.7
Mode: 0
LetterboxInBreaks: 0
WidescreenStoryboard: 0

[Editor]
DistanceSpacing: 1
BeatDivisor: 4
GridSize: 4
TimelineZoom: 2.1

[Metadata]
Title:STEP (TV Size)
TitleUnicode:STEP (TV Size)
Artist:ClariS
ArtistUnicode:ClariS
Creator:KinomiCandy
Version:Normal
Source:Nisekoi
Tags:-Sh1n1- cxu opening shaft livetune kz alice clara false love
BeatmapID:407608
BeatmapSetID:167082

[Difficulty]
HPDrainRate:3
CircleSize:3
OverallDifficulty:3
ApproachRate:4
SliderMultiplier:1.2
SliderTickRate:1

[Events]
//Background and Video events
0,0,"BG.jpg",0,0
Video,-103,"opvid.avi"
//Break Periods
//Storyboard Layer 0 (Background)
//Storyboard Layer 1 (Fail)
//Storyboard Layer 2 (Pass)
//Storyboard Layer 3 (Foreground)
//Storyboard Sound Samples
//Background Colour Transformations
3,100,163,162,255

[TimingPoints]
427,410.958904109589,4,2,1,50,1,0
5358,-100,4,2,2,40,0,0
5461,-100,4,2,1,40,0,0
6591,-100,4,2,3,60,0,0
7002,-100,4,2,1,50,0,0
13577,-166.666666666667,4,2,1,30,0,0
25084,-100,4,2,1,40,0,0
26317,-100,4,2,2,40,0,0
26728,-100,4,2,1,40,0,0
39879,-100,4,2,2,40,0,0
46454,-100,4,2,1,40,0,0
47276,-100,4,2,2,40,0,0
47687,-100,4,2,1,40,0,0
48920,-100,4,2,2,40,0,0
49331,-100,4,2,1,40,0,0
51180,-100,4,2,2,40,0,0
52824,-200,4,2,1,50,0,0
53440,-100,4,2,1,50,0,0
54673,-100,4,2,2,60,0,1
55084,-100,4,2,1,60,0,1
66385,-100,4,2,1,50,0,1
67413,-100,4,2,1,50,0,0
67824,-100,4,2,2,60,0,1
68235,-100,4,2,1,60,0,1
79331,-100,4,2,1,50,0,0
80974,-100,4,2,2,50,0,0
81385,-100,4,2,1,50,0,0
87344,-100,4,2,2,50,0,0
89194,-100,4,2,1,5,0,0

[Colours]
Combo1 : 165,0,244
Combo2 : 10,187,239
Combo3 : 244,214,0
Combo4 : 80,218,33
Combo5 : 255,106,34

[HitObjects]
256,80,427,6,0,P|320:80|356:104,2,89.9999999999999,2|0|2,0:0|0:0|0:0,0:0:0:0:
116,192,1659,1,2,0:0:0:0:
28,272,2070,6,0,P|28:316|48:360,2,90,2|0|2,0:0|0:0|0:0,0:0:0:0:
188,192,3303,2,0,P|272:192|312:216,1,120,2|2,0:0|0:0,0:0:0:0:
384,244,4022,6,0,P|440:264|492:264,1,90,0|2,0:0|0:0,0:0:0:0:
372,336,4742,1,0,0:0:0:0:
312,336,4947,2,0,P|244:336|200:304,1,120,2|4,0:0|0:0,0:0:0:0:
120,220,5769,1,8,0:0:0:0:
220,152,6180,1,0,0:0:0:0:
332,192,6591,2,0,P|404:192|440:164,1,120,8|4,0:0|0:0,0:0:0:0:
352,80,7413,5,8,0:0:0:0:
292,80,7618,2,0,P|180:80|124:136,1,180,2|10,0:0|0:0,0:0:0:0:
64,220,8646,1,2,0:0:0:0:
172,276,9057,2,0,P|232:296|292:268,1,120,8|0,0:0|0:0,0:0:0:0:
368,192,9879,1,8,0:0:0:0:
416,300,10290,1,4,0:0:0:0:
256,192,10495,12,4,13577,0:0:0:0:
64,192,15221,5,2,0:0:0:0:
136,192,15632,2,0,L|216:192,1,71.9999978027344,0|2,0:0|0:0,0:0:0:0:
280,192,16454,1,0,0:0:0:0:
352,192,16865,2,0,P|440:192|480:140,1,143.999995605469,2|2,0:0|0:0,0:0:0:0:
388,92,18303,5,0,0:0:0:0:
356,72,18509,2,0,P|264:72|228:116,1,143.999995605469,2|2,0:0|0:0,0:0:0:0:
172,148,19742,1,0,0:0:0:0:
140,212,20153,2,0,P|64:212|8:260,1,143.999995605469,2|2,0:0|0:0,0:0:0:0:
132,332,21796,6,0,L|208:332,1,71.9999978027344,2|0,0:0|0:0,0:0:0:0:
276,332,22618,1,2,0:0:0:0:
348,332,23029,1,2,0:0:0:0:
404,284,23440,2,0,P|448:228|448:148,1,143.999995605469,2|2,0:0|0:0,0:0:0:0:
232,56,25084,6,0,P|160:56|120:88,1,120,8|8,0:0|0:0,0:0:0:0:
212,168,25906,2,0,P|296:168|324:144,1,120,8|4,0:0|0:0,0:0:0:0:
424,88,26728,6,0,P|444:136|424:200,1,120,4|8,0:0|0:0,0:0:0:0:
340,284,27550,1,2,0:0:0:0:
340,284,27755,1,2,0:0:0:0:
288,316,27961,2,0,P|200:316|160:288,1,120,8|2,0:0|0:0,0:0:0:0:
68,352,28783,6,0,P|48:292|80:228,1,120,8|2,0:0|0:0,0:0:0:0:
148,152,29605,1,8,0:0:0:0:
240,72,30016,2,0,P|316:72|360:120,1,120,2|8,0:0|0:0,0:0:0:0:
256,176,30837,2,0,P|176:176|136:136,1,120,2|8,0:0|0:0,0:0:0:0:
48,88,31659,6,0,P|28:152|56:208,1,120,2|8,0:0|0:0,0:0:0:0:
136,280,32481,1,2,0:0:0:0:
136,280,32687,1,2,0:0:0:0:
188,312,32892,2,0,P|268:312|308:276,1,120,8|2,0:0|0:0,0:0:0:0:
388,212,33714,1,8,0:0:0:0:
304,128,34125,6,0,P|256:92|176:92,1,120,2|8,0:0|0:0,0:0:0:0:
136,188,34947,2,0,P|60:188|24:228,2,120,2|8|2,0:0|0:0|0:0,0:0:0:0:
208,284,36180,2,0,P|296:284|328:256,1,120,8|2,0:0|0:0,0:0:0:0:
248,172,37002,2,0,P|160:172|128:200,1,120,8|2,0:0|0:0,0:0:0:0:
56,276,37824,1,8,0:0:0:0:
256,192,38235,12,4,39879,0:0:0:0:
256,192,40495,6,0,P|356:192|412:124,1,180,8|0,0:0|0:0,0:0:0:0:
432,92,41317,1,8,0:0:0:0:
256,40,41933,1,0,0:0:0:0:
152,104,42344,6,0,P|80:104|40:140,1,120,12|8,0:0|0:0,0:0:0:0:
120,228,43166,2,0,P|212:228|276:164,1,180,8|12,0:0|0:0,0:0:0:0:
428,80,44399,1,8,0:0:0:0:
428,80,44605,2,0,P|468:144|424:236,1,180,8|0,0:0|0:0,0:0:0:0:
320,288,45632,2,0,P|252:288|216:304,1,90,12|0,0:0|0:0,0:0:0:0:
144,320,46248,1,0,0:0:0:0:
84,320,46454,6,0,P|44:252|44:184,1,120,2|2,0:0|0:0,0:0:0:0:
108,112,47276,1,12,0:0:0:0:
200,192,47687,1,0,0:0:0:0:
320,192,48098,2,0,P|400:192|448:152,2,120,2|2|12,0:0|0:0|0:0,0:0:0:0:
200,192,49331,5,2,0:0:0:0:
200,192,49536,1,2,0:0:0:0:
152,228,49742,2,0,P|56:228|4:292,1,180,4|4,0:0|0:0,0:0:0:0:
176,344,50769,2,0,L|248:344,2,60,0|4|6,0:0|0:0|0:2,0:0:0:0:
256,192,51385,12,4,52824,0:0:0:0:
56,192,53440,5,2,0:0:0:0:
156,256,53851,1,2,0:0:0:0:
256,188,54262,1,2,0:0:0:0:
376,188,54673,6,0,P|456:188|488:148,1,120,4|8,0:0|0:0,0:0:0:0:
384,92,55495,2,0,P|316:92|280:128,1,120,2|8,0:0|0:0,0:0:0:0:
232,164,56111,1,0,0:0:0:0:
180,192,56317,2,0,P|108:192|64:156,1,120,2|8,0:0|0:0,0:0:0:0:
160,88,57139,5,2,0:0:0:0:
160,88,57344,1,2,0:0:0:0:
212,56,57550,2,0,P|292:56|320:80,1,120,8|2,0:0|0:0,0:0:0:0:
428,28,58372,6,0,P|448:88|424:144,1,120,8|2,0:0|0:0,0:0:0:0:
320,192,59194,1,8,0:0:0:0:
320,192,59399,1,0,0:0:0:0:
268,224,59605,2,0,P|180:224|156:244,1,120,2|8,0:0|0:0,0:0:0:0:
60,308,60426,6,0,P|32:244|40:208,2,90,2|2|2,0:0|0:0|0:0,0:0:0:0:
112,336,61248,2,0,L|240:336,1,120,2|8,0:0|0:0,0:0:0:0:
324,260,62070,1,2,0:0:0:0:
424,192,62481,2,0,P|460:152|460:88,1,120,8|2,0:0|0:0,0:0:0:0:
344,124,63303,2,0,P|272:124|232:160,1,120,8|2,0:0|0:0,0:0:0:0:
124,192,64125,5,8,0:0:0:0:
124,192,64331,1,2,0:0:0:0:
68,216,64536,2,0,P|48:256|48:344,1,120,2|8,0:0|0:0,0:0:0:0:
92,368,65153,5,8,0:0:0:0:
196,310,65563,1,8,0:0:0:0:
304,366,65974,1,8,0:0:0:0:
256,192,66385,8,6,67824,0:0:0:0:
256,328,68235,6,0,P|332:328|376:300,1,120,8|2,0:0|0:0,0:0:0:0:
480,348,69057,2,0,P|496:276|472:224,1,120,8|2,0:0|0:0,0:0:0:0:
400,144,69879,1,8,0:0:0:0:
288,192,70290,5,2,0:0:0:0:
288,192,70495,1,2,0:0:0:0:
228,192,70700,2,0,P|160:192|116:144,1,120,8|2,0:0|0:0,0:0:0:0:
216,80,71522,2,0,P|284:80|328:128,1,120,8|2,0:0|0:0,0:0:0:0:
408,192,72344,1,8,0:0:0:0:
312,268,72755,2,0,P|256:288|184:252,1,120,2|8,0:0|0:0,0:0:0:0:
108,192,73577,6,0,L|8:192,2,90,2|2|2,0:0|0:0|0:0,0:0:0:0:
152,152,74399,2,0,P|200:116|280:116,1,120,2|8,0:0|0:0,0:0:0:0:
256,232,75221,1,2,0:0:0:0:
368,192,75632,5,8,0:0:0:0:
368,192,75837,1,2,0:0:0:0:
428,192,76043,2,0,P|468:140|468:84,1,120,2|8,0:0|0:0,0:0:0:0:
348,104,76865,2,0,P|280:104|236:136,1,120,2|8,0:0|0:0,0:0:0:0:
148,212,77687,5,2,0:0:0:0:
236,292,78098,1,8,0:0:0:0:
288,320,78303,2,0,P|364:320|408:276,2,120,2|2|4,0:0|0:0|0:0,0:0:0:0:
256,192,79331,12,4,80974,0:0:0:0:
160,304,81385,5,8,0:0:0:0:
220,304,81590,2,0,P|332:304|388:248,1,180,2|10,0:0|0:0,0:0:0:0:
448,164,82618,1,2,0:0:0:0:
340,108,83029,2,0,L|232:36,1,120,8|2,0:0|0:0,0:0:0:0:
140,108,83851,1,8,0:0:0:0:
140,108,84262,1,8,0:0:0:0:
256,192,84467,12,4,87344,0:0:0:0:
