osu file format v13

[General]
AudioFilename: STEP.mp3
AudioLeadIn: 0
PreviewTime: 53440
Countdown: 1
SampleSet: Soft
StackLeniency: 0.7
Mode: 0
LetterboxInBreaks: 0
WidescreenStoryboard: 0

[Editor]
Bookmarks: 13577
DistanceSpacing: 1
BeatDivisor: 4
GridSize: 4
TimelineZoom: 2.599999

[Metadata]
Title:STEP (TV Size)
TitleUnicode:STEP (TV Size)
Artist:ClariS
ArtistUnicode:ClariS
Creator:KinomiCandy
Version:Insane
Source:Nisekoi
Tags:-Sh1n1- cxu opening shaft livetune kz alice clara false love
BeatmapID:405966
BeatmapSetID:167082

[Difficulty]
HPDrainRate:7
CircleSize:4
OverallDifficulty:7
ApproachRate:8
SliderMultiplier:1.8
SliderTickRate:1

[Events]
//Background and Video events
0,0,"BG.jpg",0,0
Video,-103,"opvid.avi"
//Break Periods
//Storyboard Layer 0 (Background)
//Storyboard Layer 1 (Fail)
//Storyboard Layer 2 (Pass)
//Storyboard Layer 3 (Foreground)
//Storyboard Sound Samples
//Background Colour Transformations
3,100,163,162,255

[TimingPoints]
427,410.958904109589,4,2,1,50,1,0
5358,-100,4,2,2,40,0,0
5461,-100,4,2,1,40,0,0
6591,-100,4,2,3,40,0,0
7002,-100,4,2,1,50,0,0
13166,-100,4,2,2,50,0,0
13577,-166.666666666667,4,2,1,30,0,0
24879,-100,4,2,1,40,0,0
26317,-100,4,2,2,40,0,0
26728,-100,4,2,1,40,0,0
39879,-100,4,2,2,40,0,0
40906,-100,4,2,1,40,0,0
42344,-100,4,2,2,40,0,0
42755,-100,4,2,1,40,0,0
43783,-100,4,2,2,40,0,0
44605,-100,4,2,1,40,0,0
45632,-100,4,2,2,40,0,0
45940,-100,4,2,1,40,0,0
47276,-100,4,2,2,40,0,0
48098,-100,4,2,1,40,0,0
48920,-100,4,2,2,40,0,0
49742,-100,4,2,1,40,0,0
51180,-100,4,2,2,40,0,0
51591,-100,4,2,1,40,0,0
52824,-200,4,2,1,50,0,0
53440,-100,4,2,1,50,0,0
54673,-100,4,2,2,60,0,1
55084,-100,4,2,1,60,0,1
66385,-100,4,2,1,50,0,1
66796,-100,4,2,1,60,0,1
67413,-100,4,2,3,80,0,0
67824,-100,4,2,2,60,0,1
68029,-100,4,2,1,60,0,1
79331,-100,4,2,1,50,0,0
80974,-100,4,2,2,50,0,0
81180,-100,4,2,1,50,0,0
87344,-100,4,2,2,50,0,0
89194,-100,4,2,1,5,0,0

[Colours]
Combo1 : 165,0,244
Combo2 : 10,187,239
Combo3 : 244,214,0
Combo4 : 80,218,33
Combo5 : 255,106,34

[HitObjects]
204,316,427,6,0,P|312:316|340:288,1,135,2|0,0:0|0:0,0:0:0:0:
388,356,837,2,0,P|412:296|412:232,1,90,0|2,0:0|0:0,0:0:0:0:
328,112,1454,1,0,0:0:0:0:
196,236,1659,1,2,0:0:0:0:
144,64,1865,1,0,0:0:0:0:
144,64,1968,1,0,0:0:0:0:
144,64,2070,6,0,P|64:64|28:104,1,135,2|0,0:0|0:0,0:0:0:0:
104,136,2481,2,0,L|136:236,1,90,0|2,0:0|0:0,0:0:0:0:
131,221,3098,1,0,0:0:0:0:
276,328,3303,1,2,0:0:0:0:
372,328,3509,1,0,0:0:0:0:
372,328,3611,1,0,0:0:0:0:
372,328,3714,6,0,P|452:328|492:288,1,135,2|0,0:0|0:0,0:0:0:0:
489,292,4331,1,2,0:0:0:0:
489,292,4742,5,0,0:0:0:0:
416,128,4947,1,2,0:0:0:0:
256,208,5153,1,0,0:0:0:0:
96,128,5358,1,14,0:0:0:0:
96,128,5563,5,8,0:0:0:0:
40,192,5769,2,0,P|40:284|72:340,1,135,8|8,0:0|0:0,0:0:0:0:
57,321,6385,1,8,0:0:0:0:
224,260,6591,2,0,L|200:228,7,22.5,8|0|0|0|0|0|0|0,0:0|0:0|0:0|0:0|0:0|0:0|0:0|0:0,0:0:0:0:
224,260,7002,6,0,P|344:260|396:208,1,180,12|10,0:0|0:0,0:0:0:0:
348,356,7618,1,2,0:0:0:0:
348,356,8029,1,2,0:0:0:0:
276,192,8235,2,0,P|172:192|136:256,1,180,8|0,0:0|0:0,0:0:0:0:
132,272,8748,1,0,0:0:0:0:
112,284,8851,1,0,0:0:0:0:
84,288,8954,1,0,0:0:0:0:
64,284,9057,1,8,0:0:0:0:
72,196,9262,1,0,0:0:0:0:
72,196,9673,5,0,0:0:0:0:
172,48,9879,1,8,0:0:0:0:
276,200,10084,1,0,0:0:0:0:
276,200,10290,6,0,P|384:200|440:156,1,180,4|8,0:0|0:0,0:0:0:0:
444,136,10803,1,0,0:0:0:0:
430,93,10905,1,0,0:0:0:0:
400,60,11008,1,0,0:0:0:0:
359,41,11111,1,8,0:0:0:0:
314,41,11213,1,0,0:0:0:0:
273,59,11316,1,0,0:0:0:0:
248,96,11420,1,0,0:0:0:0:
228,134,11522,1,8,0:0:0:0:
180,212,11728,6,0,P|113:268|20:252,1,180,4|8,0:0|0:0,0:0:0:0:
88,196,12344,1,8,0:0:0:0:
164,328,12550,1,0,0:0:0:0:
188,328,12653,1,8,0:0:0:0:
212,328,12755,1,0,0:0:0:0:
236,328,12858,1,0,0:0:0:0:
260,328,12961,1,8,0:0:0:0:
348,328,13166,2,0,P|404:328|452:296,2,90,12|0|4,0:0|0:0|0:0,0:0:0:0:
224,192,15016,5,0,0:0:0:0:
304,192,15221,2,0,P|368:192|408:164,1,107.999996704102,2|0,0:0|0:0,0:0:0:0:
280,64,16043,2,0,P|216:64|176:92,1,107.999996704102,2|0,0:0|0:0,0:0:0:0:
120,140,16659,1,0,0:0:0:0:
120,140,16865,2,0,P|88:228|128:288,1,161.999995056153,2|0,0:0|0:0,0:0:0:0:
284,352,17687,2,0,P|316:264|276:204,1,161.999995056153,2|0,0:0|0:0,0:0:0:0:
204,208,18509,5,2,0:0:0:0:
300,80,18920,1,0,0:0:0:0:
400,208,19331,2,0,L|448:264,1,53.9999983520508,2|0,0:0|0:0,0:0:0:0:
360,280,19742,2,0,L|308:324,1,53.9999983520508,0|0,0:0|0:0,0:0:0:0:
240,328,20153,6,0,P|152:328|100:264,1,161.999995056153,2|0,0:0|0:0,0:0:0:0:
220,176,20974,2,0,P|308:176|360:240,1,161.999995056153,2|0,0:0|0:0,0:0:0:0:
408,288,21796,2,0,P|436:236|420:180,1,107.999996704102,2|0,0:0|0:0,0:0:0:0:
412,160,22618,1,2,0:0:0:0:
396,132,23029,1,0,0:0:0:0:
312,64,23440,2,0,P|216:64|164:120,1,161.999995056153,2|0,0:0|0:0,0:0:0:0:
170,106,24262,1,2,0:0:0:0:
256,284,24879,5,2,0:0:0:0:
332,336,25084,1,0,0:0:0:0:
460,208,25290,1,8,0:0:0:0:
288,160,25495,1,8,0:0:0:0:
348,328,25700,1,2,0:0:0:0:
348,328,25803,1,2,0:0:0:0:
348,328,25906,1,8,0:0:0:0:
460,188,26111,1,0,0:0:0:0:
324,68,26317,2,0,P|220:68|148:120,1,180,4|4,0:0|0:0,0:0:0:0:
256,260,27139,6,0,P|312:260|352:236,1,90,8|0,0:0|0:0,0:0:0:0:
184,200,27550,2,0,P|152:240|152:280,1,90,2|2,0:0|0:0,0:0:0:0:
216,340,27961,1,8,0:0:0:0:
268,164,28166,1,0,0:0:0:0:
192,116,28372,6,0,P|128:116|100:132,1,90,2|0,0:0|0:0,0:0:0:0:
252,236,28783,2,0,P|324:236|344:220,1,90,8|2,0:0|0:0,0:0:0:0:
384,152,29194,1,0,0:0:0:0:
252,236,29399,2,0,P|232:284|232:328,1,90,2|8,0:0|0:0,0:0:0:0:
256,144,29810,5,2,0:0:0:0:
244,100,29913,1,0,0:0:0:0:
216,64,30016,2,0,P|108:64|52:116,1,180,2|8,0:0|0:0,0:0:0:0:
176,196,30632,2,0,P|284:196|340:144,1,180,2|2,0:0|0:0,0:0:0:0:
160,112,31248,1,8,0:0:0:0:
96,172,31454,5,0,0:0:0:0:
88,216,31557,1,0,0:0:0:0:
108,256,31659,2,0,P|144:292|192:312,1,90,2|0,0:0|0:0,0:0:0:0:
264,376,32070,2,0,P|304:356|335:324,1,90,8|2,0:0|0:0,0:0:0:0:
256,160,32481,2,0,P|256:228|276:268,1,90,0|2,0:0|0:0,0:0:0:0:
324,80,32892,1,10,0:0:0:0:
156,68,33098,1,2,0:0:0:0:
156,68,33200,1,0,0:0:0:0:
156,68,33303,6,0,P|52:68|8:140,1,180,2|10,0:0|0:0,0:0:0:0:
144,248,33920,1,0,0:0:0:0:
144,248,34125,2,0,P|248:248|292:176,1,180,2|10,0:0|0:0,0:0:0:0:
200,176,34742,1,0,0:0:0:0:
200,176,34947,2,0,L|268:360,1,180,2|8,0:0|0:0,0:0:0:0:
262,344,35769,5,2,0:0:0:0:
408,232,35974,1,2,0:0:0:0:
200,176,36180,2,0,P|104:176|36:240,1,180,8|2,0:0|0:0,0:0:0:0:
180,352,36796,1,0,0:0:0:0:
348,284,37002,1,10,0:0:0:0:
200,176,37207,1,2,0:0:0:0:
200,176,37310,1,0,0:0:0:0:
200,176,37413,2,0,L|248:92,1,90,2|0,0:0|0:0,0:0:0:0:
312,168,37824,2,0,L|404:168,1,90,10|0,0:0|0:0,0:0:0:0:
472,224,38235,5,2,0:0:0:0:
328,328,38440,1,8,0:0:0:0:
472,224,38646,1,8,0:0:0:0:
328,328,38851,1,8,0:0:0:0:
304,328,38954,1,0,0:0:0:0:
280,328,39057,1,8,0:0:0:0:
256,328,39159,1,0,0:0:0:0:
232,328,39262,2,0,L|184:328,2,45,0|0|8,0:0|0:0|0:0,0:0:0:0:
208,192,39879,6,0,P|308:192|368:252,1,180,4|0,0:0|0:0,0:0:0:0:
416,316,40495,2,0,P|460:244|408:164,1,180,8|2,0:0|0:0,0:0:0:0:
276,56,41111,1,0,0:0:0:0:
276,56,41317,2,0,P|180:56|112:120,1,180,8|0,0:0|0:0,0:0:0:0:
180,176,41933,1,0,0:0:0:0:
268,192,42139,5,0,0:0:0:0:
312,192,42242,1,0,0:0:0:0:
356,192,42344,2,0,P|408:192|448:168,1,90,12|0,0:0|0:0,0:0:0:0:
356,192,42755,2,0,P|336:240|348:292,1,90,10|0,0:0|0:0,0:0:0:0:
380,112,43166,2,0,P|320:68|212:68,1,180,10|0,0:0|0:0,0:0:0:0:
88,192,43783,2,0,P|148:236|256:236,1,180,12|0,0:0|0:0,0:0:0:0:
328,192,44399,1,8,0:0:0:0:
196,160,44605,2,0,P|160:244|180:328,1,180,8|0,0:0|0:0,0:0:0:0:
344,252,45426,5,2,0:0:0:0:
412,192,45632,2,0,P|440:144|440:60,2,135,12|8|8,0:0|0:0|0:0,0:0:0:0:
344,252,46454,2,0,P|272:252|236:224,1,90,2|0,0:0|0:0,0:0:0:0:
180,288,46865,2,0,P|180:220|196:184,1,90,2|0,0:0|0:0,0:0:0:0:
240,136,47276,1,12,0:0:0:0:
240,136,47687,5,0,0:0:0:0:
328,140,47892,2,0,P|380:140|420:124,1,90,0|2,0:0|0:0,0:0:0:0:
256,100,48303,2,0,P|244:152|268:196,1,90,0|2,0:0|0:0,0:0:0:0:
328,244,48714,1,0,0:0:0:0:
328,244,48920,1,12,0:0:0:0:
96,244,49331,5,0,0:0:0:0:
276,264,49536,1,0,0:0:0:0:
204,100,49742,1,12,0:0:0:0:
292,256,49947,1,0,0:0:0:0:
112,236,50153,1,2,0:0:0:0:
220,92,50358,2,0,P|324:92|388:140,1,180,12|0,0:0|0:0,0:0:0:0:
252,264,50974,1,12,0:0:0:0:
252,264,51180,2,0,P|152:264|96:208,1,180,14|8,0:0|0:0,0:0:0:0:
180,52,51796,5,8,0:0:0:0:
80,196,52002,1,0,0:0:0:0:
80,196,52105,1,8,0:0:0:0:
80,196,52207,1,0,0:0:0:0:
208,68,52413,1,8,0:0:0:0:
56,160,52618,1,2,0:0:0:0:
256,192,52824,6,0,L|400:192,1,135.000005149842,4|2,0:0|0:0,0:0:0:0:
256,72,53851,1,2,0:0:0:0:
120,192,54262,1,2,0:0:0:0:
256,312,54673,6,0,P|352:312|416:260,1,180,4|8,0:0|0:0,0:0:0:0:
304,116,55290,1,2,0:0:0:0:
304,116,55392,1,2,0:0:0:0:
304,116,55495,2,0,L|224:44,1,90
128,188,55906,2,0,L|212:264,1,90,8|0,0:0|0:0,0:0:0:0:
408,256,56317,6,0,P|343:315|256:312,1,180,2|8,0:0|0:0,0:0:0:0:
360,84,56933,1,2,0:0:0:0:
332,120,57036,1,0,0:0:0:0:
304,156,57138,2,0,P|244:156|204:188,1,90,2|0,0:0|0:0,0:0:0:0:
308,240,57550,2,0,P|356:240|396:208,1,90,8|0,0:0|0:0,0:0:0:0:
280,72,57961,2,0,P|172:72|120:116,1,180,2|8,0:0|0:0,0:0:0:0:
256,236,58577,5,2,0:0:0:0:
300,236,58680,1,2,0:0:0:0:
344,236,58783,2,0,P|396:236|432:208,1,90
344,236,59194,2,0,P|332:288|356:336,1,90,8|0,0:0|0:0,0:0:0:0:
360,144,59605,2,0,P|304:96|184:96,1,180,2|8,0:0|0:0,0:0:0:0:
76,192,60221,1,2,0:0:0:0:
148,248,60426,2,0,P|196:272|244:272,1,90,2|2,0:0|0:0,0:0:0:0:
304,324,60735,1,0,0:0:0:0:
304,324,60837,2,0,P|316:272|300:208,1,90,8|0,0:0|0:0,0:0:0:0:
216,80,61248,6,0,P|116:80|56:140,1,180,2|8,0:0|0:0,0:0:0:0:
200,248,61865,2,0,P|300:248|360:188,1,180,2|0,0:0|0:0,0:0:0:0:
180,160,62481,5,8,0:0:0:0:
180,160,62687,2,0,P|128:212|152:320,1,180,2|0,0:0|0:0,0:0:0:0:
224,348,63303,1,8,0:0:0:0:
316,348,63509,1,2,0:0:0:0:
316,348,63611,1,0,0:0:0:0:
316,348,63714,1,2,0:0:0:0:
380,284,63920,1,0,0:0:0:0:
380,284,64125,2,0,P|412:220|412:168,1,90,8|2,0:0|0:0,0:0:0:0:
416,112,64536,5,8,0:0:0:0:
256,200,64742,1,0,0:0:0:0:
416,112,64947,1,8,0:0:0:0:
256,200,65153,2,0,P|168:200|112:128,1,180,10|10,0:0|0:0,0:0:0:0:
103,104,65769,1,0,0:0:0:0:
103,104,65974,1,8,0:0:0:0:
96,284,66385,6,0,L|64:324,2,45,8|0|8,0:0|0:0|0:0,0:0:0:0:
256,200,66796,1,8,0:0:0:0:
92,124,67002,1,8,0:0:0:0:
108,304,67207,1,2,0:0:0:0:
256,316,67413,2,0,P|356:316|416:264,1,180,8|6,0:0|0:0,0:0:0:0:
444,184,68029,5,0,0:0:0:0:
324,48,68235,2,0,P|196:48|140:100,1,180,8|2,0:0|0:0,0:0:0:0:
256,228,68851,1,0,0:0:0:0:
300,228,68954,1,0,0:0:0:0:
344,228,69057,2,0,P|392:228|432:196,1,90,8|0,0:0|0:0,0:0:0:0:
256,144,69468,2,0,P|180:192|192:280,1,180,2|8,0:0|0:0,0:0:0:0:
256,332,70084,5,0,0:0:0:0:
396,216,70290,1,2,0:0:0:0:
228,152,70495,1,0,0:0:0:0:
228,152,70598,1,0,0:0:0:0:
228,152,70700,1,8,0:0:0:0:
256,332,70906,1,0,0:0:0:0:
396,216,71111,2,0,P|392:116|320:48,1,180,2|8,0:0|0:0,0:0:0:0:
341,58,71933,5,2,0:0:0:0:
172,126,72139,1,2,0:0:0:0:
320,226,72344,1,8,0:0:0:0:
328,46,72550,1,0,0:0:0:0:
160,114,72755,2,0,P|72:114|12:182,1,180,2|8,0:0|0:0,0:0:0:0:
164,304,73577,5,2,0:0:0:0:
308,192,73783,1,0,0:0:0:0:
308,192,73885,1,0,0:0:0:0:
308,192,73988,2,0,P|376:192|400:176,1,90,8|0,0:0|0:0,0:0:0:0:
236,148,74399,2,0,P|220:200|236:240,1,90,2|0,0:0|0:0,0:0:0:0:
308,276,74810,1,8,0:0:0:0:
312,96,75016,2,0,P|264:60|120:60,1,180,2|0,0:0|0:0,0:0:0:0:
308,276,75632,5,8,0:0:0:0:
176,192,75837,2,0,P|76:192|16:248,1,180,2|0,0:0|0:0,0:0:0:0:
184,320,76454,1,8,0:0:0:0:
272,320,76659,2,0,P|336:320|376:296,1,90,0|2,0:0|0:0,0:0:0:0:
440,272,77070,1,2,0:0:0:0:
300,160,77276,1,8,0:0:0:0:
440,48,77481,1,0,0:0:0:0:
300,160,77687,6,0,P|196:160|136:96,1,180,2|8,0:0|0:0,0:0:0:0:
240,88,78303,2,0,L|160:260,1,180,2|0,0:0|0:0,0:0:0:0:
164,251,78920,1,8,0:0:0:0:
164,251,79125,1,4,0:0:0:0:
256,192,80563,1,8,0:0:0:0:
256,192,80974,1,4,0:0:0:0:
180,244,81180,6,0,L|96:308,1,90,0|8,0:0|0:0,0:0:0:0:
96,120,81591,2,0,P|152:72|272:72,1,180,2|2,0:0|0:0,0:0:0:0:
254,65,82207,1,10,0:0:0:0:
332,108,82413,5,2,0:0:0:0:
332,108,82516,1,0,0:0:0:0:
332,108,82618,2,0,P|384:108|420:136,1,90,2|0,0:0|0:0,0:0:0:0:
256,216,83029,2,0,P|204:216|172:192,1,90,8|2,0:0|0:0,0:0:0:0:
328,288,83440,1,0,0:0:0:0:
256,340,83646,1,2,0:0:0:0:
184,288,83851,1,10,0:0:0:0:
124,120,84057,5,0,0:0:0:0:
124,120,84262,2,0,L|288:44,1,180,2|8,0:0|0:0,0:0:0:0:
364,96,84879,1,0,0:0:0:0:
403,117,84981,1,0,0:0:0:0:
430,153,85084,1,8,0:0:0:0:
440,196,85187,1,8,0:0:0:0:
431,240,85289,1,0,0:0:0:0:
405,276,85392,1,0,0:0:0:0:
366,299,85495,1,8,0:0:0:0:
276,300,85700,6,0,P|168:300|112:256,2,180,8|8|0,0:0|0:0|0:0,0:0:0:0:
320,220,86728,2,0,L|344:180,6,45,0|0|8|0|8|0|6,0:0|0:0|0:0|0:0|0:0|0:0|0:0,0:0:0:0:
256,192,87447,12,0,89194,0:0:0:0:
