osu file format v13

[General]
AudioFilename: STEP.mp3
AudioLeadIn: 0
PreviewTime: 53440
Countdown: 1
SampleSet: Soft
StackLeniency: 0.7
Mode: 0
LetterboxInBreaks: 0
WidescreenStoryboard: 0

[Editor]
Bookmarks: 72755
DistanceSpacing: 1
BeatDivisor: 2
GridSize: 4
TimelineZoom: 2.1

[Metadata]
Title:STEP (TV Size)
TitleUnicode:STEP (TV Size)
Artist:ClariS
ArtistUnicode:ClariS
Creator:KinomiCandy
Version:Easy
Source:Nisekoi
Tags:-Sh1n1- cxu opening shaft livetune kz alice clara false love
BeatmapID:407607
BeatmapSetID:167082

[Difficulty]
HPDrainRate:3
CircleSize:3
OverallDifficulty:3
ApproachRate:3
SliderMultiplier:0.999999999999999
SliderTickRate:1

[Events]
//Background and Video events
0,0,"BG.jpg",0,0
Video,-103,"opvid.avi"
//Break Periods
//Storyboard Layer 0 (Background)
//Storyboard Layer 1 (Fail)
//Storyboard Layer 2 (Pass)
//Storyboard Layer 3 (Foreground)
//Storyboard Sound Samples
//Background Colour Transformations
3,100,163,162,255

[TimingPoints]
427,410.958904109589,4,2,1,50,1,0
5358,-100,4,2,2,40,0,0
5769,-100,4,2,1,40,0,0
6591,-100,4,2,3,40,0,0
7002,-100,4,2,1,50,0,0
13577,-100,4,2,1,30,0,0
25084,-100,4,2,1,40,0,0
26317,-100,4,2,2,40,0,0
26728,-100,4,2,1,40,0,0
39879,-100,4,2,2,40,0,0
41317,-100,4,2,1,40,0,0
42344,-100,4,2,2,40,0,0
44399,-100,4,2,1,40,0,0
45632,-100,4,2,2,40,0,0
46454,-100,4,2,1,40,0,0
47276,-100,4,2,2,40,0,0
48098,-100,4,2,1,40,0,0
48920,-100,4,2,2,40,0,0
49742,-100,4,2,1,40,0,0
52824,-200,4,2,1,50,0,0
53440,-100,4,2,1,50,0,0
54673,-100,4,2,2,60,0,1
55495,-100,4,2,1,60,0,1
66385,-100,4,2,1,50,0,1
66796,-100,4,2,1,60,0,1
67413,-100,4,2,1,80,0,0
67824,-100,4,2,2,60,0,1
68646,-100,4,2,1,60,0,1
79331,-100,4,2,1,50,0,0
80974,-100,4,2,2,50,0,0
81591,-100,4,2,1,50,0,0
87344,-100,4,2,2,50,0,0
89194,-100,4,2,1,5,0,0

[Colours]
Combo1 : 165,0,244
Combo2 : 10,187,239
Combo3 : 244,214,0
Combo4 : 80,218,33
Combo5 : 255,106,34

[HitObjects]
176,320,427,6,0,P|308:320|368:280,1,200,2|0,0:0|0:0,0:0:0:0:
436,216,1659,1,0,0:0:0:0:
368,144,2070,6,0,P|292:96|176:96,1,200,2|0,0:0|0:0,0:0:0:0:
112,164,3303,1,0,0:0:0:0:
204,172,3714,6,0,P|268:108|192:0,1,200,2|0,0:0|0:0,0:0:0:0:
156,76,4947,1,0,0:0:0:0:
112,164,5358,6,0,P|92:216|92:276,1,99.9999999999999,12|8,0:0|0:0,0:0:0:0:
156,328,6180,1,0,0:0:0:0:
252,348,6591,2,0,P|316:348|352:320,1,99.9999999999999,8|4,0:0|0:0,0:0:0:0:
420,200,7618,6,0,P|420:104|388:56,1,150,2|8,0:0|0:0,0:0:0:0:
316,124,8646,1,0,0:0:0:0:
228,172,9057,2,0,P|164:172|116:212,1,99.9999999999999,8|0,0:0|0:0,0:0:0:0:
196,268,9879,1,8,0:0:0:0:
296,248,10290,1,4,0:0:0:0:
256,192,10700,12,4,13577,0:0:0:0:
36,192,15221,6,0,L|264:192,1,200,2|0,0:0|0:0,0:0:0:0:
336,192,16454,1,2,0:0:0:0:
336,192,16865,2,0,P|436:192|484:88,1,200,0|2,0:0|0:0,0:0:0:0:
288,76,18509,6,0,L|156:76,1,99.9999999999999,0|2,0:0|0:0,0:0:0:0:
108,140,19331,1,0,0:0:0:0:
188,200,19742,1,2,0:0:0:0:
288,204,20153,2,0,P|396:204|460:280,1,200,0|2,0:0|0:0,0:0:0:0:
22,294,21796,6,0,P|112:333|205:303,1,200,2|0,0:0|0:0,0:0:0:0:
256,216,23029,1,2,0:0:0:0:
307,303,23440,2,0,P|361:330|496:288,1,200,0|2,0:0|0:0,0:0:0:0:
344,140,25084,5,8,0:0:0:0:
256,88,25495,2,0,P|180:88|144:108,1,99.9999999999999,8|8,0:0|0:0,0:0:0:0:
92,172,26317,2,0,L|92:312,1,99.9999999999999,4|4,0:0|0:0,0:0:0:0:
180,320,27139,6,0,P|273:351|365:319,1,200,8|8,0:0|0:0,0:0:0:0:
456,272,28372,1,2,0:0:0:0:
368,220,28783,2,0,P|268:188|172:228,1,200,8|8,0:0|0:0,0:0:0:0:
92,268,30016,2,0,P|80:204|100:164,1,99.9999999999999,2|8,0:0|0:0,0:0:0:0:
256,264,31248,5,8,0:0:0:0:
356,260,31659,2,0,P|412:260|456:236,1,99.9999999999999,2|8,0:0|0:0,0:0:0:0:
384,164,32481,2,0,P|324:164|288:196,1,99.9999999999999,0|8,0:0|0:0,0:0:0:0:
208,236,33303,2,0,P|88:236|40:176,1,200,2|0,0:0|0:0,0:0:0:0:
164,336,34947,6,0,P|120:232|140:148,1,200,2|0,0:0|0:0,0:0:0:0:
196,68,36180,1,8,0:0:0:0:
288,112,36591,2,0,P|396:112|472:176,1,200,2|2,0:0|0:0,0:0:0:0:
465,166,37824,1,8,0:0:0:0:
256,192,38235,12,6,39879,0:0:0:0:
256,312,40495,6,0,P|128:312|60:244,1,200,8|2,0:0|0:0,0:0:0:0:
172,152,41933,1,2,0:0:0:0:
256,96,42344,2,0,P|324:96|364:120,1,99.9999999999999,12|0,0:0|0:0,0:0:0:0:
432,52,43166,2,0,P|464:112|440:232,1,150,8|4,0:0|0:0,0:0:0:0:
388,260,44194,2,0,L|328:188,2,50,0|8|8,0:0|0:0|0:0,0:0:0:0:
196,228,45632,6,0,P|68:228|20:160,1,200,12|0,0:0|0:0,0:0:0:0:
124,160,46865,1,2,0:0:0:0:
220,132,47276,2,0,P|280:204|280:332,1,200,12|0,0:0|0:0,0:0:0:0:
200,356,48509,1,2,0:0:0:0:
200,356,48920,2,0,P|140:284|140:156,1,200,12|4,0:0|0:0,0:0:0:0:
200,48,50358,1,4,0:0:0:0:
200,48,50974,1,8,0:0:0:0:
256,192,51180,12,2,52824,0:0:0:0:
80,192,53440,5,2,0:0:0:0:
164,136,53851,1,2,0:0:0:0:
244,196,54262,1,2,0:0:0:0:
328,252,54673,6,0,P|432:252|500:184,1,200,4|0,0:0|0:0,0:0:0:0:
424,124,55906,1,8,0:0:0:0:
336,72,56317,2,0,P|220:72|144:136,1,200,2|0,0:0|0:0,0:0:0:0:
112,208,57550,1,8,0:0:0:0:
184,280,57961,2,0,P|184:352|212:404,1,99.9999999999999
280,324,58783,6,0,P|396:324|460:256,1,200,2|0,0:0|0:0,0:0:0:0:
396,188,60016,1,8,0:0:0:0:
296,188,60426,2,0,P|180:188|108:252,1,200,2|0,0:0|0:0,0:0:0:0:
28,288,61659,6,0,P|16:228|56:168,1,99.9999999999999,8|0,0:0|0:0,0:0:0:0:
96,116,62481,1,8,0:0:0:0:
96,116,62892,1,2,0:0:0:0:
284,64,63714,6,0,P|376:64|464:136,1,200,2|0,0:0|0:0,0:0:0:0:
388,260,65153,2,0,P|296:260|208:188,1,200,8|8,0:0|0:0,0:0:0:0:
256,192,66385,12,6,67824,0:0:0:0:
336,244,68235,5,8,0:0:0:0:
256,308,68646,2,0,P|140:308|64:252,1,200,2|0,0:0|0:0,0:0:0:0:
24,176,69879,1,8,0:0:0:0:
92,104,70290,2,0,P|148:60|208:60,1,99.9999999999999,2|8,0:0|0:0,0:0:0:0:
256,116,71111,2,0,P|364:116|440:184,1,200,0|2,0:0|0:0,0:0:0:0:
296,320,72755,2,0,P|188:320|112:252,1,200,2|0,0:0|0:0,0:0:0:0:
28,308,73988,6,0,P|16:252|40:196,1,99.9999999999999,8|2,0:0|0:0,0:0:0:0:
176,188,75016,2,0,P|288:188|332:224,1,150,2|8,0:0|0:0,0:0:0:0:
404,256,76043,2,0,P|412:180|392:148,1,99.9999999999999,0|8,0:0|0:0,0:0:0:0:
332,88,76865,1,0,0:0:0:0:
332,88,77276,1,8,0:0:0:0:
256,192,77687,12,4,80974,0:0:0:0:
92,200,81591,6,0,P|92:104|124:56,1,150,2|8,0:0|0:0,0:0:0:0:
192,132,82619,1,0,0:0:0:0:
284,172,83030,2,0,P|348:172|396:212,1,99.9999999999999,8|0,0:0|0:0,0:0:0:0:
312,268,83852,1,8,0:0:0:0:
216,248,84263,1,8,0:0:0:0:
256,192,84673,12,4,87344,0:0:0:0:
