osu file format v13

[General]
AudioFilename: 02. .mp3
AudioLeadIn: 0
PreviewTime: 53300
Countdown: 0
SampleSet: Soft
StackLeniency: 0.7
Mode: 3
LetterboxInBreaks: 0
SpecialStyle: 0
WidescreenStoryboard: 1

[Editor]
DistanceSpacing: 1.5
BeatDivisor: 4
GridSize: 32
TimelineZoom: 1.8

[Metadata]
Title:STEP (TV Size)
TitleUnicode:STEP (TV Size)
Artist:ClariS
ArtistUnicode:ClariS
Creator:- [ S o r a ] -
Version:MX
Source:Nisekoi
Tags:ニセコイ
BeatmapID:476955
BeatmapSetID:201433

[Difficulty]
HPDrainRate:8
CircleSize:4
OverallDifficulty:8
ApproachRate:5
SliderMultiplier:1.4
SliderTickRate:1

[Events]
//Background and Video events
0,0,"99829230_1333000246.jpg",0,0
//Break Periods
//Storyboard Layer 0 (Background)
//Storyboard Layer 1 (Fail)
//Storyboard Layer 2 (Pass)
//Storyboard Layer 3 (Foreground)
//Storyboard Sound Samples
Sample,48894,0,"kick01.wav",60
Sample,54647,0,"01.wav",60
Sample,55880,0,"hithat01.wav",60
Sample,57524,0,"hithat01.wav",60
Sample,59168,0,"hithat01.wav",60
Sample,60811,0,"hithat01.wav",60
Sample,62455,0,"hithat01.wav",60
Sample,64099,0,"hithat01.wav",60
Sample,65743,0,"hithat01.wav",60
Sample,67387,0,"snare03.wav",60
Sample,67387,0,"hithat01.wav",60
Sample,69031,0,"hithat01.wav",60
Sample,70674,0,"hithat01.wav",60
Sample,72318,0,"hithat01.wav",60
Sample,73962,0,"hithat01.wav",60
Sample,75606,0,"hithat01.wav",60
Sample,77250,0,"hithat01.wav",60
Sample,78894,0,"hithat01.wav",60
//Background Colour Transformations
3,100,163,162,255

[TimingPoints]
390,410.958904109589,4,2,1,40,1,0
4910,-153.846153846153,4,2,1,40,0,0
5116,-50,4,2,1,40,0,0
5218,-200,4,2,1,40,0,0
5321,-200,4,2,1,40,0,0
5424,-66.6666666666667,4,2,1,40,0,0
5526,-200,4,2,1,40,0,0
5629,-66.6666666666667,4,2,1,40,0,0
5732,-200,4,2,1,40,0,0
5835,-66.6666666666667,4,2,1,40,0,0
5937,-333.333333333333,4,2,1,40,0,0
5989,-71.4285714285714,4,2,1,40,0,0
6040,-333.333333333333,4,2,1,40,0,0
6092,-71.4285714285714,4,2,1,40,0,0
6143,-200,4,2,1,40,0,0
6246,-66.6666666666667,4,2,1,40,0,0
6348,-200,4,2,1,40,0,0
6451,-66.6666666666667,4,2,1,40,0,0
6554,-153.846153846153,4,2,1,40,0,0
6657,-133.333333333333,4,2,1,40,0,0
6759,-117.64705882353,4,2,1,40,0,0
6862,-105.263157894737,4,2,1,40,0,0
6965,-100,4,2,1,40,0,0
13540,-125,4,2,1,40,0,0
26074,-333.333333333333,4,2,1,40,0,0
26177,-66.6666666666667,4,2,1,40,0,0
26229,-1000,4,2,1,40,0,0
26280,-500,4,2,1,40,0,0
26331,-333.333333333333,4,2,1,40,0,0
26383,-250,4,2,1,40,0,0
26588,-50,4,2,1,40,0,0
26691,-100,4,2,1,40,0,0
39431,-66.6666666666667,4,2,1,40,0,0
39533,-333.333333333333,4,2,1,40,0,0
39636,-166.666666666667,4,2,1,40,0,0
39739,-111.111111111111,4,2,1,40,0,0
39842,-100,4,2,1,40,0,0
48883,-66.6666666666667,4,2,1,40,0,0
49088,-100,4,2,1,40,0,0
49191,-125,4,2,1,40,0,0
49294,-166.666666666667,4,2,1,40,0,0
49396,-250,4,2,1,40,0,0
49499,-166.666666666667,4,2,1,40,0,0
49602,-125,4,2,1,40,0,0
49705,-100,4,2,1,40,0,0
52787,-125,4,2,1,40,0,0
53403,-166.666666666667,4,2,1,40,0,0
53814,-200,4,2,1,40,0,0
54225,-66.6666666666667,4,2,1,40,0,0
54328,-500,4,2,1,40,0,0
54431,-250,4,2,1,40,0,0
54533,-166.666666666667,4,2,1,40,0,0
54636,-100,4,2,1,70,0,1
67376,-66.6666666666667,4,2,1,70,0,1
67479,-333.333333333333,4,2,1,70,0,1
67581,-200,4,2,1,70,0,1
67684,-142.857142857143,4,2,1,70,0,1
67787,-100,4,2,1,70,0,1
79088,-33.3333333333333,4,2,1,70,0,1
80116,-1000,4,2,1,70,0,1
80218,-333.333333333333,4,2,1,70,0,1
80321,-166.666666666667,4,2,1,70,0,1
80424,-125,4,2,1,70,0,1
80732,-111.111111111111,4,2,1,70,0,1
80937,-100,4,2,1,70,0,0

[HitObjects]
448,192,390,5,0,0:0:0:60:01.wav
64,192,698,1,0,0:0:0:60:02.wav
448,192,1006,1,0,0:0:0:60:01.wav
64,192,1417,1,0,0:0:0:60:02.wav
448,192,1622,1,0,0:0:0:60:01.wav
320,192,2033,1,0,0:0:0:60:01.wav
192,192,2342,1,0,0:0:0:60:02.wav
320,192,2650,1,0,0:0:0:60:01.wav
192,192,3061,1,0,0:0:0:60:02.wav
320,192,3266,1,0,0:0:0:60:01.wav
448,192,3472,1,0,0:0:0:60:03.wav
320,192,3574,1,0,0:0:0:60:04.wav
64,192,3677,1,0,0:0:0:60:01.wav
448,192,3985,1,0,0:0:0:60:02.wav
64,192,4294,1,0,0:0:0:60:01.wav
448,192,4705,1,0,0:0:0:60:02.wav
64,192,4910,1,0,0:0:0:60:01.wav
320,192,5321,1,0,0:0:0:60:snare01.wav
64,192,5321,1,0,0:0:0:50:cymbal01.wav
448,192,5321,1,0,0:0:0:60:clap02.wav
320,192,5526,1,0,0:0:0:60:snare01.wav
192,192,5526,1,0,0:0:0:10:kick01.wav
192,192,5732,1,0,0:0:0:10:snare02.wav
64,192,5732,1,0,0:0:0:60:snare02.wav
448,192,5732,1,0,0:0:0:10:kick01.wav
192,192,5937,1,0,0:0:0:60:snare01.wav
320,192,5937,1,0,0:0:0:10:kick01.wav
64,192,6040,1,0,0:0:0:60:snare02.wav
448,192,6040,1,0,0:0:0:10:kick01.wav
192,192,6143,1,0,0:0:0:60:snare01.wav
320,192,6143,1,0,0:0:0:10:kick01.wav
192,192,6348,1,0,0:0:0:60:snare01.wav
64,192,6348,1,0,0:0:0:10:kick01.wav
448,192,6554,1,0,0:0:0:60:snare03.wav
320,192,6554,1,0,0:0:0:60:snare02.wav
64,192,6554,1,0,0:0:0:60:05.wav
192,192,6657,1,0,0:0:0:60:06.wav
320,192,6759,1,0,0:0:0:60:07.wav
448,192,6862,1,0,0:0:0:60:08.wav
192,192,6965,1,0,0:0:0:60:kick01.wav
320,192,6965,1,0,0:0:0:50:cymbal01.wav
64,192,6965,128,0,7581:0:0:0:60:09.wav
192,192,7170,1,0,0:0:0:60:kick01.wav
320,192,7376,1,0,0:0:0:60:snare03.wav
448,192,7376,1,0,0:0:0:50:hithat01.wav
448,192,7581,1,0,0:0:0:60:kick01.wav
320,192,7581,128,0,7992:0:0:0:60:10.wav
192,192,7684,1,0,0:0:0:60:snare03.wav
448,192,7787,1,0,0:0:0:60:kick01.wav
64,192,7787,1,0,0:0:0:50:hithat01.wav
192,192,7890,1,0,0:0:0:60:snare03.wav
64,192,7992,1,0,0:0:0:60:kick01.wav
448,192,7992,128,0,8095:0:0:0:60:11.wav
320,192,8198,1,0,0:0:0:60:snare03.wav
64,192,8198,1,0,0:0:0:50:hithat01.wav
192,192,8198,128,0,9020:0:0:0:60:09.wav
448,192,8403,1,0,0:0:0:60:kick01.wav
320,192,8609,1,0,0:0:0:60:kick01.wav
64,192,8609,1,0,0:0:0:50:hithat01.wav
448,192,8814,1,0,0:0:0:60:kick01.wav
320,192,9020,1,0,0:0:0:60:snare03.wav
448,192,9020,1,0,0:0:0:60:clap01.wav
64,192,9020,1,0,0:0:0:50:hithat01.wav
64,192,9225,1,0,0:0:0:60:kick01.wav
448,192,9225,128,0,9636:0:0:0:60:12.wav
192,192,9328,1,0,0:0:0:60:snare03.wav
64,192,9431,1,0,0:0:0:60:kick01.wav
320,192,9431,1,0,0:0:0:50:hithat01.wav
192,192,9533,1,0,0:0:0:60:snare03.wav
320,192,9636,1,0,0:0:0:60:kick01.wav
64,192,9636,128,0,9739:0:0:0:60:11.wav
320,192,9842,1,0,0:0:0:60:snare03.wav
448,192,9842,1,0,0:0:0:50:hithat01.wav
192,192,9842,128,0,10047:0:0:0:60:13.wav
320,192,10047,128,0,10663:0:0:0:60:14.wav
64,192,10253,1,0,0:0:0:60:snare03.wav
448,192,10253,1,0,0:0:0:60:kick01.wav
192,192,10253,1,0,0:0:0:50:hithat01.wav
192,192,10458,1,0,0:0:0:60:kick01.wav
64,192,10663,1,0,0:0:0:50:hithat01.wav
192,192,10663,1,0,0:0:0:60:snare03.wav
448,192,10663,128,0,11074:0:0:0:60:15.wav
192,192,10869,1,0,0:0:0:60:kick01.wav
64,192,10972,1,0,0:0:0:60:snare03.wav
192,192,11074,1,0,0:0:0:60:kick01.wav
64,192,11074,128,0,11485:0:0:0:60:16.wav
320,192,11074,1,0,0:0:0:50:hithat01.wav
448,192,11177,1,0,0:0:0:60:snare03.wav
320,192,11280,1,0,0:0:0:60:kick01.wav
192,192,11485,1,0,0:0:0:60:snare03.wav
320,192,11485,1,0,0:0:0:50:hithat01.wav
448,192,11485,128,0,11588:0:0:0:60:11.wav
192,192,11691,128,0,12102:0:0:0:60:16.wav
320,192,11691,1,0,0:0:0:60:kick01.wav
64,192,11691,1,0,0:0:0:10:kick01.wav
64,192,11896,1,0,0:0:0:60:kick01.wav
448,192,11896,1,0,0:0:0:50:hithat01.wav
320,192,12102,128,0,12205:0:0:0:60:17.wav
448,192,12102,1,0,0:0:0:60:kick01.wav
64,192,12307,1,0,0:0:0:60:kick01.wav
192,192,12307,1,0,0:0:0:60:clap01.wav
448,192,12307,1,0,0:0:0:50:hithat01.wav
64,192,12513,1,0,0:0:0:60:18.wav
320,192,12513,1,0,0:0:0:60:kick01.wav
192,192,12616,1,0,0:0:0:60:19.wav
320,192,12718,1,0,0:0:0:60:20.wav
64,192,12718,1,0,0:0:0:60:kick01.wav
448,192,12821,1,0,0:0:0:60:21.wav
320,192,12924,1,0,0:0:0:60:22.wav
64,192,12924,1,0,0:0:0:60:kick01.wav
192,192,13026,1,0,0:0:0:60:23.wav
64,192,13129,1,0,0:0:0:60:24.wav
448,192,13129,1,0,0:0:0:60:clap01.wav
320,192,13129,1,0,0:0:0:60:kick01.wav
192,192,13232,1,0,0:0:0:60:23.wav
320,192,13335,1,0,0:0:0:60:25.wav
64,192,13335,1,0,0:0:0:60:kick01.wav
448,192,13437,1,0,0:0:0:60:26.wav
64,192,13540,128,0,16006:0:0:0:60:27.wav
320,192,13540,1,0,0:0:0:10:27.wav
192,192,13540,1,0,0:0:0:50:cymbal01.wav
320,192,13951,1,0,0:0:0:50:hithat01.wav
320,192,14362,1,0,0:0:0:50:hithat01.wav
320,192,14773,1,0,0:0:0:50:hithat01.wav
320,192,15184,1,0,0:0:0:50:hithat01.wav
320,192,15595,1,0,0:0:0:50:hithat01.wav
192,192,16006,1,0,0:0:0:60:29.wav
320,192,16006,1,0,0:0:0:50:hithat01.wav
64,192,16417,1,0,0:0:0:60:30.wav
320,192,16417,1,0,0:0:0:50:hithat01.wav
192,192,16622,1,0,0:0:0:60:31.wav
64,192,16828,128,0,18472:0:0:0:60:32.wav
448,192,16828,128,0,18472:0:0:0:10:32.wav
320,192,16828,1,0,0:0:0:50:hithat01.wav
320,192,17239,1,0,0:0:0:50:hithat01.wav
320,192,17650,1,0,0:0:0:50:hithat01.wav
192,192,17650,1,0,0:0:0:60:33.wav
320,192,18061,1,0,0:0:0:50:hithat01.wav
192,192,18472,1,0,0:0:0:60:34.wav
320,192,18472,1,0,0:0:0:50:hithat01.wav
320,192,18883,1,0,0:0:0:50:hithat01.wav
64,192,19294,1,0,0:0:0:60:35.wav
320,192,19294,1,0,0:0:0:50:hithat01.wav
192,192,19499,1,0,0:0:0:60:34.wav
448,192,19705,1,0,0:0:0:60:36.wav
320,192,19705,1,0,0:0:0:50:hithat01.wav
192,192,19910,1,0,0:0:0:60:37.wav
64,192,20116,128,0,21759:0:0:0:60:38.wav
320,192,20116,1,0,0:0:0:50:hithat01.wav
320,192,20526,1,0,0:0:0:50:hithat01.wav
448,192,20937,1,0,0:0:0:60:34.wav
320,192,20937,1,0,0:0:0:50:hithat01.wav
320,192,21348,1,0,0:0:0:50:hithat01.wav
448,192,21759,1,0,0:0:0:60:35.wav
320,192,21759,1,0,0:0:0:50:hithat01.wav
192,192,22170,1,0,0:0:0:60:34.wav
320,192,22170,1,0,0:0:0:50:hithat01.wav
64,192,22581,1,0,0:0:0:60:36.wav
320,192,22581,1,0,0:0:0:50:hithat01.wav
320,192,22992,1,0,0:0:0:50:hithat01.wav
192,192,22992,1,0,0:0:0:60:39.wav
64,192,23403,128,0,26691:0:0:0:10:kick01.wav
320,192,23403,1,0,0:0:0:50:hithat01.wav
320,192,23814,1,0,0:0:0:50:hithat01.wav
448,192,24225,128,0,25047:0:0:0:10:kick01.wav
320,192,24225,1,0,0:0:0:50:hithat01.wav
320,192,24636,1,0,0:0:0:50:hithat01.wav
192,192,25047,1,0,0:0:0:60:snare01.wav
320,192,25047,1,0,0:0:0:10:snare01.wav
320,192,25253,1,0,0:0:0:60:snare01.wav
448,192,25253,1,0,0:0:0:10:snare01.wav
192,192,25458,128,0,26280:0:0:0:10:kick01.wav
448,192,25458,1,0,0:0:0:60:snare02.wav
320,192,25663,1,0,0:0:0:60:snare01.wav
448,192,25766,1,0,0:0:0:60:snare02.wav
320,192,25869,1,0,0:0:0:60:snare01.wav
448,192,26074,1,0,0:0:0:60:snare01.wav
192,192,26691,1,0,0:0:0:50:cymbal01.wav
320,192,26691,1,0,0:0:0:50:kick01.wav
448,192,26691,1,0,0:0:0:60:40.wav
320,192,26896,1,0,0:0:0:60:kick01.wav
192,192,26896,1,0,0:0:0:60:41.wav
192,192,27102,1,0,0:0:0:60:clap01.wav
64,192,27102,1,0,0:0:0:60:snare03.wav
448,192,27102,1,0,0:0:0:60:43.wav
320,192,27307,1,0,0:0:0:60:kick01.wav
192,192,27307,1,0,0:0:0:60:42.wav
448,192,27410,1,0,0:0:0:60:snare03.wav
64,192,27513,1,0,0:0:0:60:kick01.wav
192,192,27513,1,0,0:0:0:10:kick01.wav
192,192,27718,1,0,0:0:0:60:kick01.wav
320,192,27718,1,0,0:0:0:60:41.wav
320,192,27924,1,0,0:0:0:60:snare03.wav
448,192,27924,1,0,0:0:0:60:clap01.wav
64,192,27924,1,0,0:0:0:60:43.wav
192,192,28129,1,0,0:0:0:60:kick01.wav
320,192,28129,1,0,0:0:0:60:41.wav
64,192,28335,1,0,0:0:0:60:kick01.wav
192,192,28335,1,0,0:0:0:60:40.wav
192,192,28540,1,0,0:0:0:60:kick01.wav
320,192,28540,1,0,0:0:0:60:41.wav
320,192,28746,1,0,0:0:0:60:snare03.wav
64,192,28746,1,0,0:0:0:60:clap01.wav
448,192,28746,1,0,0:0:0:60:43.wav
192,192,28951,1,0,0:0:0:60:kick01.wav
320,192,28951,1,0,0:0:0:60:42.wav
64,192,29054,1,0,0:0:0:60:snare03.wav
448,192,29157,1,0,0:0:0:60:kick01.wav
320,192,29157,1,0,0:0:0:10:kick01.wav
320,192,29362,1,0,0:0:0:60:kick01.wav
192,192,29362,1,0,0:0:0:60:41.wav
192,192,29568,1,0,0:0:0:60:snare03.wav
448,192,29568,1,0,0:0:0:60:clap01.wav
64,192,29568,1,0,0:0:0:60:43.wav
320,192,29670,1,0,0:0:0:60:kick01.wav
64,192,29773,1,0,0:0:0:60:kick01.wav
448,192,29773,1,0,0:0:0:60:41.wav
192,192,29979,1,0,0:0:0:60:kick01.wav
320,192,29979,1,0,0:0:0:60:44.wav
320,192,30184,1,0,0:0:0:60:kick01.wav
448,192,30184,1,0,0:0:0:60:41.wav
192,192,30389,1,0,0:0:0:60:snare03.wav
320,192,30389,1,0,0:0:0:60:clap01.wav
64,192,30389,1,0,0:0:0:60:43.wav
192,192,30595,1,0,0:0:0:60:kick01.wav
320,192,30595,1,0,0:0:0:60:46.wav
448,192,30698,1,0,0:0:0:60:snare03.wav
64,192,30800,1,0,0:0:0:10:kick01.wav
192,192,30800,1,0,0:0:0:60:kick01.wav
192,192,31006,1,0,0:0:0:60:47.wav
64,192,31006,1,0,0:0:0:60:kick01.wav
320,192,31211,1,0,0:0:0:60:clap01.wav
448,192,31211,1,0,0:0:0:60:snare03.wav
192,192,31211,1,0,0:0:0:60:48.wav
448,192,31417,1,0,0:0:0:60:49.wav
320,192,31417,1,0,0:0:0:60:kick01.wav
192,192,31622,1,0,0:0:0:60:44.wav
64,192,31622,1,0,0:0:0:60:kick01.wav
320,192,31828,1,0,0:0:0:60:kick01.wav
448,192,31828,1,0,0:0:0:60:41.wav
320,192,32033,1,0,0:0:0:60:clap01.wav
192,192,32033,1,0,0:0:0:60:snare03.wav
64,192,32033,1,0,0:0:0:60:43.wav
192,192,32239,1,0,0:0:0:60:kick01.wav
448,192,32239,1,0,0:0:0:60:41.wav
320,192,32342,1,0,0:0:0:60:snare03.wav
192,192,32444,1,0,0:0:0:60:kick01.wav
64,192,32444,1,0,0:0:0:60:47.wav
320,192,32650,1,0,0:0:0:60:kick01.wav
448,192,32650,1,0,0:0:0:60:41.wav
320,192,32855,1,0,0:0:0:60:50.wav
192,192,32855,1,0,0:0:0:60:snare03.wav
64,192,32855,1,0,0:0:0:60:clap01.wav
64,192,33061,1,0,0:0:0:60:41.wav
320,192,33061,1,0,0:0:0:60:kick01.wav
192,192,33163,1,0,0:0:0:60:kick01.wav
320,192,33266,1,0,0:0:0:60:kick01.wav
448,192,33266,1,0,0:0:0:60:50.wav
64,192,33266,1,0,0:0:0:60:43.wav
192,192,33472,1,0,0:0:0:60:kick01.wav
64,192,33472,1,0,0:0:0:60:41.wav
64,192,33677,1,0,0:0:0:60:snare03.wav
320,192,33677,1,0,0:0:0:60:clap01.wav
448,192,33677,1,0,0:0:0:60:43.wav
192,192,33883,1,0,0:0:0:60:50.wav
320,192,33883,1,0,0:0:0:60:kick01.wav
448,192,33985,1,0,0:0:0:60:snare03.wav
64,192,34088,1,0,0:0:0:10:kick01.wav
192,192,34088,1,0,0:0:0:60:kick01.wav
320,192,34294,1,0,0:0:0:60:kick01.wav
448,192,34294,1,0,0:0:0:60:41.wav
64,192,34499,1,0,0:0:0:60:clap01.wav
192,192,34499,1,0,0:0:0:60:snare03.wav
448,192,34499,1,0,0:0:0:60:43.wav
192,192,34705,1,0,0:0:0:60:kick01.wav
320,192,34705,1,0,0:0:0:60:41.wav
64,192,34910,1,0,0:0:0:60:43.wav
192,192,34910,1,0,0:0:0:60:kick01.wav
320,192,35116,1,0,0:0:0:60:41.wav
448,192,35116,1,0,0:0:0:60:kick01.wav
192,192,35321,1,0,0:0:0:60:clap01.wav
64,192,35321,1,0,0:0:0:60:snare03.wav
320,192,35321,1,0,0:0:0:60:48.wav
320,192,35526,1,0,0:0:0:60:kick01.wav
448,192,35526,1,0,0:0:0:60:42.wav
192,192,35629,1,0,0:0:0:60:snare03.wav
320,192,35732,1,0,0:0:0:60:kick01.wav
64,192,35732,1,0,0:0:0:10:kick01.wav
192,192,35937,1,0,0:0:0:60:kick01.wav
320,192,35937,1,0,0:0:0:60:41.wav
320,192,36143,1,0,0:0:0:60:snare03.wav
448,192,36143,1,0,0:0:0:60:clap01.wav
192,192,36143,1,0,0:0:0:60:46.wav
64,192,36348,1,0,0:0:0:10:kick01.wav
192,192,36348,1,0,0:0:0:60:kick01.wav
64,192,36554,1,0,0:0:0:60:47.wav
320,192,36554,1,0,0:0:0:60:kick01.wav
192,192,36759,1,0,0:0:0:10:kick01.wav
448,192,36759,1,0,0:0:0:60:kick01.wav
320,192,36965,1,0,0:0:0:10:kick01.wav
192,192,36965,1,0,0:0:0:60:clap01.wav
64,192,36965,1,0,0:0:0:60:snare03.wav
320,192,37170,1,0,0:0:0:60:kick01.wav
448,192,37170,1,0,0:0:0:60:48.wav
192,192,37273,1,0,0:0:0:60:snare03.wav
320,192,37376,1,0,0:0:0:60:kick01.wav
64,192,37376,1,0,0:0:0:60:48.wav
64,192,37581,1,0,0:0:0:10:kick01.wav
192,192,37581,1,0,0:0:0:60:kick01.wav
448,192,37787,1,0,0:0:0:60:48.wav
320,192,37787,1,0,0:0:0:60:snare03.wav
64,192,37787,1,0,0:0:0:60:clap01.wav
320,192,37992,1,0,0:0:0:60:kick01.wav
192,192,37992,1,0,0:0:0:60:46.wav
64,192,38198,1,0,0:0:0:60:42.wav
192,192,38198,1,0,0:0:0:60:snare02.wav
448,192,38198,1,0,0:0:0:60:snare01.wav
320,192,38403,1,0,0:0:0:60:snare01.wav
448,192,38403,1,0,0:0:0:60:snare02.wav
64,192,38403,1,0,0:0:0:10:kick01.wav
192,192,38609,1,0,0:0:0:60:snare01.wav
64,192,38609,1,0,0:0:0:60:snare02.wav
448,192,38609,128,0,39842:0:0:0:10:kick01.wav
192,192,38814,1,0,0:0:0:60:snare01.wav
64,192,38917,1,0,0:0:0:60:snare01.wav
320,192,38917,1,0,0:0:0:60:snare02.wav
192,192,39020,1,0,0:0:0:60:snare01.wav
192,192,39225,1,0,0:0:0:60:snare01.wav
64,192,39431,1,0,0:0:0:70:snare01.wav
320,192,39431,1,0,0:0:0:70:snare02.wav
64,192,39842,1,0,0:0:0:50:cymbal01.wav
320,192,39842,1,0,0:0:0:50:clap02.wav
192,192,39842,1,0,0:0:0:50:hithat01.wav
448,192,40253,1,0,0:0:0:50:hithat01.wav
320,192,40253,1,0,0:0:0:60:kick01.wav
64,192,40458,1,0,0:0:0:50:hithat01.wav
192,192,40561,1,0,0:0:0:50:hithat01.wav
320,192,40663,1,0,0:0:0:50:hithat01.wav
448,192,40663,1,0,0:0:0:60:kick01.wav
64,192,41074,1,0,0:0:0:50:hithat01.wav
192,192,41074,1,0,0:0:0:60:kick01.wav
448,192,41280,1,0,0:0:0:50:hithat01.wav
320,192,41383,1,0,0:0:0:50:hithat01.wav
192,192,41485,1,0,0:0:0:50:hithat01.wav
448,192,41485,1,0,0:0:0:60:kick01.wav
64,192,41896,1,0,0:0:0:60:kick01.wav
192,192,41896,1,0,0:0:0:50:hithat01.wav
64,192,42102,1,0,0:0:0:50:hithat01.wav
192,192,42205,1,0,0:0:0:50:hithat01.wav
320,192,42307,1,0,0:0:0:60:kick01.wav
448,192,42307,1,0,0:0:0:50:cymbal01.wav
64,192,42307,1,0,0:0:0:50:hithat01.wav
320,192,42718,1,0,0:0:0:50:hithat01.wav
448,192,42718,1,0,0:0:0:60:kick01.wav
64,192,43129,1,0,0:0:0:60:kick01.wav
192,192,43129,1,0,0:0:0:50:hithat01.wav
320,192,43540,1,0,0:0:0:50:hithat01.wav
448,192,43540,1,0,0:0:0:60:kick01.wav
192,192,43746,1,0,0:0:0:50:hithat01.wav
64,192,43746,1,0,0:0:0:50:cymbal01.wav
448,192,43746,1,0,0:0:0:10:kick01.wav
320,192,43951,1,0,0:0:0:60:kick01.wav
192,192,43951,1,0,0:0:0:50:hithat01.wav
64,192,44362,1,0,0:0:0:60:kick01.wav
192,192,44362,1,0,0:0:0:50:hithat01.wav
192,192,44568,1,0,0:0:0:50:hithat01.wav
320,192,44670,1,0,0:0:0:50:hithat01.wav
448,192,44773,1,0,0:0:0:60:kick01.wav
192,192,44773,1,0,0:0:0:50:hithat01.wav
320,192,45184,1,0,0:0:0:60:kick01.wav
64,192,45184,1,0,0:0:0:50:hithat01.wav
320,192,45595,1,0,0:0:0:60:kick01.wav
192,192,45595,1,0,0:0:0:50:hithat01.wav
64,192,45595,1,0,0:0:0:50:cymbal01.wav
448,192,46006,1,0,0:0:0:60:kick01.wav
320,192,46006,1,0,0:0:0:50:hithat01.wav
64,192,46211,1,0,0:0:0:50:hithat01.wav
192,192,46314,1,0,0:0:0:50:hithat01.wav
320,192,46417,1,0,0:0:0:60:kick01.wav
64,192,46417,1,0,0:0:0:50:hithat01.wav
192,192,46828,1,0,0:0:0:60:kick01.wav
448,192,46828,1,0,0:0:0:50:hithat01.wav
192,192,47033,1,0,0:0:0:50:hithat01.wav
64,192,47136,1,0,0:0:0:50:hithat01.wav
320,192,47239,1,0,0:0:0:50:hithat01.wav
192,192,47239,1,0,0:0:0:60:kick01.wav
448,192,47239,1,0,0:0:0:50:cymbal01.wav
64,192,47650,1,0,0:0:0:60:kick01.wav
192,192,47650,1,0,0:0:0:50:hithat01.wav
448,192,48061,1,0,0:0:0:60:kick01.wav
64,192,48061,128,0,49705:0:0:0:0:
320,192,48061,1,0,0:0:0:50:hithat01.wav
192,192,48472,1,0,0:0:0:60:kick01.wav
320,192,48472,1,0,0:0:0:50:hithat01.wav
448,192,48677,1,0,0:0:0:50:hithat01.wav
320,192,48780,1,0,0:0:0:50:hithat01.wav
448,192,48883,1,0,0:0:0:50:cymbal01.wav
192,192,48883,1,0,0:0:0:50:hithat01.wav
320,192,49294,1,0,0:0:0:50:hithat01.wav
320,192,49499,1,0,0:0:0:50:hithat01.wav
192,192,49705,1,0,0:0:0:10:hithat01.wav
448,192,49705,1,0,0:0:0:10:hithat01.wav
320,192,49705,1,0,0:0:0:60:kick01.wav
320,192,50116,1,0,0:0:0:10:hithat01.wav
448,192,50116,1,0,0:0:0:60:kick01.wav
448,192,50321,1,0,0:0:0:10:hithat01.wav
320,192,50321,1,0,0:0:0:10:hithat01.wav
192,192,50321,1,0,0:0:0:60:kick01.wav
192,192,50732,1,0,0:0:0:10:hithat01.wav
64,192,50732,1,0,0:0:0:60:kick01.wav
64,192,50937,1,0,0:0:0:10:hithat01.wav
192,192,50937,1,0,0:0:0:10:hithat01.wav
320,192,50937,1,0,0:0:0:60:kick01.wav
448,192,51143,1,0,0:0:0:60:snare01.wav
320,192,51143,1,0,0:0:0:60:clap02.wav
192,192,51143,1,0,0:0:0:60:cymbal01.wav
64,192,51143,128,0,52787:0:0:0:10:hithat01.wav
320,192,51348,1,0,0:0:0:60:snare01.wav
192,192,51554,1,0,0:0:0:60:snare01.wav
448,192,51554,1,0,0:0:0:60:snare02.wav
320,192,51759,1,0,0:0:0:60:snare01.wav
320,192,51965,1,0,0:0:0:60:snare01.wav
192,192,52068,1,0,0:0:0:60:snare02.wav
448,192,52068,1,0,0:0:0:60:snare01.wav
320,192,52170,1,0,0:0:0:60:snare01.wav
320,192,52376,1,0,0:0:0:60:snare01.wav
320,192,52581,1,0,0:0:0:60:snare01.wav
320,192,52787,1,0,0:0:0:60:snare02.wav
192,192,52787,1,0,0:0:0:60:snare01.wav
448,192,52787,128,0,54636:0:0:0:60:51.wav
320,192,53403,128,0,54225:0:0:0:10:kick01.wav
192,192,53814,128,0,54225:0:0:0:10:kick01.wav
64,192,54636,1,0,0:0:0:50:cymbal01.wav
192,192,54636,1,0,0:0:0:60:kick01.wav
320,192,54636,1,0,0:0:0:60:hithat01.wav
320,192,54842,1,0,0:0:0:60:kick01.wav
64,192,54842,1,0,0:0:0:10:kick01.wav
192,192,54944,1,0,0:0:0:60:02.wav
64,192,55047,1,0,0:0:0:60:hithat01.wav
320,192,55047,1,0,0:0:0:60:kick01.wav
448,192,55047,1,0,0:0:0:60:snare03.wav
448,192,55253,1,0,0:0:0:60:01.wav
320,192,55253,1,0,0:0:0:60:kick01.wav
64,192,55458,1,0,0:0:0:60:kick01.wav
192,192,55458,1,0,0:0:0:10:kick01.wav
448,192,55663,1,0,0:0:0:60:02.wav
192,192,55663,1,0,0:0:0:60:kick01.wav
64,192,55869,1,0,0:0:0:60:01.wav
320,192,55869,1,0,0:0:0:60:kick01.wav
448,192,55869,1,0,0:0:0:60:snare03.wav
192,192,56280,1,0,0:0:0:60:01.wav
64,192,56280,1,0,0:0:0:60:kick01.wav
192,192,56485,1,0,0:0:0:10:kick01.wav
448,192,56485,1,0,0:0:0:60:kick01.wav
320,192,56588,1,0,0:0:0:60:02.wav
64,192,56691,1,0,0:0:0:60:snare03.wav
192,192,56691,1,0,0:0:0:60:kick01.wav
448,192,56691,1,0,0:0:0:60:hithat01.wav
448,192,56896,1,0,0:0:0:60:01.wav
320,192,57102,1,0,0:0:0:60:kick01.wav
448,192,57102,1,0,0:0:0:10:kick01.wav
192,192,57307,1,0,0:0:0:60:02.wav
320,192,57307,1,0,0:0:0:60:kick01.wav
448,192,57513,1,0,0:0:0:60:01.wav
64,192,57513,1,0,0:0:0:60:snare03.wav
192,192,57513,1,0,0:0:0:60:kick01.wav
192,192,57718,1,0,0:0:0:60:03.wav
320,192,57821,1,0,0:0:0:60:04.wav
448,192,57924,1,0,0:0:0:60:01.wav
64,192,57924,1,0,0:0:0:60:kick01.wav
64,192,58129,1,0,0:0:0:10:kick01.wav
320,192,58129,1,0,0:0:0:60:kick01.wav
192,192,58232,1,0,0:0:0:60:02.wav
448,192,58335,1,0,0:0:0:60:hithat01.wav
320,192,58335,1,0,0:0:0:60:snare03.wav
64,192,58335,1,0,0:0:0:60:kick01.wav
320,192,58540,1,0,0:0:0:60:01.wav
64,192,58540,1,0,0:0:0:60:kick01.wav
192,192,58746,1,0,0:0:0:10:kick01.wav
320,192,58746,1,0,0:0:0:60:kick01.wav
64,192,58951,1,0,0:0:0:60:02.wav
320,192,58951,1,0,0:0:0:60:kick01.wav
448,192,59157,1,0,0:0:0:60:01.wav
192,192,59157,1,0,0:0:0:60:kick01.wav
64,192,59157,1,0,0:0:0:60:snare03.wav
320,192,59568,1,0,0:0:0:60:01.wav
192,192,59568,1,0,0:0:0:60:kick01.wav
64,192,59773,1,0,0:0:0:60:kick01.wav
448,192,59773,1,0,0:0:0:10:kick01.wav
320,192,59876,1,0,0:0:0:60:02.wav
64,192,59979,1,0,0:0:0:60:hithat01.wav
192,192,59979,1,0,0:0:0:60:kick01.wav
448,192,59979,1,0,0:0:0:60:snare03.wav
448,192,60184,1,0,0:0:0:60:01.wav
320,192,60184,1,0,0:0:0:60:kick01.wav
192,192,60287,1,0,0:0:0:60:snare03.wav
64,192,60389,1,0,0:0:0:60:kick01.wav
448,192,60389,1,0,0:0:0:10:kick01.wav
448,192,60595,1,0,0:0:0:60:03.wav
64,192,60595,1,0,0:0:0:60:kick01.wav
192,192,60698,1,0,0:0:0:60:04.wav
64,192,60800,1,0,0:0:0:60:01.wav
320,192,60800,1,0,0:0:0:60:kick01.wav
448,192,60800,1,0,0:0:0:60:snare03.wav
64,192,61211,1,0,0:0:0:60:01.wav
192,192,61211,1,0,0:0:0:60:kick01.wav
192,192,61417,1,0,0:0:0:10:kick01.wav
320,192,61417,1,0,0:0:0:60:kick01.wav
448,192,61520,1,0,0:0:0:60:02.wav
320,192,61622,1,0,0:0:0:60:snare03.wav
192,192,61622,1,0,0:0:0:60:kick01.wav
64,192,61622,1,0,0:0:0:60:hithat01.wav
192,192,61828,1,0,0:0:0:60:01.wav
448,192,61828,1,0,0:0:0:60:kick01.wav
320,192,62033,1,0,0:0:0:60:kick01.wav
64,192,62033,1,0,0:0:0:10:kick01.wav
448,192,62239,1,0,0:0:0:60:02.wav
192,192,62239,1,0,0:0:0:60:kick01.wav
64,192,62444,1,0,0:0:0:60:01.wav
320,192,62444,1,0,0:0:0:60:kick01.wav
448,192,62444,1,0,0:0:0:60:snare03.wav
64,192,62855,1,0,0:0:0:60:01.wav
448,192,62855,1,0,0:0:0:60:kick01.wav
320,192,63061,1,0,0:0:0:10:kick01.wav
192,192,63061,1,0,0:0:0:60:kick01.wav
64,192,63163,1,0,0:0:0:60:02.wav
192,192,63266,1,0,0:0:0:60:snare03.wav
320,192,63266,1,0,0:0:0:60:kick01.wav
448,192,63266,1,0,0:0:0:60:hithat01.wav
192,192,63472,1,0,0:0:0:60:01.wav
448,192,63677,1,0,0:0:0:10:kick01.wav
320,192,63677,1,0,0:0:0:60:kick01.wav
320,192,63883,1,0,0:0:0:60:02.wav
192,192,63883,1,0,0:0:0:60:kick01.wav
64,192,64088,1,0,0:0:0:60:01.wav
192,192,64088,1,0,0:0:0:60:snare03.wav
320,192,64088,1,0,0:0:0:60:kick01.wav
320,192,64294,1,0,0:0:0:60:03.wav
192,192,64396,1,0,0:0:0:60:04.wav
64,192,64499,1,0,0:0:0:60:01.wav
320,192,64499,1,0,0:0:0:60:kick01.wav
192,192,64705,1,0,0:0:0:60:kick01.wav
320,192,64705,1,0,0:0:0:10:kick01.wav
448,192,64807,1,0,0:0:0:60:02.wav
64,192,64910,1,0,0:0:0:60:snare03.wav
192,192,64910,1,0,0:0:0:60:kick01.wav
320,192,64910,1,0,0:0:0:60:hithat01.wav
64,192,65116,1,0,0:0:0:60:01.wav
320,192,65116,1,0,0:0:0:60:kick01.wav
192,192,65321,1,0,0:0:0:60:kick01.wav
448,192,65321,1,0,0:0:0:10:kick01.wav
320,192,65526,1,0,0:0:0:60:02.wav
192,192,65526,1,0,0:0:0:60:kick01.wav
192,192,65732,1,0,0:0:0:60:01.wav
320,192,65732,1,0,0:0:0:60:kick01.wav
448,192,65732,1,0,0:0:0:60:snare03.wav
192,192,65937,1,0,0:0:0:60:kick01.wav
320,192,65937,1,0,0:0:0:50:cymbal01.wav
64,192,65937,1,0,0:0:0:60:clap02.wav
192,192,66143,1,0,0:0:0:60:01.wav
64,192,66348,1,0,0:0:0:10:kick01.wav
448,192,66348,1,0,0:0:0:60:snare01.wav
320,192,66451,1,0,0:0:0:60:02.wav
192,192,66451,1,0,0:0:0:60:snare02.wav
64,192,66554,1,0,0:0:0:60:snare01.wav
448,192,66554,1,0,0:0:0:10:kick01.wav
448,192,66759,1,0,0:0:0:60:01.wav
320,192,66759,1,0,0:0:0:60:snare01.wav
192,192,66965,1,0,0:0:0:10:kick01.wav
64,192,66965,1,0,0:0:0:60:snare01.wav
192,192,67170,1,0,0:0:0:60:03.wav
448,192,67170,1,0,0:0:0:60:snare01.wav
320,192,67273,1,0,0:0:0:60:04.wav
448,192,67376,1,0,0:0:0:60:01.wav
192,192,67376,1,0,0:0:0:60:cymbal01.wav
64,192,67376,1,0,0:0:0:60:kick01.wav
320,192,67787,1,0,0:0:0:60:hithat01.wav
448,192,67787,1,0,0:0:0:60:kick01.wav
64,192,67787,1,0,0:0:0:50:cymbal01.wav
192,192,67992,1,0,0:0:0:10:kick01.wav
448,192,67992,1,0,0:0:0:60:kick01.wav
320,192,68095,1,0,0:0:0:60:02.wav
448,192,68198,1,0,0:0:0:60:snare03.wav
64,192,68198,1,0,0:0:0:60:hithat01.wav
192,192,68198,1,0,0:0:0:60:kick01.wav
192,192,68403,1,0,0:0:0:60:kick01.wav
448,192,68403,1,0,0:0:0:60:01.wav
192,192,68609,1,0,0:0:0:10:kick01.wav
64,192,68609,1,0,0:0:0:60:kick01.wav
192,192,68814,1,0,0:0:0:60:kick01.wav
320,192,68814,1,0,0:0:0:60:02.wav
448,192,69020,1,0,0:0:0:60:snare03.wav
320,192,69020,1,0,0:0:0:60:kick01.wav
64,192,69020,1,0,0:0:0:60:01.wav
64,192,69431,1,0,0:0:0:60:kick01.wav
448,192,69431,1,0,0:0:0:60:01.wav
64,192,69636,1,0,0:0:0:10:kick01.wav
320,192,69636,1,0,0:0:0:60:kick01.wav
192,192,69739,1,0,0:0:0:60:02.wav
448,192,69842,1,0,0:0:0:60:hithat01.wav
64,192,69842,1,0,0:0:0:60:snare03.wav
320,192,69842,1,0,0:0:0:60:kick01.wav
192,192,70047,1,0,0:0:0:60:01.wav
448,192,70253,1,0,0:0:0:10:kick01.wav
320,192,70253,1,0,0:0:0:60:kick01.wav
192,192,70458,1,0,0:0:0:60:kick01.wav
64,192,70458,1,0,0:0:0:60:02.wav
320,192,70663,1,0,0:0:0:60:kick01.wav
64,192,70663,1,0,0:0:0:60:snare03.wav
448,192,70663,1,0,0:0:0:60:01.wav
192,192,70869,1,0,0:0:0:60:03.wav
320,192,70972,1,0,0:0:0:60:04.wav
192,192,71074,1,0,0:0:0:60:kick01.wav
448,192,71074,1,0,0:0:0:60:01.wav
64,192,71280,1,0,0:0:0:10:kick01.wav
448,192,71280,1,0,0:0:0:60:kick01.wav
320,192,71383,1,0,0:0:0:60:02.wav
64,192,71485,1,0,0:0:0:60:kick01.wav
192,192,71485,1,0,0:0:0:60:snare03.wav
448,192,71485,1,0,0:0:0:60:hithat01.wav
320,192,71691,1,0,0:0:0:60:01.wav
192,192,71691,1,0,0:0:0:60:kick01.wav
448,192,71896,1,0,0:0:0:60:kick01.wav
64,192,71896,1,0,0:0:0:10:kick01.wav
320,192,72102,1,0,0:0:0:60:kick01.wav
192,192,72102,1,0,0:0:0:60:02.wav
64,192,72307,1,0,0:0:0:60:snare03.wav
320,192,72307,1,0,0:0:0:60:kick01.wav
448,192,72307,1,0,0:0:0:60:01.wav
192,192,72718,1,0,0:0:0:60:kick01.wav
320,192,72718,1,0,0:0:0:60:01.wav
448,192,72924,1,0,0:0:0:10:kick01.wav
64,192,72924,1,0,0:0:0:60:kick01.wav
192,192,73026,1,0,0:0:0:60:02.wav
448,192,73129,1,0,0:0:0:60:snare03.wav
320,192,73129,1,0,0:0:0:60:kick01.wav
64,192,73129,1,0,0:0:0:60:hithat01.wav
448,192,73335,1,0,0:0:0:60:01.wav
64,192,73335,1,0,0:0:0:60:kick01.wav
192,192,73437,1,0,0:0:0:60:snare03.wav
448,192,73540,1,0,0:0:0:10:kick01.wav
320,192,73540,1,0,0:0:0:60:kick01.wav
64,192,73746,1,0,0:0:0:60:kick01.wav
320,192,73746,1,0,0:0:0:60:03.wav
448,192,73848,1,0,0:0:0:60:04.wav
320,192,73951,1,0,0:0:0:60:01.wav
192,192,73951,1,0,0:0:0:60:snare03.wav
64,192,73951,1,0,0:0:0:60:kick01.wav
64,192,74362,1,0,0:0:0:60:01.wav
320,192,74362,1,0,0:0:0:60:kick01.wav
192,192,74568,1,0,0:0:0:10:kick01.wav
448,192,74568,1,0,0:0:0:60:kick01.wav
320,192,74670,1,0,0:0:0:60:02.wav
64,192,74773,1,0,0:0:0:60:hithat01.wav
192,192,74773,1,0,0:0:0:60:kick01.wav
448,192,74773,1,0,0:0:0:60:snare03.wav
448,192,74979,1,0,0:0:0:60:kick01.wav
320,192,74979,1,0,0:0:0:60:01.wav
192,192,75184,1,0,0:0:0:10:kick01.wav
64,192,75184,1,0,0:0:0:60:kick01.wav
192,192,75390,1,0,0:0:0:60:kick01.wav
448,192,75390,1,0,0:0:0:60:02.wav
320,192,75595,1,0,0:0:0:60:kick01.wav
64,192,75595,1,0,0:0:0:60:01.wav
448,192,75595,1,0,0:0:0:60:snare03.wav
64,192,76006,1,0,0:0:0:60:01.wav
320,192,76006,1,0,0:0:0:60:kick01.wav
448,192,76211,1,0,0:0:0:60:kick01.wav
320,192,76211,1,0,0:0:0:10:kick01.wav
192,192,76314,1,0,0:0:0:60:02.wav
448,192,76417,1,0,0:0:0:60:hithat01.wav
320,192,76417,1,0,0:0:0:60:kick01.wav
64,192,76417,1,0,0:0:0:60:snare03.wav
192,192,76622,1,0,0:0:0:60:01.wav
448,192,76828,1,0,0:0:0:10:kick01.wav
64,192,76828,1,0,0:0:0:60:kick01.wav
64,192,77033,1,0,0:0:0:60:kick01.wav
320,192,77033,1,0,0:0:0:60:02.wav
320,192,77239,1,0,0:0:0:60:kick01.wav
192,192,77239,1,0,0:0:0:60:snare03.wav
448,192,77239,1,0,0:0:0:60:01.wav
64,192,77444,1,0,0:0:0:60:03.wav
448,192,77547,1,0,0:0:0:60:04.wav
320,192,77650,1,0,0:0:0:60:kick01.wav
64,192,77650,1,0,0:0:0:60:01.wav
192,192,77855,1,0,0:0:0:10:kick01.wav
64,192,77855,1,0,0:0:0:60:kick01.wav
320,192,77958,1,0,0:0:0:60:02.wav
192,192,78061,1,0,0:0:0:60:kick01.wav
64,192,78061,1,0,0:0:0:60:snare03.wav
448,192,78061,1,0,0:0:0:60:hithat01.wav
320,192,78266,1,0,0:0:0:60:kick01.wav
192,192,78266,1,0,0:0:0:60:01.wav
448,192,78472,1,0,0:0:0:10:kick01.wav
64,192,78472,1,0,0:0:0:60:kick01.wav
192,192,78677,1,0,0:0:0:60:kick01.wav
320,192,78677,1,0,0:0:0:60:02.wav
448,192,78883,1,0,0:0:0:60:snare03.wav
320,192,78883,1,0,0:0:0:60:kick01.wav
64,192,78883,1,0,0:0:0:60:01.wav
64,192,79088,1,0,0:0:0:60:clap02.wav
192,192,79088,128,0,80526:0:0:0:60:kick01.wav
448,192,79088,1,0,0:0:0:50:cymbal01.wav
64,192,80526,1,0,0:0:0:60:kick01.wav
448,192,80526,1,0,0:0:0:60:05.wav
320,192,80526,1,0,0:0:0:60:clap02.wav
192,192,80629,1,0,0:0:0:60:06.wav
320,192,80732,1,0,0:0:0:60:07.wav
192,192,80835,1,0,0:0:0:60:08.wav
64,192,80937,1,0,0:0:0:60:kick01.wav
448,192,80937,1,0,0:0:0:50:cymbal01.wav
320,192,80937,128,0,81554:0:0:0:60:09.wav
192,192,81143,1,0,0:0:0:60:kick01.wav
64,192,81348,1,0,0:0:0:50:hithat01.wav
448,192,81348,1,0,0:0:0:60:snare03.wav
192,192,81554,128,0,81759:0:0:0:60:10.wav
448,192,81554,1,0,0:0:0:60:kick01.wav
64,192,81657,1,0,0:0:0:60:snare03.wav
448,192,81759,1,0,0:0:0:60:kick01.wav
320,192,81759,1,0,0:0:0:50:hithat01.wav
64,192,81862,1,0,0:0:0:60:snare03.wav
448,192,81965,128,0,82068:0:0:0:60:11.wav
192,192,81965,1,0,0:0:0:60:kick01.wav
64,192,82170,128,0,82992:0:0:0:60:09.wav
320,192,82170,1,0,0:0:0:60:snare03.wav
192,192,82170,1,0,0:0:0:50:hithat01.wav
448,192,82376,1,0,0:0:0:60:kick01.wav
192,192,82581,1,0,0:0:0:60:kick01.wav
448,192,82581,1,0,0:0:0:50:hithat01.wav
320,192,82787,1,0,0:0:0:60:kick01.wav
192,192,82992,1,0,0:0:0:60:snare03.wav
448,192,82992,1,0,0:0:0:60:clap01.wav
320,192,82992,1,0,0:0:0:60:hithat01.wav
192,192,83198,128,0,83609:0:0:0:60:12.wav
320,192,83198,1,0,0:0:0:60:kick01.wav
448,192,83300,1,0,0:0:0:60:snare03.wav
64,192,83403,1,0,0:0:0:50:hithat01.wav
320,192,83403,1,0,0:0:0:60:kick01.wav
448,192,83506,1,0,0:0:0:60:snare03.wav
320,192,83609,128,0,83814:0:0:0:60:11.wav
64,192,83609,1,0,0:0:0:60:kick01.wav
448,192,83814,128,0,84020:0:0:0:60:13.wav
192,192,83814,1,0,0:0:0:60:snare03.wav
64,192,83814,1,0,0:0:0:50:hithat01.wav
192,192,84020,128,0,84636:0:0:0:60:14.wav
320,192,84020,1,0,0:0:0:60:kick01.wav
64,192,84225,1,0,0:0:0:60:kick01.wav
448,192,84225,1,0,0:0:0:50:hithat01.wav
320,192,84431,1,0,0:0:0:60:kick01.wav
320,192,84636,128,0,85047:0:0:0:60:15.wav
448,192,84636,1,0,0:0:0:60:snare03.wav
64,192,84636,1,0,0:0:0:50:hithat01.wav
64,192,84842,1,0,0:0:0:60:kick01.wav
448,192,84842,1,0,0:0:0:10:kick01.wav
192,192,84944,1,0,0:0:0:60:snare03.wav
64,192,85047,128,0,85458:0:0:0:60:16.wav
448,192,85047,1,0,0:0:0:60:kick01.wav
320,192,85150,1,0,0:0:0:60:snare03.wav
192,192,85253,1,0,0:0:0:60:kick01.wav
448,192,85253,1,0,0:0:0:10:kick01.wav
192,192,85458,128,0,85561:0:0:0:60:11.wav
448,192,85458,1,0,0:0:0:50:hithat01.wav
320,192,85458,1,0,0:0:0:60:snare03.wav
320,192,85663,128,0,86074:0:0:0:60:16.wav
448,192,85663,1,0,0:0:0:50:cymbal01.wav
64,192,85663,1,0,0:0:0:60:kick01.wav
192,192,85663,1,0,0:0:0:60:hithat01.wav
192,192,86074,128,0,86177:0:0:0:60:17.wav
64,192,86074,1,0,0:0:0:60:snare01.wav
448,192,86280,1,0,0:0:0:60:snare01.wav
320,192,86280,1,0,0:0:0:10:kick01.wav
448,192,86485,1,0,0:0:0:60:18.wav
320,192,86588,1,0,0:0:0:60:19.wav
192,192,86691,1,0,0:0:0:60:20.wav
64,192,86794,1,0,0:0:0:60:21.wav
448,192,86896,1,0,0:0:0:60:22.wav
320,192,86999,1,0,0:0:0:60:23.wav
192,192,87102,1,0,0:0:0:60:53.wav
448,192,87102,1,0,0:0:0:50:cymbal01.wav
64,192,87102,1,0,0:0:0:60:kick01.wav
320,192,87307,1,0,0:0:0:50:cymbal01.wav
192,192,87307,1,0,0:0:0:60:kick01.wav
448,192,87307,128,0,89157:0:0:0:60:52.wav
64,192,87307,128,0,88746:0:0:0:60:54.wav
