osu file format v14

[General]
AudioFilename: STEP.mp3
AudioLeadIn: 1000
PreviewTime: 127356
Countdown: 0
SampleSet: Soft
StackLeniency: 0.7
Mode: 0
LetterboxInBreaks: 1
WidescreenStoryboard: 0

[Editor]
Bookmarks: 80917
DistanceSpacing: 1
BeatDivisor: 4
GridSize: 4
TimelineZoom: 1

[Metadata]
Title:STEP
TitleUnicode:STEP
Artist:ClariS
ArtistUnicode:ClariS
Creator:Rizia
Version:Nisestep
Source:ニセコイ
Tags:nisekoi opening happy623 del05 kawaiwkyik
BeatmapID:707636
BeatmapSetID:312851

[Difficulty]
HPDrainRate:6
CircleSize:4
OverallDifficulty:7
ApproachRate:8
SliderMultiplier:1.8
SliderTickRate:1

[Events]
//Background and Video events
0,0,"yande.re 329294 dress kirisaki_chitoge nisekoi onodera_kosaki tachibana_marika thighhighs tsugumi_seishirou.png",0,0
//Break Periods
2,87692,96606
2,155090,164003
2,214268,222770
//Storyboard Layer 0 (Background)
//Storyboard Layer 1 (Fail)
//Storyboard Layer 2 (Pass)
//Storyboard Layer 3 (Foreground)
//Storyboard Sound Samples

[TimingPoints]
370,410.958904109589,4,2,1,40,1,0
370,-125,4,2,1,40,0,0
5301,-100,4,2,1,50,0,0
6945,-100,4,2,1,80,0,0
13520,-100,4,2,1,60,0,0
13726,-200,4,2,1,30,0,0
25027,-100,4,2,2,60,0,0
26671,-100,4,2,1,60,0,0
39822,-133.333333333333,4,2,1,60,0,0
49685,-100,4,2,1,60,0,0
51328,-100,4,2,2,60,0,0
54616,-100,4,2,1,80,0,1
67356,-133.333333333333,4,2,1,80,0,0
67664,-133.333333333333,4,2,1,20,0,0
67767,-100,4,2,1,80,0,1
79274,-100,4,2,1,80,0,0
87493,-100,4,2,1,60,0,0
99000,-100,4,2,2,60,0,0
100643,-100,4,2,1,60,0,0
113794,-133.333333333333,4,2,1,60,0,0
123657,-100,4,2,1,60,0,0
125301,-100,4,2,2,60,0,0
128589,-100,4,2,1,80,0,1
141328,-133.333333333333,4,2,1,80,0,0
141637,-133.333333333333,4,2,1,20,0,0
141739,-100,4,2,1,80,0,1
153246,-100,4,2,1,80,0,0
154890,-100,4,2,1,40,0,0
168041,-133.333333333333,4,2,1,60,0,0
180370,-125,4,2,1,60,0,0
181191,-111.111111111111,4,2,1,60,0,0
210883,-111.111111111111,4,2,1,20,0,0
225370,-111.111111111111,4,2,2,60,0,0
225575,-111.111111111111,4,2,1,60,0,0
225780,-111.111111111111,4,2,2,60,0,0
225986,-111.111111111111,4,2,1,60,0,0
226191,-111.111111111111,4,2,2,60,0,0
226397,-111.111111111111,4,2,1,60,0,0
226808,-133.333333333333,4,2,1,80,0,0
227116,-133.333333333333,4,2,1,20,0,0
227219,-100,4,2,1,80,0,1
238726,-100,4,2,1,20,0,0
239959,-100,4,2,1,60,0,0
240370,-100,4,2,1,80,0,0
246842,-100,4,2,1,40,0,0
248589,-100,4,2,1,20,0,0
250027,-100,4,2,1,10,0,0

[Colours]
Combo1 : 0,128,255
Combo2 : 255,244,119
Combo3 : 255,128,0
Combo4 : 128,64,64

[HitObjects]
156,108,370,6,0,L|272:96,2,108
80,172,1397,1,0,0:0:0:0:
80,172,1602,2,0,P|76:216|88:248,1,72,2|0,0:0|0:0,0:0:0:0:
255,311,2013,6,0,L|148:300,2,108
332,244,3041,1,0,0:0:0:0:
332,244,3246,2,0,P|352:288|352:328,1,72,2|0,0:0|0:0,0:0:0:0:
348,336,3554,1,0,0:0:0:0:
348,336,3657,6,0,P|392:344|456:320,2,108
172,240,4685,1,0,0:0:0:0:
100,288,4890,2,0,L|112:360,1,72,2|0,0:0|0:0,0:0:0:0:
248,300,5301,6,0,L|262:211,1,90,8|8,0:0|0:0,0:0:0:0:
184,136,5712,1,8,0:0:0:0:
340,260,5917,1,0,0:0:0:0:
340,260,6020,2,0,P|380:276|464:232,1,135,8|8,0:0|0:0,0:0:0:0:
456,56,6534,2,0,L|448:112,1,45,2|2,0:0|0:0,0:0:0:0:
388,196,6739,2,0,L|381:151,1,45,2|2,0:0|0:0,0:0:0:0:
308,88,6945,6,0,L|216:80,1,90,4|0,0:0|0:0,0:0:0:0:
104,152,7356,2,0,P|92:204|104:248,1,90,8|0,0:0|0:0,0:0:0:0:
176,324,7767,1,0,0:0:0:0:
216,200,7972,1,0,0:0:0:0:
92,320,8178,1,8,0:0:0:0:
256,372,8383,1,0,0:0:0:0:
256,372,8589,6,0,L|352:360,1,90
512,280,9000,2,0,L|416:292,1,90,8|0,0:0|0:0,0:0:0:0:
312,216,9411,1,0,0:0:0:0:
364,344,9616,1,0,0:0:0:0:
416,192,9822,1,8,0:0:0:0:
416,192,10027,1,0,0:0:0:0:
288,292,10233,6,0,P|208:280|84:272,1,180,4|8,0:0|0:0,0:0:0:0:
48,152,10849,1,2,0:0:0:0:
76,148,10952,1,2,0:0:0:0:
104,140,11054,1,2,0:0:0:0:
128,132,11157,1,2,0:0:0:0:
152,124,11260,1,2,0:0:0:0:
228,48,11465,1,8,0:0:0:0:
320,104,11671,6,0,P|344:144|264:256,1,180,4|8,0:0|0:0,0:0:0:0:
108,232,12287,2,0,P|152:212|204:224,1,90,8|2,0:0|0:0,0:0:0:0:
232,240,12596,1,2,0:0:0:0:
260,276,12698,2,0,L|264:328,1,45,2|2,0:0|0:0,0:0:0:0:
336,240,12904,2,0,L|339:195,1,45,2|2,0:0|0:0,0:0:0:0:
396,304,13109,1,8,0:0:0:0:
396,304,13212,1,0,0:0:0:0:
396,304,13315,2,0,L|496:296,1,90,0|4,0:0|0:0,0:0:0:0:
485,296,14959,5,0,0:0:0:0:
485,296,15164,2,0,P|436:304|352:264,2,135
300,356,16808,2,0,B|252:368|220:336|220:336|184:360|184:360|128:320|32:348,1,270
32,220,18452,2,0,P|72:232|20:144,1,270
12,292,20096,6,0,P|56:308|156:276,2,135
216,344,21739,2,0,B|240:308|296:304|340:344|340:344|340:288|392:260|424:256,1,270
344,36,23383,2,0,B|320:88|320:88|336:160|336:160|316:212,1,180
96,344,25027,5,0,0:0:0:0:
148,272,25233,1,8,0:0:0:0:
236,256,25438,1,8,0:0:0:0:
300,316,25643,1,8,0:0:0:0:
300,316,25746,1,8,0:0:0:0:
300,316,25849,1,8,0:0:0:0:
246,166,26054,2,0,L|236:256,1,90,8|0,0:0|0:0,0:0:0:0:
224,356,26465,1,0,0:0:0:0:
324,144,26671,6,0,P|296:100|204:100,1,135,4|0,0:0|0:0,0:0:0:0:
168,148,27082,2,0,L|72:136,1,90,2|0,0:0|0:0,0:0:0:0:
140,260,27493,2,0,L|236:272,1,90
360,368,27904,2,0,P|376:324|368:268,1,90,2|0,0:0|0:0,0:0:0:0:
324,144,28315,6,0,P|308:188|316:244,1,90
444,248,28726,1,2,0:0:0:0:
444,248,28931,1,0,0:0:0:0:
488,168,29137,2,0,P|480:116|472:80,1,90
340,55,29548,2,0,P|330:98|323:143,1,90,2|0,0:0|0:0,0:0:0:0:
324,332,29959,5,0,0:0:0:0:
292,228,30164,1,0,0:0:0:0:
216,304,30369,2,0,P|176:308|124:288,1,90,2|0,0:0|0:0,0:0:0:0:
292,228,30780,1,0,0:0:0:0:
184,200,30986,1,0,0:0:0:0:
267,38,31191,2,0,P|275:82|259:124,1,90,2|0,0:0|0:0,0:0:0:0:
184,200,31602,6,0,P|120:188|76:184,1,90
24,308,32013,2,0,P|88:296|132:292,1,90,2|0,0:0|0:0,0:0:0:0:
140,300,32322,2,0,L|128:356,1,45
248,344,32630,1,0,0:0:0:0:
300,200,32835,1,2,0:0:0:0:
204,244,33041,1,0,0:0:0:0:
352,304,33246,6,0,L|448:288,1,90
492,204,33657,1,2,0:0:0:0:
404,156,33863,1,0,0:0:0:0:
404,156,33965,1,0,0:0:0:0:
404,156,34068,2,0,L|415:66,1,90
288,110,34479,2,0,L|299:199,1,90,2|0,0:0|0:0,0:0:0:0:
272,296,34890,6,0,P|236:320|116:256,1,180,0|2,0:0|0:0,0:0:0:0:
168,148,35506,1,0,0:0:0:0:
200,240,35712,2,0,P|192:296|176:352,1,90
64,384,36123,2,0,P|53:340|47:295,1,90,2|0,0:0|0:0,0:0:0:0:
168,148,36534,6,0,P|224:144|296:264,1,180,0|2,0:0|0:0,0:0:0:0:
372,328,37150,1,0,0:0:0:0:
372,328,37253,1,0,0:0:0:0:
372,328,37356,2,0,L|276:336,1,90
110,232,37767,2,0,L|206:240,1,90,2|0,0:0|0:0,0:0:0:0:
168,360,38178,5,0,0:0:0:0:
52,316,38383,1,8,0:0:0:0:
168,360,38589,1,8,0:0:0:0:
244,260,38794,1,0,0:0:0:0:
244,260,38897,1,0,0:0:0:0:
244,260,39000,2,0,P|240:196|232:152,1,90
120,88,39411,2,0,L|68:96,2,45,8|0|0,0:0|0:0|0:0,0:0:0:0:
208,80,39822,6,0,P|240:104|340:88,1,135.000005149842,4|0,0:0|0:0,0:0:0:0:
392,32,40438,2,0,L|372:192,1,135.000005149842,4|0,0:0|0:0,0:0:0:0:
432,236,41054,1,0,0:0:0:0:
432,236,41260,6,0,L|288:260,1,135.000005149842
216,228,41876,1,0,0:0:0:0:
228,316,42082,1,2,0:0:0:0:
228,316,42185,1,2,0:0:0:0:
228,316,42287,2,0,P|235:348|234:382,1,67.5000025749208,8|0,0:0|0:0,0:0:0:0:
136,248,42698,2,0,P|134:214|142:181,1,67.5000025749208
216,136,43109,6,0,P|256:144|332:88,1,135.000005149842
400,220,43726,2,0,P|352:175|286:177,1,135.000005149842,8|0,0:0|0:0,0:0:0:0:
320,260,44342,1,0,0:0:0:0:
240,300,44548,6,0,P|287:344|353:342,1,135.000005149842
320,260,45164,1,0,0:0:0:0:
168,356,45370,1,2,0:0:0:0:
168,356,45472,1,2,0:0:0:0:
168,356,45575,2,0,P|124:364|60:364,2,101.250003862381,8|0|0,0:0|0:0|0:0,0:0:0:0:
216,284,46397,6,0,L|204:208,1,67.5000025749208,2|0,0:0|0:0,0:0:0:0:
320,260,46808,2,0,L|309:326,1,67.5000025749208
272,172,47219,2,0,P|308:160|348:160,1,67.5000025749208,8|0,0:0|0:0,0:0:0:0:
412,204,47630,1,0,0:0:0:0:
412,116,47835,1,0,0:0:0:0:
492,240,48041,6,0,L|472:324,1,67.5000025749208,2|0,0:0|0:0,0:0:0:0:
412,204,48452,2,0,L|396:138,1,67.5000025749208
320,260,48863,2,0,P|280:272|248:272,1,67.5000025749208,8|0,0:0|0:0,0:0:0:0:
176,236,49274,1,0,0:0:0:0:
176,236,49479,1,0,0:0:0:0:
372,324,49685,6,0,P|400:276|324:172,1,180,4|0,0:0|0:0,0:0:0:0:
143,260,50301,2,0,B|271:275|271:275|319:259,1,180,4|0,0:0|0:0,0:0:0:0:
256,176,50917,1,4,0:0:0:0:
200,344,51123,1,4,0:0:0:0:
80,316,51328,5,0,0:0:0:0:
80,316,51431,1,0,0:0:0:0:
80,316,51534,1,8,0:0:0:0:
160,240,51739,1,8,0:0:0:0:
224,356,51945,2,0,L|276:352,2,45,0|8|0,0:0|0:0|0:0,0:0:0:0:
160,240,52356,1,8,0:0:0:0:
256,176,52561,1,0,0:0:0:0:
328,300,52767,5,4,0:0:0:0:
328,300,54616,6,0,P|360:264|508:284,1,180,4|8,0:0|0:0,0:0:0:0:
392,156,55233,1,2,0:0:0:0:
392,156,55335,1,2,0:0:0:0:
392,156,55438,2,0,P|376:100|384:52,1,90
468,100,55849,1,8,0:0:0:0:
328,216,56054,6,0,P|237:205|136:196,1,180
36,164,56671,2,0,L|44:264,1,90,8|0,0:0|0:0,0:0:0:0:
120,368,57082,2,0,L|127:278,1,90,2|0,0:0|0:0,0:0:0:0:
208,220,57493,2,0,P|252:228|312:228,1,90,8|0,0:0|0:0,0:0:0:0:
452,140,57904,5,0,0:0:0:0:
372,180,58109,1,0,0:0:0:0:
380,88,58315,1,8,0:0:0:0:
456,252,58520,1,0,0:0:0:0:
288,312,58726,2,0,L|192:304,1,90,2|0,0:0|0:0,0:0:0:0:
116,176,59137,1,8,0:0:0:0:
168,300,59342,1,2,0:0:0:0:
48,364,59548,6,0,P|56:300|84:172,1,180,0|8,0:0|0:0,0:0:0:0:
324,156,60164,1,0,0:0:0:0:
324,156,60267,1,0,0:0:0:0:
324,156,60369,2,0,P|280:172|192:132,1,135,2|0,0:0|0:0,0:0:0:0:
180,124,60780,2,0,L|188:236,1,90,8|0,0:0|0:0,0:0:0:0:
236,328,61191,6,0,P|276:320|344:312,1,90
424,324,61602,1,8,0:0:0:0:
395,145,61808,2,0,P|380:187|384:232,1,90,2|0,0:0|0:0,0:0:0:0:
480,204,62219,1,0,0:0:0:0:
484,104,62424,5,8,0:0:0:0:
316,88,62630,2,0,L|224:76,1,90,2|0,0:0|0:0,0:0:0:0:
308,184,63041,1,0,0:0:0:0:
395,145,63246,2,0,L|451:71,1,90,8|0,0:0|0:0,0:0:0:0:
308,184,63657,2,0,L|343:269,1,90,2|0,0:0|0:0,0:0:0:0:
424,324,64068,2,0,P|364:348|320:376,1,90,8|0,0:0|0:0,0:0:0:0:
256,312,64479,5,0,0:0:0:0:
184,244,64685,1,0,0:0:0:0:
88,272,64890,1,8,0:0:0:0:
60,368,65096,2,0,B|112:352|112:352|168:368|168:368|256:344,1,180
360,360,65712,1,8,0:0:0:0:
360,360,65917,6,0,P|376:312|304:200,1,180
312,224,66431,1,8,0:0:0:0:
308,240,66534,1,8,0:0:0:0:
404,160,66739,1,0,0:0:0:0:
296,96,66945,1,0,0:0:0:0:
296,96,67150,1,0,0:0:0:0:
236,208,67356,6,0,L|104:196,1,101.250003862381,8|4,0:0|0:0,0:0:0:0:
52,176,67767,6,0,P|88:120|196:144,2,180,4|8|2,0:0|0:0|0:0,0:0:0:0:
88,260,68794,2,0,P|100:332|96:368,1,90,0|8,0:0|0:0,0:0:0:0:
180,312,69205,6,0,P|232:288|348:360,1,180
408,264,69822,1,8,0:0:0:0:
436,360,70027,1,0,0:0:0:0:
376,168,70233,5,2,0:0:0:0:
376,168,70438,2,0,L|396:80,1,90,0|8,0:0|0:0,0:0:0:0:
408,264,70849,1,0,0:0:0:0:
312,244,71054,6,0,P|264:236|212:256,1,90
120,300,71465,2,0,P|76:308|33:296,1,90,8|0,0:0|0:0,0:0:0:0:
72,116,71876,2,0,L|84:216,1,90,2|0,0:0|0:0,0:0:0:0:
200,348,72287,2,0,L|210:258,1,90,8|2,0:0|0:0,0:0:0:0:
280,164,72698,6,0,P|328:172|468:176,1,180,0|8,0:0|0:0,0:0:0:0:
336,80,73315,1,2,0:0:0:0:
336,80,73417,1,2,0:0:0:0:
336,80,73520,2,0,P|380:76|476:60,1,135
496,52,73931,2,0,L|488:152,1,90,8|0,0:0|0:0,0:0:0:0:
440,236,74342,6,0,P|392:224|296:300,1,180,2|8,0:0|0:0,0:0:0:0:
128,265,74959,1,2,0:0:0:0:
128,265,75061,1,2,0:0:0:0:
128,265,75164,2,0,P|173:268|216:256,1,90
388,312,75575,2,0,L|372:208,1,90,8|0,0:0|0:0,0:0:0:0:
316,72,75986,5,2,0:0:0:0:
296,176,76191,1,0,0:0:0:0:
216,104,76397,1,8,0:0:0:0:
404,144,76602,2,0,P|448:148|504:124,2,90,0|2|0,0:0|0:0|0:0,0:0:0:0:
328,208,77219,2,0,L|344:328,1,90,8|0,0:0|0:0,0:0:0:0:
268,364,77630,5,2,0:0:0:0:
424,300,77835,1,0,0:0:0:0:
376,376,78041,1,8,0:0:0:0:
248,276,78246,2,0,P|208:264|104:344,1,180,2|0,0:0|0:0,0:0:0:0:
32,272,78863,1,8,0:0:0:0:
88,110,79068,2,0,L|100:200,1,90,0|2,0:0|0:0,0:0:0:0:
316,328,80506,6,0,L|368:324,3,45,10|2|2|2,0:0|0:0|0:0|0:0,0:0:0:0:
404,316,80917,6,0,P|444:328|504:220,1,180,4|8,0:0|0:0,0:0:0:0:
344,236,81534,1,0,0:0:0:0:
344,236,81637,1,0,0:0:0:0:
344,236,81739,2,0,L|244:228,1,90,2|0,0:0|0:0,0:0:0:0:
416,144,82150,2,0,L|516:136,1,90,8|0,0:0|0:0,0:0:0:0:
340,52,82561,5,2,0:0:0:0:
272,108,82767,1,0,0:0:0:0:
256,20,82972,1,8,0:0:0:0:
228,192,83178,1,0,0:0:0:0:
228,192,83280,1,0,0:0:0:0:
228,192,83383,2,0,P|216:248|212:296,1,90,2|0,0:0|0:0,0:0:0:0:
344,356,83794,2,0,P|338:311|328:267,1,90,8|0,0:0|0:0,0:0:0:0:
192,324,84205,6,0,P|140:316|-4:312,1,180,4|8,0:0|0:0,0:0:0:0:
40,144,84822,1,2,0:0:0:0:
66,139,84924,1,2,0:0:0:0:
94,143,85027,1,2,0:0:0:0:
120,154,85130,1,2,0:0:0:0:
139,175,85233,1,2,0:0:0:0:
240,144,85438,1,8,0:0:0:0:
316,220,85643,6,0,P|364:240|464:160,1,180,4|8,0:0|0:0,0:0:0:0:
344,119,86260,2,0,P|352:76|337:34,1,90,8|2,0:0|0:0,0:0:0:0:
296,16,86568,1,2,0:0:0:0:
256,32,86671,2,0,L|244:96,1,45,2|2,0:0|0:0,0:0:0:0:
168,100,86876,2,0,L|159:55,1,45,2|2,0:0|0:0,0:0:0:0:
84,32,87082,1,8,0:0:0:0:
84,32,87185,1,0,0:0:0:0:
84,32,87287,2,0,L|-16:28,1,90,0|4,0:0|0:0,0:0:0:0:
256,192,97356,12,0,98794,0:0:0:0:
160,104,99000,5,0,0:0:0:0:
112,180,99205,1,8,0:0:0:0:
168,252,99411,1,8,0:0:0:0:
256,228,99616,1,0,0:0:0:0:
256,228,99719,1,8,0:0:0:0:
256,228,99822,2,0,P|304:224|360:248,1,90
368,264,100643,6,0,P|344:220|404:104,1,180,4|2,0:0|0:0,0:0:0:0:
456,196,101260,1,0,0:0:0:0:
456,196,101363,1,0,0:0:0:0:
456,196,101465,2,0,L|444:308,1,90
344,368,101876,2,0,L|334:278,1,90,2|0,0:0|0:0,0:0:0:0:
248,228,102287,6,0,P|204:232|148:236,1,90
88,328,102698,2,0,P|132:324|188:320,1,90,2|0,0:0|0:0,0:0:0:0:
177,320,103006,1,0,0:0:0:0:
177,320,103109,1,0,0:0:0:0:
268,364,103315,1,0,0:0:0:0:
260,264,103520,1,2,0:0:0:0:
268,364,103726,1,0,0:0:0:0:
364,284,103931,6,0,P|372:232|372:176,1,90
268,240,104342,2,0,P|248:190|220:142,1,90,2|0,0:0|0:0,0:0:0:0:
160,248,104753,2,0,P|118:215|70:187,1,90
72,288,105164,1,2,0:0:0:0:
72,288,105369,1,0,0:0:0:0:
16,136,105575,6,0,P|4:188|12:244,1,90
150,336,105986,2,0,P|162:284|154:228,1,90,2|0,0:0|0:0,0:0:0:0:
124,84,106397,1,0,0:0:0:0:
100,180,106602,1,0,0:0:0:0:
224,208,106808,2,0,L|320:200,1,90,2|0,0:0|0:0,0:0:0:0:
478,141,107219,6,0,P|421:108|356:120,1,135
408,188,107630,2,0,L|420:288,1,90,2|0,0:0|0:0,0:0:0:0:
348,344,108041,1,0,0:0:0:0:
260,300,108246,1,0,0:0:0:0:
180,360,108452,2,0,P|124:352|72:348,1,90,2|0,0:0|0:0,0:0:0:0:
44,264,108863,6,0,P|96:276|172:176,1,180,0|2,0:0|0:0,0:0:0:0:
84,180,109479,1,0,0:0:0:0:
84,180,109582,1,0,0:0:0:0:
84,180,109685,1,0,0:0:0:0:
232,292,109890,2,0,L|324:280,2,90,0|2|0,0:0|0:0|0:0,0:0:0:0:
262,106,110506,6,0,P|260:151|256:196,1,90
136,336,110917,2,0,P|138:291|142:246,1,90,2|0,0:0|0:0,0:0:0:0:
142,246,111226,1,0,0:0:0:0:
142,246,111328,2,0,P|96:240|32:228,1,90
173,120,111739,2,0,P|217:112|261:106,1,90,2|0,0:0|0:0,0:0:0:0:
376,160,112150,5,0,0:0:0:0:
444,52,112356,1,8,0:0:0:0:
376,160,112561,1,8,0:0:0:0:
468,248,112767,1,0,0:0:0:0:
468,248,112869,1,0,0:0:0:0:
468,248,112972,2,0,L|452:344,1,90
332,368,113383,2,0,L|324:308,2,45,2|2|2,0:0|0:0|0:0,0:0:0:0:
244,340,113794,6,0,P|192:328|120:376,1,135.000005149842,4|0,0:0|0:0,0:0:0:0:
40,352,114411,2,0,L|48:216,1,135.000005149842,4|0,0:0|0:0,0:0:0:0:
88,140,115027,1,0,0:0:0:0:
160,192,115233,5,2,0:0:0:0:
160,192,115335,1,2,0:0:0:0:
160,192,115438,2,0,P|204:196|240:180,2,67.5000025749208
188,108,116054,2,0,L|196:52,2,33.7500012874604,2|2|8,0:0|0:0|0:0,0:0:0:0:
296,144,116465,1,0,0:0:0:0:
368,56,116671,2,0,L|440:48,1,67.5000025749208
488,116,117082,6,0,P|476:168|468:268,1,135.000005149842
384,308,117698,2,0,P|396:248|352:188,1,135.000005149842,8|0,0:0|0:0,0:0:0:0:
316,260,118315,1,0,0:0:0:0:
252,212,118520,6,0,P|240:272|284:332,1,135.000005149842
316,260,119137,1,0,0:0:0:0:
200,368,119342,1,2,0:0:0:0:
200,368,119445,1,2,0:0:0:0:
200,368,119548,2,0,P|152:360|68:352,2,101.250003862381,8|0|0,0:0|0:0|0:0,0:0:0:0:
316,260,120369,6,0,L|308:316|304:344,1,67.5000025749208,2|0,0:0|0:0,0:0:0:0:
208,272,120780,2,0,L|216:216|220:188,1,67.5000025749208
284,136,121191,2,0,P|248:116|204:108,1,67.5000025749208,8|0,0:0|0:0,0:0:0:0:
144,160,121602,1,0,0:0:0:0:
72,40,121808,1,0,0:0:0:0:
72,40,121911,1,0,0:0:0:0:
72,40,122013,6,0,P|84:80|76:128,1,67.5000025749208,2|0,0:0|0:0,0:0:0:0:
137,227,122424,2,0,L|143:159,1,67.5000025749208
196,76,122835,2,0,P|232:72|264:64,1,67.5000025749208,8|0,0:0|0:0,0:0:0:0:
384,92,123246,1,0,0:0:0:0:
384,92,123452,1,0,0:0:0:0:
276,168,123657,6,0,B|328:160|328:160|388:172|388:172|456:160,1,180,4|0,0:0|0:0,0:0:0:0:
384,92,124274,2,0,P|356:160|448:256,1,180,4|0,0:0|0:0,0:0:0:0:
488,288,124890,1,4,0:0:0:0:
348,356,125096,1,4,0:0:0:0:
292,276,125301,5,0,0:0:0:0:
292,276,125404,1,0,0:0:0:0:
292,276,125506,1,8,0:0:0:0:
384,244,125712,1,8,0:0:0:0:
256,364,125917,1,0,0:0:0:0:
256,364,126020,1,0,0:0:0:0:
256,364,126123,2,0,L|156:356,1,90,0|8,0:0|0:0,0:0:0:0:
132,208,126534,1,0,0:0:0:0:
76,348,126739,5,4,0:0:0:0:
76,348,128589,6,0,P|120:364|232:292,1,180,4|8,0:0|0:0,0:0:0:0:
401,349,129205,1,2,0:0:0:0:
401,349,129308,1,2,0:0:0:0:
401,349,129411,2,0,L|312:356,1,90
136,268,129822,1,8,0:0:0:0:
136,268,130027,6,0,P|144:208|156:156,1,90,0|2,0:0|0:0,0:0:0:0:
256,116,130438,2,0,P|264:160|270:204,2,90,0|8|0,0:0|0:0|0:0,0:0:0:0:
228,80,130952,1,0,0:0:0:0:
228,80,131054,2,0,P|184:88|124:60,1,90,2|0,0:0|0:0,0:0:0:0:
8,172,131465,1,8,0:0:0:0:
96,152,131671,1,0,0:0:0:0:
164,212,131876,6,0,L|152:316,1,90
68,352,132287,2,0,L|57:262,1,90,8|0,0:0|0:0,0:0:0:0:
228,348,132698,2,0,P|268:352|328:356,1,90,2|0,0:0|0:0,0:0:0:0:
400,284,133109,1,8,0:0:0:0:
344,192,133315,1,0,0:0:0:0:
164,212,133520,5,2,0:0:0:0:
244,252,133726,1,0,0:0:0:0:
244,252,133931,1,8,0:0:0:0:
244,160,134137,1,2,0:0:0:0:
244,160,134239,1,2,0:0:0:0:
244,160,134342,2,0,P|236:104|232:16,1,135,2|0,0:0|0:0,0:0:0:0:
208,40,134753,2,0,L|96:32,1,90,8|0,0:0|0:0,0:0:0:0:
40,132,135164,6,0,L|152:124,1,90,2|0,0:0|0:0,0:0:0:0:
244,160,135575,1,8,0:0:0:0:
162,303,135780,2,0,P|151:259|160:216,1,90,2|0,0:0|0:0,0:0:0:0:
324,112,136191,2,0,P|334:155|326:199,1,90,0|8,0:0|0:0,0:0:0:0:
252,264,136602,1,0,0:0:0:0:
156,128,136808,5,2,0:0:0:0:
326,199,137013,1,0,0:0:0:0:
162,303,137219,2,0,L|66:295,1,90,8|0,0:0|0:0,0:0:0:0:
252,264,137630,2,0,L|293:351,1,90,2|0,0:0|0:0,0:0:0:0:
176,204,138041,2,0,P|180:156|188:116,1,90,8|0,0:0|0:0,0:0:0:0:
256,40,138452,5,2,0:0:0:0:
336,96,138657,1,0,0:0:0:0:
428,60,138863,1,8,0:0:0:0:
420,160,139068,2,0,P|448:208|384:328,1,180
300,300,139685,1,8,0:0:0:0:
300,300,139890,6,0,B|244:292|244:292|180:304|180:304|120:292,1,180
128,276,140404,1,8,0:0:0:0:
132,260,140506,1,8,0:0:0:0:
156,136,140712,1,0,0:0:0:0:
248,220,140917,1,0,0:0:0:0:
248,220,141123,1,0,0:0:0:0:
122,292,141328,6,0,L|8:284,1,101.250003862381,8|0,0:0|0:0,0:0:0:0:
22,200,141739,6,0,P|107:207|156:136,1,180,4|8,0:0|0:0,0:0:0:0:
82,38,142356,2,0,L|72:128,1,90,2|0,0:0|0:0,0:0:0:0:
248,220,142767,1,0,0:0:0:0:
248,220,142972,2,0,L|237:130,1,90,10|0,0:0|0:0,0:0:0:0:
184,284,143383,6,0,P|216:304|328:264,1,135,2|0,0:0|0:0,0:0:0:0:
324,268,143794,2,0,L|320:376,1,90,8|0,0:0|0:0,0:0:0:0:
248,220,144205,2,0,L|244:130,1,90,2|0,0:0|0:0,0:0:0:0:
428,232,144616,2,0,L|408:325,1,90,8|0,0:0|0:0,0:0:0:0:
244,308,145027,6,0,P|188:296|136:308,1,90,2|0,0:0|0:0,0:0:0:0:
76,344,145438,1,8,0:0:0:0:
32,264,145643,1,0,0:0:0:0:
132,112,145849,1,2,0:0:0:0:
108,216,146054,1,0,0:0:0:0:
248,184,146260,1,8,0:0:0:0:
44,152,146465,1,2,0:0:0:0:
44,152,146671,6,0,L|56:48,1,90
248,184,147082,2,0,L|236:288,1,90,8|0,0:0|0:0,0:0:0:0:
89,336,147493,2,0,P|74:272|108:216,1,135,2|0,0:0|0:0,0:0:0:0:
132,208,147904,2,0,L|248:224,1,90,8|0,0:0|0:0,0:0:0:0:
296,284,148315,6,0,P|356:276|480:268,1,180,2|8,0:0|0:0,0:0:0:0:
392,100,148931,1,2,0:0:0:0:
392,100,149034,1,2,0:0:0:0:
392,100,149137,2,0,L|376:216,1,90,2|0,0:0|0:0,0:0:0:0:
460,48,149548,2,0,P|424:16|368:20,1,90,8|0,0:0|0:0,0:0:0:0:
188,76,149959,5,2,0:0:0:0:
304,100,150164,1,0,0:0:0:0:
188,76,150370,1,8,0:0:0:0:
220,188,150575,1,0,0:0:0:0:
220,188,150678,1,0,0:0:0:0:
220,188,150780,2,0,P|228:248|232:300,1,90,2|0,0:0|0:0,0:0:0:0:
105,341,151191,2,0,P|109:296|116:252,1,90,8|0,0:0|0:0,0:0:0:0:
216,104,151602,6,0,P|280:128|264:256,1,180,0|8,0:0|0:0,0:0:0:0:
160,264,152219,2,0,L|52:252,1,90
220,188,152630,2,0,L|328:200,2,90,0|8|0,0:0|0:0|0:0,0:0:0:0:
200,348,153246,1,0,0:0:0:0:
200,348,154479,5,8,0:0:0:0:
368,320,154890,1,4,0:0:0:0:
256,192,164753,12,4,167630,0:3:0:0:
120,156,168041,6,0,P|152:160|260:120,1,135.000005149842,4|0,0:0|0:0,0:0:0:0:
328,40,168657,1,0,0:0:0:0:
328,40,168760,1,0,0:0:0:0:
328,40,168863,2,0,L|320:128,1,67.5000025749208,8|0,0:0|0:0,0:0:0:0:
360,184,169274,1,0,0:0:0:0:
436,228,169479,1,0,0:0:0:0:
436,228,169582,1,0,0:0:0:0:
436,228,169685,6,0,P|408:260|316:260,1,135.000005149842,4|0,0:3|0:0,0:0:0:0:
240,224,170301,1,0,0:0:0:0:
240,224,170404,1,0,0:0:0:0:
240,224,170506,2,0,L|252:336,2,101.250003862381,8|4|4,0:0|0:3|0:3,0:0:0:0:
172,168,171328,6,0,P|136:180|56:120,1,135.000005149842,4|0,0:3|0:0,0:0:0:0:
136,88,171945,1,0,0:0:0:0:
136,88,172048,1,0,0:0:0:0:
136,88,172150,1,8,0:0:0:0:
240,224,172356,2,0,L|232:304,2,67.5000025749208,0|0|4,0:0|0:0|0:3,0:0:0:0:
304,164,172972,6,0,P|340:152|420:212,1,135.000005149842,4|0,0:3|0:0,0:0:0:0:
364,272,173589,1,4,0:3:0:0:
364,272,173691,1,0,0:0:0:0:
364,272,173794,2,0,L|376:360,1,67.5000025749208,8|4,0:0|0:3,0:0:0:0:
268,300,174205,2,0,L|277:233,1,67.5000025749208
180,272,174616,6,0,L|36:256,1,135.000005149842,4|0,0:3|0:0,0:0:0:0:
132,184,175233,1,0,0:0:0:0:
132,184,175335,1,0,0:0:0:0:
132,184,175438,2,0,P|164:172|216:176,1,67.5000025749208,8|0,0:0|0:0,0:0:0:0:
264,264,175849,2,0,P|258:297|228:340,1,67.5000025749208
312,176,176260,6,0,P|292:128|296:40,1,135.000005149842,4|0,0:3|0:0,0:0:0:0:
400,160,176876,1,0,0:0:0:0:
400,160,176979,1,0,0:0:0:0:
400,160,177082,2,0,L|388:272,2,101.250003862381,8|4|4,0:0|0:3|0:3,0:0:0:0:
284,144,177904,6,0,P|236:152|120:152,1,135.000005149842,4|0,0:3|0:0,0:0:0:0:
32,228,178520,1,0,0:0:0:0:
32,228,178623,1,0,0:0:0:0:
32,228,178726,2,0,P|68:216|104:216,1,67.5000025749208,8|0,0:0|0:0,0:0:0:0:
172,260,179137,2,0,L|184:336,1,67.5000025749208
252,224,179548,6,0,L|262:157,1,67.5000025749208
204,96,179959,1,0,0:0:0:0:
204,96,180164,1,0,0:0:0:0:
336,204,180370,2,0,L|424:192,1,72,8|0,0:0|0:0,0:0:0:0:
436,104,180780,2,0,L|348:116,1,72,8|0,0:0|0:0,0:0:0:0:
184,168,181191,6,0,P|152:148|168:32,1,161.999995056153,4|0,0:0|0:0,0:0:0:0:
260,152,181808,2,0,L|248:324,1,161.999995056153,8|0,0:0|0:0,0:0:0:0:
176,368,182424,1,0,0:0:0:0:
96,328,182630,2,0,L|32:340,2,40.4999987640381,0|0|2,0:0|0:0|0:0,0:0:0:0:
416,328,183246,5,0,0:0:0:0:
344,276,183452,1,0,0:0:0:0:
344,276,183554,1,0,0:0:0:0:
344,276,183657,2,0,L|352:176,1,80.9999975280763,8|0,0:0|0:0,0:0:0:0:
240,128,184068,2,0,P|242:173|248:228,1,80.9999975280763
245,208,184376,1,0,0:0:0:0:
245,208,184479,6,0,P|184:200|80:192,1,161.999995056153
72,312,185096,2,0,P|133:320|237:328,1,161.999995056153,8|0,0:0|0:0,0:0:0:0:
308,280,185712,1,0,0:0:0:0:
388,320,185917,1,0,0:0:0:0:
388,320,186020,1,0,0:0:0:0:
388,320,186123,1,2,0:0:0:0:
388,64,186534,5,0,0:0:0:0:
456,120,186739,2,0,L|444:208,2,80.9999975280763,0|8|0,0:0|0:0|0:0,0:0:0:0:
344,148,187356,2,0,P|292:156|236:160,1,80.9999975280763
180,192,187767,6,0,P|148:164|180:36,1,161.999995056153
263,158,188383,1,0,0:0:0:0:
263,158,188589,2,0,P|256:232|228:336,1,161.999995056153,8|0,0:0|0:0,0:0:0:0:
340,360,189205,1,0,0:0:0:0:
340,360,189308,1,0,0:0:0:0:
340,360,189411,1,2,0:0:0:0:
340,360,189822,5,0,0:0:0:0:
404,300,190027,2,0,L|400:244,2,40.4999987640381,0|0|8,0:0|0:0|0:0,0:0:0:0:
480,344,190438,1,0,0:0:0:0:
508,260,190643,2,0,P|500:204|488:160,1,80.9999975280763
416,140,191054,6,0,P|368:136|248:124,1,161.999995056153
200,52,191671,1,0,0:0:0:0:
200,52,191774,1,0,0:0:0:0:
200,52,191876,2,0,P|168:92|208:204,1,161.999995056153,8|0,0:0|0:0,0:0:0:0:
260,244,192493,1,0,0:0:0:0:
260,244,192596,1,0,0:0:0:0:
260,244,192698,6,0,L|340:236,1,80.9999975280763
416,248,193109,2,0,L|336:256,1,80.9999975280763
248,328,193520,1,8,0:0:0:0:
185,194,193726,1,0,0:0:0:0:
136,356,193931,1,8,0:0:0:0:
324,300,194137,1,0,0:0:0:0:
324,300,194240,1,0,0:0:0:0:
324,300,194342,6,0,P|368:288|464:352,1,161.999995056153,4|0,0:0|0:0,0:0:0:0:
416,248,194959,2,0,P|404:200|392:88,1,161.999995056153,8|0,0:0|0:0,0:0:0:0:
316,44,195575,1,0,0:0:0:0:
260,112,195780,2,0,L|216:108,2,40.4999987640381,0|0|2,0:0|0:0|0:0,0:0:0:0:
236,288,196397,5,0,0:0:0:0:
160,244,196602,1,0,0:0:0:0:
160,244,196705,1,0,0:0:0:0:
160,244,196808,2,0,P|148:284|156:328,1,80.9999975280763,8|0,0:0|0:0,0:0:0:0:
240,200,197219,2,0,P|245:160|233:121,1,80.9999975280763
208,88,197527,1,0,0:0:0:0:
208,88,197630,6,0,B|276:112|300:88|328:60|392:104,1,161.999995056153
452,136,198246,1,8,0:0:0:0:
452,136,198349,1,0,0:0:0:0:
452,136,198452,2,0,P|464:88|452:44,1,80.9999975280763
328,164,198863,2,0,P|322:203|334:242,1,80.9999975280763
396,296,199274,6,0,P|304:284|216:280,1,161.999995056153
136,348,199890,1,0,0:0:0:0:
136,348,199993,1,0,0:0:0:0:
136,348,200096,2,0,P|148:300|136:248,1,80.9999975280763,8|0,0:0|0:0,0:0:0:0:
84,192,200506,2,0,L|-4:184,1,80.9999975280763
184,168,200917,6,0,P|232:176|344:128,1,161.999995056153,4|0,0:0|0:0,0:0:0:0:
380,224,201534,1,0,0:0:0:0:
380,224,201637,1,0,0:0:0:0:
380,224,201739,2,0,L|368:320,1,80.9999975280763,8|0,0:0|0:0,0:0:0:0:
456,368,202150,6,0,L|476:207,1,161.999995056153,12|0,0:0|0:0,0:0:0:0:
412,136,202767,1,0,0:0:0:0:
504,112,202972,1,0,0:0:0:0:
336,80,203178,1,0,0:0:0:0:
336,80,203280,1,0,0:0:0:0:
336,80,203383,2,0,P|296:88|220:100,1,80.9999975280763,8|0,0:0|0:0,0:0:0:0:
144,165,203794,2,0,P|184:172|224:180,1,80.9999975280763
336,236,204205,6,0,P|272:244|164:268,1,161.999995056153,4|0,0:0|0:0,0:0:0:0:
92,316,204822,1,0,0:0:0:0:
92,316,204924,1,0,0:0:0:0:
92,316,205027,2,0,P|76:264|60:224,1,80.9999975280763,8|0,0:0|0:0,0:0:0:0:
143,165,205438,6,0,P|184:172|264:88,1,161.999995056153,12|0,0:0|0:0,0:0:0:0:
348,140,206054,2,0,L|440:132,1,80.9999975280763
480,216,206465,1,0,0:0:0:0:
480,216,206568,1,0,0:0:0:0:
480,216,206671,2,0,L|399:223,1,80.9999975280763,8|0,0:0|0:0,0:0:0:0:
324,284,207082,1,0,0:0:0:0:
408,332,207287,1,0,0:0:0:0:
248,344,207493,6,0,P|200:340|80:336,1,161.999995056153,4|0,0:0|0:0,0:0:0:0:
136,200,208109,1,0,0:0:0:0:
136,200,208212,1,0,0:0:0:0:
136,200,208315,2,0,P|184:204|304:208,1,161.999995056153,8|0,0:0|0:0,0:0:0:0:
388,168,208931,2,0,L|384:112,2,40.4999987640381,0|0|2,0:0|0:0|0:0,0:0:0:0:
256,312,209548,6,0,P|264:260|268:204,1,80.9999975280763
172,140,209959,2,0,P|176:180|182:220,1,80.9999975280763,8|0,0:0|0:0,0:0:0:0:
336,352,210370,2,0,P|344:300|348:244,1,80.9999975280763
292,128,210780,5,4,0:0:0:0:
256,192,210883,12,0,214068,0:0:0:0:
256,192,223520,12,0,225164,0:0:0:0:
124,108,225370,6,0,L|224:100,1,80.9999975280763
284,160,225780,1,0,0:0:0:0:
284,160,225883,1,0,0:0:0:0:
284,160,225986,1,0,0:0:0:0:
212,228,226191,2,0,L|220:328,1,80.9999975280763
220,332,226808,6,0,L|228:208,1,101.250003862381,8|0,0:0|0:0,0:0:0:0:
284,160,227219,6,0,P|316:144|420:224,1,180,4|8,0:0|0:0,0:0:0:0:
496,88,227835,1,2,0:0:0:0:
496,88,227938,1,2,0:0:0:0:
496,88,228041,2,0,L|396:72,1,90
300,72,228452,1,8,0:0:0:0:
336,232,228657,6,0,P|344:284|248:344,1,180
155,349,229274,2,0,L|144:260,1,90,8|0,0:0|0:0,0:0:0:0:
40,212,229685,2,0,L|28:308,1,90,2|0,0:0|0:0,0:0:0:0:
132,144,230096,2,0,P|176:128|228:128,1,90,8|0,0:0|0:0,0:0:0:0:
404,128,230506,5,0,0:0:0:0:
312,160,230712,1,0,0:0:0:0:
212,48,230917,1,8,0:0:0:0:
332,184,231123,1,0,0:0:0:0:
176,284,231328,2,0,P|180:224|188:172,1,90,2|0,0:0|0:0,0:0:0:0:
416,244,231739,1,8,0:0:0:0:
404,128,231945,1,2,0:0:0:0:
496,280,232150,6,0,P|427:332|347:300,1,180,0|8,0:0|0:0,0:0:0:0:
191,183,232767,1,2,0:0:0:0:
191,183,232870,1,2,0:0:0:0:
191,183,232972,2,0,P|235:151|335:179,1,135
332,176,233383,2,0,L|324:276,1,90,8|0,0:0|0:0,0:0:0:0:
204,364,233794,6,0,L|196:274,1,90,2|0,0:0|0:0,0:0:0:0:
191,183,234205,1,8,0:0:0:0:
20,344,234411,2,0,L|109:337,1,90,2|0,0:0|0:0,0:0:0:0:
191,183,234822,1,0,0:0:0:0:
96,120,235027,2,0,P|44:112|4:128,1,90,8|0,0:0|0:0,0:0:0:0:
152,272,235438,6,0,P|204:280|244:264,1,90,2|0,0:0|0:0,0:0:0:0:
272,92,235849,1,8,0:0:0:0:
191,183,236054,1,2,0:0:0:0:
191,183,236157,1,2,0:0:0:0:
191,183,236260,2,0,L|212:336,1,135
216,344,236671,2,0,P|264:336|312:336,1,90,8|0,0:0|0:0,0:0:0:0:
380,260,237082,5,4,0:0:0:0:
472,316,237287,1,0,0:0:0:0:
380,372,237493,1,8,0:0:0:0:
280,236,237698,2,0,P|268:176|336:76,1,180,4|0,0:0|0:0,0:0:0:0:
416,136,238315,1,8,0:0:0:0:
288,256,238520,2,0,L|192:248,1,90
288,256,239959,5,10,0:0:0:0:
292,272,240061,1,2,0:0:0:0:
296,288,240164,1,2,0:0:0:0:
300,304,240267,1,2,0:0:0:0:
304,320,240370,6,0,P|260:348|152:296,1,180,4|8,0:0|0:0,0:0:0:0:
272,164,240986,2,0,L|368:156,1,90
236,268,241397,1,0,0:0:0:0:
168,208,241602,2,0,L|176:112,1,90,8|0,0:0|0:0,0:0:0:0:
264,56,242013,5,0,0:0:0:0:
420,100,242219,1,0,0:0:0:0:
304,212,242424,1,8,0:0:0:0:
328,120,242630,1,0,0:0:0:0:
328,120,242733,1,0,0:0:0:0:
328,120,242835,1,0,0:0:0:0:
408,220,243041,2,0,L|392:316,1,90,0|8,0:0|0:0,0:0:0:0:
296,352,243452,1,0,0:0:0:0:
212,284,243657,6,0,P|164:272|56:344,1,180,4|8,0:0|0:0,0:0:0:0:
16,144,244274,1,2,0:0:0:0:
32,164,244376,1,2,0:0:0:0:
56,180,244479,1,2,0:0:0:0:
80,188,244582,1,2,0:0:0:0:
108,192,244685,1,2,0:0:0:0:
200,136,244890,1,8,0:0:0:0:
288,200,245096,6,0,P|308:148|248:36,1,180,4|8,0:0|0:0,0:0:0:0:
212,284,245712,2,0,L|316:296,1,90,8|2,0:0|0:0,0:0:0:0:
340,272,246020,1,2,0:0:0:0:
376,300,246123,2,0,L|360:364,1,45,2|2,0:0|0:0,0:0:0:0:
444,260,246328,2,0,L|433:216,1,45,2|2,0:0|0:0,0:0:0:0:
368,168,246534,2,0,L|376:76,1,90,8|4,0:0|0:0,0:0:0:0:
256,192,246842,12,0,250027,0:0:0:0:
