osu file format v14

[General]
AudioFilename: SHIORI.mp3
AudioLeadIn: 0
PreviewTime: 62134
Countdown: 0
SampleSet: Soft
StackLeniency: 0.3
Mode: 0
LetterboxInBreaks: 0
WidescreenStoryboard: 0

[Editor]
DistanceSpacing: 1.2
BeatDivisor: 4
GridSize: 16
TimelineZoom: 2

[Metadata]
Title:SHIORI -TV size mix-
TitleUnicode:SHIORI -TV size mix-
Artist:ClariS
ArtistUnicode:ClariS
Creator:kunka
Version:Mochi's Insane
Source:終物語
Tags:ending owarimonogatari Akitoshi Ryuusei Aika rsak Momochikun HabiHolic kunkakunkakunkakunka
BeatmapID:1396695
BeatmapSetID:656098

[Difficulty]
HPDrainRate:6.7
CircleSize:4
OverallDifficulty:6.7
ApproachRate:8.3
SliderMultiplier:1.5
SliderTickRate:1

[Events]
//Background and Video events
0,0,"BG.jpg",0,0
Video,0,"SHIORI.avi"
//Break Periods
//Storyboard Layer 0 (Background)
//Storyboard Layer 1 (Fail)
//Storyboard Layer 2 (Pass)
//Storyboard Layer 3 (Foreground)
//Storyboard Sound Samples

[TimingPoints]
430,340.909090909091,4,2,1,40,1,0
430,-117.647058823529,4,2,1,40,0,0
5884,-111.111111111111,4,2,2,50,0,0
11339,-100,4,2,2,60,0,0
14066,-100,4,2,2,70,0,0
16793,-100,4,2,2,60,0,0
38611,-111.111111111111,4,2,2,60,0,0
54975,-125,4,2,1,40,0,0
55657,-125,4,2,1,5,0,0
56339,-125,4,2,1,40,0,0
57702,-100,4,2,2,60,0,0
61623,-200,4,2,2,60,0,0
62305,-100,4,2,1,20,0,0
63157,-100,4,2,2,70,0,1
78157,-100,4,2,1,70,0,1
78498,-100,4,2,3,70,0,1
78839,-100,4,2,1,70,0,1
79180,-100,4,2,3,70,0,1
79520,-100,4,2,1,70,0,1
79691,-100,4,2,2,70,0,1
82248,-100,4,2,1,70,0,1
82589,-100,4,2,3,70,0,1
82930,-100,4,2,1,70,0,1
83270,-100,4,2,3,70,0,1
83611,-100,4,2,1,70,0,1
83952,-100,4,2,3,70,0,1
84293,-100,4,2,1,70,0,1
84378,-100,4,2,2,70,0,1
84975,-100,4,2,1,70,0,1
85145,-100,4,2,3,70,0,1
86339,-111.111111111111,4,2,3,50,0,0
87787,-111.111111111111,4,2,3,25,0,0
88981,-111.111111111111,4,2,1,5,0,0

[Colours]
Combo1 : 255,128,255
Combo2 : 128,255,128
Combo3 : 0,255,255
Combo4 : 255,128,128
Combo5 : 255,255,128

[HitObjects]
460,207,430,5,2,0:0:0:0:
388,165,600,1,0,0:0:0:0:
306,148,770,1,0,0:0:0:0:
224,161,941,1,0,0:0:0:0:
224,161,1111,2,0,P|203:192|199:221,2,63.7500012159348,2|0|0,0:0|0:0|0:0,0:0:0:0:
251,80,1623,1,0,0:0:0:0:
149,108,1793,6,0,P|119:103|77:83,1,63.7500012159348,2|0,0:0|0:0,0:0:0:0:
80,182,2134,1,0,0:0:0:0:
199,217,2305,2,0,P|269:185|336:178,1,127.50000243187
390,131,2816,2,0,P|430:143|452:160,1,63.7500012159348
484,255,3157,5,2,0:0:0:0:
484,255,3327,1,0,0:0:0:0:
387,300,3498,1,0,0:0:0:0:
387,300,3668,1,0,0:0:0:0:
302,263,3839,2,0,P|284:289|277:320,1,63.7500012159348,2|0,0:0|0:0,0:0:0:0:
244,195,4180,2,0,P|212:201|185:218,1,63.7500012159348,0|0,0:0|0:0,0:0:0:0:
280,110,4520,6,0,P|344:89|422:70,1,127.50000243187,2|0,0:0|0:0,0:0:0:0:
402,74,5032,2,0,P|358:120|354:181,1,127.50000243187
319,289,5543,2,0,P|308:255|280:229,1,63.7500012159348,0|0,0:0|0:0,0:0:0:0:
222,148,5884,5,6,0:0:0:0:
222,148,6566,1,0,0:0:0:0:
222,148,7248,6,0,P|175:159|108:106,1,134.999995880127,6|0,0:0|0:0,0:0:0:0:
196,40,7759,2,0,L|338:68,1,134.999995880127,8|2,0:0|0:0,0:0:0:0:
426,221,8270,6,0,L|293:194,1,134.999995880127,8|6,0:3|0:0,0:0:0:0:
293,194,9293,1,0,0:0:0:0:
293,194,9975,6,0,L|308:260,1,67.4999979400635,6|0,0:0|0:0,0:0:0:0:
253,328,10316,1,0,0:0:0:0:
193,176,10486,2,0,B|178:93|178:93|210:45,1,134.999995880127,8|2,0:3|0:0,0:0:0:0:
292,71,10998,1,8,0:3:0:0:
292,71,11339,5,6,0:0:0:0:
292,71,11680,1,8,0:0:0:0:
370,135,11850,1,8,0:0:0:0:
281,195,12020,1,8,0:0:0:0:
357,26,12191,5,8,0:0:0:0:
444,97,12361,1,8,0:0:0:0:
236,165,12532,1,8,0:0:0:0:
256,16,12702,5,8,0:0:0:0:
256,16,13725,1,0,0:0:0:0:
262,41,13810,1,0,0:0:0:0:
268,67,13895,1,0,0:0:0:0:
274,93,13980,1,0,0:0:0:0:
281,118,14066,6,0,L|260:205,1,75,12|2,0:0|0:0,0:0:0:0:
194,249,14407,1,2,0:0:0:0:
354,334,14577,2,0,L|375:247,1,75,12|2,0:0|0:0,0:0:0:0:
441,203,14918,1,2,0:0:0:0:
281,281,15089,2,0,L|198:306,1,75,12|2,0:0|0:0,0:0:0:0:
117,259,15430,5,2,0:0:0:0:
173,106,15600,1,12,0:0:0:0:
294,201,15770,1,2,0:0:0:0:
92,171,15941,1,2,0:0:0:0:
264,127,16111,2,0,P|274:89|260:37,1,75,12|8,0:0|0:0,0:0:0:0:
192,28,16367,1,2,0:0:0:0:
192,28,16452,2,0,L|148:44,3,37.5,8|2|2|2,0:0|0:0|0:0|0:0,0:0:0:0:
80,75,16793,6,0,P|38:122|45:217,1,150,6|2,0:0|0:0,0:0:0:0:
115,274,17305,1,0,0:0:0:0:
216,196,17475,2,0,L|135:176,1,75,2|0,0:0|0:0,0:0:0:0:
273,302,17816,2,0,L|345:284,1,75,2|8,0:0|0:0,0:0:0:0:
451,160,18157,6,0,P|391:172|311:107,1,150,2|2,0:0|0:0,0:0:0:0:
402,88,18668,1,0,0:0:0:0:
260,188,18839,2,0,P|240:152|244:107,1,75,2|4,0:0|0:3,0:0:0:0:
382,19,19180,2,0,P|402:55|398:100,1,75,2|2,0:0|0:0,0:0:0:0:
260,188,19520,6,0,L|109:154,1,150,2|2,0:0|0:0,0:0:0:0:
6,183,20032,1,0,0:0:0:0:
100,83,20202,2,0,P|114:117|113:154,1,75,2|0,0:0|0:0,0:0:0:0:
46,282,20543,2,0,P|86:297|128:294,1,75,2|8,0:0|0:0,0:0:0:0:
318,261,20884,6,0,P|258:219|184:233,1,150,2|2,0:0|0:0,0:0:0:0:
239,304,21395,1,0,0:0:0:0:
276,179,21566,2,0,P|273:142|252:111,1,75,2|8,0:0|2:3,0:0:0:0:
239,304,21907,1,2,0:0:0:0:
357,163,22077,1,2,0:0:0:0:
186,231,22248,6,0,B|136:242|98:213|98:213|65:220|51:250,2,150,2|2|2,0:0|0:0|0:0,0:0:0:0:
239,304,23100,1,0,0:0:0:0:
337,159,23270,2,0,L|253:183,1,75,2|8,0:0|0:0,0:0:0:0:
373,246,23611,6,0,P|423:213|421:122,2,150,2|2|2,0:0|0:0|0:0,0:0:0:0:
302,189,24464,1,4,0:3:0:0:
213,204,24634,1,2,0:0:0:0:
280,308,24805,1,2,0:0:0:0:
153,274,24975,6,0,P|89:302|2:295,2,150,2|2|2,0:0|0:0|0:0,0:0:0:0:
249,216,25827,1,0,0:0:0:0:
245,335,25998,1,2,0:0:0:0:
153,274,26168,1,8,0:0:0:0:
249,216,26339,6,0,L|326:192,1,75,2|0,0:0|0:0,0:0:0:0:
205,112,26680,2,0,L|128:88,1,75,2|0,0:0|0:0,0:0:0:0:
75,193,27020,2,0,L|3:215,1,75,2|8,0:0|0:0,0:0:0:0:
217,309,27361,2,0,L|294:285,1,75,2|2,0:0|0:0,0:0:0:0:
366,324,27617,5,2,0:0:0:0:
366,324,27702,2,0,B|397:290|391:249|391:249|426:225|425:185,1,150,6|2,0:0|0:0,0:0:0:0:
396,104,28214,1,0,0:0:0:0:
310,132,28384,2,0,P|273:150|235:146,1,75,2|0,0:0|0:0,0:0:0:0:
179,27,28725,2,0,P|216:25|248:42,1,75,2|8,0:0|0:0,0:0:0:0:
266,224,29066,6,0,P|222:230|156:155,1,150,2|2,0:0|0:0,0:0:0:0:
240,147,29577,1,0,0:3:0:0:
156,158,29748,2,0,L|127:227,1,75,2|4,0:0|0:3,0:0:0:0:
150,66,30089,2,0,L|75:94,1,75,2|2,0:0|0:0,0:0:0:0:
50,258,30430,6,0,B|111:289|146:220|214:263,1,150,2|2,0:0|0:0,0:0:0:0:
343,322,30941,2,0,P|309:326|271:307,1,75,0|2,0:0|0:0,0:0:0:0:
260,195,31282,1,0,0:0:0:0:
260,195,31452,2,0,L|242:113,1,75,2|8,0:0|0:0,0:0:0:0:
370,72,31793,6,0,P|370:114|350:146,1,75,2|0,0:0|0:0,0:0:0:0:
260,195,32134,2,0,P|190:171|114:178,1,150,2|2,0:0|0:0,0:0:0:0:
37,229,32645,2,0,P|25:267|26:309,1,75,4|2,0:3|0:0,0:0:0:0:
102,365,32986,1,0,0:0:0:0:
223,313,33157,6,0,P|272:329|346:270,1,150,2|2,0:0|0:0,0:0:0:0:
437,239,33668,1,0,0:0:0:0:
307,188,33839,2,0,L|327:97,1,75,2|0,0:0|0:0,0:0:0:0:
437,239,34180,2,0,L|420:312,1,75,2|8,0:0|0:0,0:0:0:0:
256,272,34520,6,0,P|200:284|111:244,1,150,2|0,0:0|0:0,0:0:0:0:
205,155,35032,1,0,0:0:0:0:
317,214,35202,2,0,P|368:198|405:186,1,75,2|8,0:0|0:0,0:0:0:0:
259,302,35543,2,0,L|223:313|187:324,1,75,2|2,0:0|0:0,0:0:0:0:
77,216,35884,6,0,P|148:193|220:170,1,150,4|2,0:0|0:0,0:0:0:0:
339,203,36395,1,0,0:0:0:0:
220,170,36566,1,2,0:0:0:0:
340,97,36736,1,0,0:0:0:0:
263,252,36907,1,2,0:0:0:0:
263,252,37077,1,8,0:0:0:0:
300,81,37248,6,0,L|276:4,1,75,6|8,0:0|0:0,0:0:0:0:
437,153,37589,2,0,L|414:224,1,75,2|2,0:0|0:0,0:0:0:0:
317,177,37930,1,2,0:0:0:0:
455,54,38100,1,8,2:3:0:0:
300,81,38270,1,2,0:0:0:0:
414,224,38441,5,2,0:0:0:0:
414,224,38526,1,0,0:0:0:0:
414,224,38611,2,0,P|370:277|380:362,1,134.999995880127,6|0,0:0|0:0,0:0:0:0:
263,277,39123,2,0,L|128:311,1,134.999995880127,2|0,0:0|0:0,0:0:0:0:
132,309,39634,2,0,P|148:277|138:227,1,67.4999979400635,8|0,0:0|0:0,0:0:0:0:
68,117,39975,6,0,P|122:162|194:161,1,134.999995880127,2|0,0:0|0:0,0:0:0:0:
353,28,40486,2,0,P|285:57|251:120,1,134.999995880127,2|8,0:0|0:0,0:0:0:0:
254,107,40998,2,0,P|231:67|229:30,1,67.4999979400635,2|0,0:0|0:0,0:0:0:0:
304,194,41339,6,0,P|369:177|453:153,1,134.999995880127,2|0,0:0|0:0,0:0:0:0:
220,257,41850,2,0,P|286:273|351:288,1,134.999995880127,2|0,0:0|0:0,0:0:0:0:
132,230,42361,2,0,P|141:269|149:302,1,67.4999979400635,2|0,0:0|0:0,0:0:0:0:
115,144,42702,6,0,P|159:101|241:103,1,134.999995880127,2|0,0:0|0:0,0:0:0:0:
297,159,43214,1,2,0:0:0:0:
194,16,43384,2,0,P|255:21|322:80,1,134.999995880127,2|8,0:0|0:0,0:0:0:0:
386,131,43895,1,0,0:0:0:0:
302,213,44066,6,0,B|384:236|384:236|439:200,1,134.999995880127,6|0,0:0|0:0,0:0:0:0:
453,296,44577,1,2,0:0:0:0:
294,330,44748,2,0,L|361:314,1,67.4999979400635,0|0,0:0|0:0,0:0:0:0:
236,197,45089,2,0,L|301:212,1,67.4999979400635,2|0,0:0|0:0,0:0:0:0:
209,269,45430,6,0,L|174:130,2,134.999995880127,2|0|0,0:0|0:0|0:0,0:0:0:0:
265,117,46282,1,8,0:0:0:0:
107,58,46452,2,0,L|74:188,1,134.999995880127,2|2,0:0|0:0,0:0:0:0:
74,188,47134,6,0,P|128:155|203:169,1,134.999995880127,0|0,0:0|0:0,0:0:0:0:
259,223,47645,1,0,0:0:0:0:
156,293,47816,2,0,P|140:265|142:228,1,67.4999979400635,2|0,0:0|0:0,0:0:0:0:
220,339,48157,6,0,L|293:320,1,67.4999979400635,2|0,0:0|0:0,0:0:0:0:
116,368,48498,2,0,P|81:354|46:354,1,67.4999979400635,0|2,0:0|0:0,0:0:0:0:
217,247,48839,2,0,P|233:219|230:181,1,67.4999979400635,2|0,0:0|0:0,0:0:0:0:
94,118,49180,2,0,L|159:135,1,67.4999979400635,8|0,0:0|0:0,0:0:0:0:
311,216,49520,6,0,L|451:182,1,134.999995880127,6|0,0:0|0:0,0:0:0:0:
504,47,50032,2,0,L|372:78,1,134.999995880127,2|0,0:0|0:0,0:0:0:0:
372,78,50543,2,0,P|345:109|338:156,1,67.4999979400635,8|0,0:0|0:0,0:0:0:0:
298,292,50884,6,0,P|290:238|227:175,1,134.999995880127,2|0,0:0|0:0,0:0:0:0:
93,119,51395,2,0,P|101:173|164:236,1,134.999995880127,2|8,0:0|0:0,0:0:0:0:
298,128,51907,2,0,P|265:109|219:106,1,67.4999979400635,2|0,0:0|0:0,0:0:0:0:
366,214,52248,6,0,P|424:244|501:236,1,134.999995880127,2|0,0:0|0:0,0:0:0:0:
409,118,52759,1,0,0:0:0:0:
277,205,52930,2,0,L|290:268,2,44.999998626709,8|8|8,0:0|0:0|2:3,0:0:0:0:
195,153,53270,2,0,L|204:108,2,44.999998626709,2|2|2,0:0|0:0|0:0,0:0:0:0:
175,244,53611,5,6,0:0:0:0:
175,244,54293,1,6,0:0:0:0:
175,244,54975,1,2,0:0:0:0:
175,244,56339,5,2,0:0:0:0:
175,244,57702,5,8,0:0:0:0:
270,190,57873,1,8,0:0:0:0:
270,190,58043,1,8,0:0:0:0:
165,156,58214,5,8,0:0:0:0:
295,284,58384,1,8,0:0:0:0:
295,284,58555,1,8,0:0:0:0:
187,330,58725,5,8,0:0:0:0:
352,220,58895,1,8,0:0:0:0:
352,220,59066,1,8,0:0:0:0:
317,106,59236,5,8,0:0:0:0:
218,70,59407,2,0,P|189:102|183:134,1,75,8|8,0:0|0:0,0:0:0:0:
347,261,59748,2,0,P|312:236|279:228,1,75,8|8,0:0|0:0,0:0:0:0:
67,300,60089,2,0,P|116:282|136:256,1,75,8|8,0:0|0:0,0:0:0:0:
218,70,60430,6,0,L|147:99,1,75,8|0,1:2|0:0,0:0:0:0:
83,160,60770,1,2,0:0:0:0:
298,218,60941,2,0,L|351:274,1,75,8|2,1:2|0:0,0:0:0:0:
410,339,61282,1,0,1:0:0:0:
233,299,61452,1,0,1:0:0:0:
370,150,61623,5,8,0:0:0:0:
370,150,61708,1,2,0:0:0:0:
370,150,61793,2,0,P|376:93|330:46,1,112.5,4|0,0:0|0:0,0:0:0:0:
260,72,63157,6,0,P|322:125|417:107,1,150,6|8,0:0|0:0,0:0:0:0:
457,180,63668,1,0,0:0:0:0:
354,244,63839,2,0,P|314:231|272:223,1,75,2|2,0:0|0:0,0:0:0:0:
188,155,64180,2,0,P|152:166|115:174,1,75,8|0,0:0|0:0,0:0:0:0:
52,268,64520,5,2,0:0:0:0:
148,311,64691,1,2,0:0:0:0:
52,268,64861,1,8,0:0:0:0:
115,173,65032,2,0,B|131:110|131:110|158:90|158:90|175:34,1,150,0|2,0:0|0:0,0:0:0:0:
256,96,65543,2,0,P|300:107|342:113,1,75,8|0,0:0|0:0,0:0:0:0:
429,235,65884,6,0,B|371:225|324:253|324:253|287:238|271:203,1,150,2|8,0:0|0:0,0:0:0:0:
203,173,66395,1,0,0:0:0:0:
233,316,66566,1,2,0:0:0:0:
115,245,66736,1,2,0:0:0:0:
307,158,66907,2,0,L|287:247,1,75,8|0,0:0|0:0,0:0:0:0:
178,74,67248,5,2,0:0:0:0:
307,158,67418,1,2,0:0:0:0:
182,265,67589,2,0,P|143:264|107:233,1,75,8|0,0:0|0:0,0:0:0:0:
114,244,67844,1,0,0:0:0:0:
114,244,67930,1,2,0:0:0:0:
68,149,68100,1,2,0:0:0:0:
200,59,68270,2,0,L|290:84,1,75,8|0,0:0|0:0,0:0:0:0:
357,219,68611,6,0,L|212:178,2,150,6|8|2,0:0|0:0|0:0,0:0:0:0:
496,188,69464,2,0,P|505:235|502:281,1,75,2|8,0:0|0:0,0:0:0:0:
427,341,69805,1,0,0:0:0:0:
357,219,69975,6,0,P|342:145|346:70,1,150,4|8,0:0|0:0,0:0:0:0:
429,106,70486,1,0,0:0:0:0:
260,34,70657,2,0,P|216:25|156:37,1,75,2|2,0:0|0:0,0:0:0:0:
35,117,70998,2,0,P|71:125|108:123,1,75
191,167,71339,6,0,L|231:251,1,75,6|2,0:0|0:0,0:0:0:0:
377,268,71680,2,0,L|291:294,1,75,8|0,0:0|0:0,0:0:0:0:
133,228,72020,2,0,L|173:312,1,75,2|2,0:0|0:0,0:0:0:0:
319,384,72361,2,0,L|247:362,1,75,8|2,0:0|0:0,0:0:0:0:
256,192,72702,6,0,P|293:172|327:171,1,75,12|2,0:0|0:0,0:0:0:0:
161,220,73043,2,0,P|141:183|140:149,1,75,12|2,0:0|0:0,0:0:0:0:
95,292,73384,2,0,P|58:312|24:313,1,75,14|8,0:0|0:0,0:0:0:0:
5,233,73640,1,8,0:0:0:0:
5,233,73725,2,0,L|17:198,3,37.5,8|8|8|8,0:0|0:0|0:0|0:0,0:0:0:0:
38,119,74066,6,0,L|19:41,2,75,6|2|8,0:0|0:0|0:0,0:0:0:0:
123,145,74577,1,0,0:0:0:0:
206,246,74748,2,0,L|225:168,1,75,2|2,0:0|0:0,0:0:0:0:
116,278,75089,1,0,0:0:0:0:
116,278,75259,1,0,0:0:0:0:
256,336,75430,6,0,L|340:316,1,75,2|0,0:0|0:0,0:0:0:0:
434,264,75770,1,8,0:0:0:0:
315,135,75941,2,0,P|301:178|304:213,1,75,0|2,0:0|0:0,0:0:0:0:
358,339,76282,1,2,0:0:0:0:
495,348,76452,2,0,P|512:307|509:272,1,75,8|0,0:0|0:0,0:0:0:0:
397,163,76793,5,2,0:0:0:0:
302,207,76964,1,2,0:0:0:0:
206,246,77134,2,0,B|176:231|176:231|152:236|152:236|105:208|57:217,1,150,8|2,0:0|0:0,0:0:0:0:
13,141,77645,1,2,0:0:0:0:
87,90,77816,2,0,P|124:79|162:65,1,75,8|0,0:0|0:0,0:0:0:0:
297,41,78157,6,0,P|314:80|319:118,1,75,10|8,0:0|0:0,0:0:0:0:
224,222,78498,2,0,P|207:183|202:145,1,75,10|0,0:0|0:0,0:0:0:0:
339,59,78839,2,0,P|356:98|361:136,1,75,10|8,0:0|0:0,0:0:0:0:
191,257,79180,2,0,P|174:218|169:180,1,75,10|8,0:0|0:0,0:0:0:0:
280,338,79520,6,0,B|225:352|225:352|188:337|188:337|133:353,1,150,12|8,0:0|0:0,0:0:0:0:
64,289,80032,1,0,0:0:0:0:
37,203,80202,2,0,P|83:206|128:228,1,75,2|2,0:0|0:0,0:0:0:0:
256,272,80543,1,8,0:0:0:0:
284,266,80628,1,0,0:0:0:0:
312,261,80714,1,0,0:0:0:0:
341,256,80799,1,0,0:0:0:0:
369,253,80884,6,0,P|393:196|381:99,1,150,4|8,0:0|0:0,0:0:0:0:
475,99,81395,1,0,0:0:0:0:
347,31,81566,2,0,P|293:35|275:47,1,75,2|2,0:0|0:0,0:0:0:0:
240,144,81907,1,8,0:0:0:0:
94,136,82077,5,0,0:0:0:0:
94,136,82162,1,0,0:0:0:0:
94,136,82248,2,0,P|114:199|194:221,1,150,4|8,0:0|0:0,0:0:0:0:
294,239,82759,1,0,0:0:0:0:
205,317,82930,2,0,P|147:335|106:348,1,75,2|0,0:0|0:0,0:0:0:0:
94,227,83270,1,8,0:0:0:0:
230,150,83441,5,0,0:0:0:0:
230,150,83526,1,0,0:0:0:0:
230,150,83611,2,0,P|269:138|316:123,1,75,12|8,0:0|0:0,0:0:0:0:
383,212,83952,1,8,0:0:0:0:
230,150,84123,1,0,0:0:0:0:
359,70,84293,1,10,0:0:0:0:
359,70,84464,1,2,0:0:0:0:
234,37,84634,1,8,0:0:0:0:
272,229,84805,5,8,0:0:0:0:
272,229,84890,1,8,0:0:0:0:
272,229,84975,2,0,L|251:320,1,75,12|8,0:0|0:0,0:0:0:0:
198,371,85316,1,8,0:0:0:0:
365,257,85486,1,8,0:0:0:0:
210,109,85657,1,8,0:0:0:0:
336,160,85827,5,8,0:0:0:0:
363,156,85912,1,8,0:0:0:0:
393,146,85997,1,8,0:0:0:0:
418,129,86082,1,8,0:0:0:0:
437,106,86167,1,8,0:0:0:0:
451,79,86253,1,8,0:0:0:0:
456,49,86338,1,10,0:0:0:0:
256,48,87702,5,2,0:0:0:0:
256,192,87787,12,0,88981,0:0:0:0:
