osu file format v14

[General]
AudioFilename: SHIORI.mp3
AudioLeadIn: 0
PreviewTime: 62134
Countdown: 0
SampleSet: Soft
StackLeniency: 0.7
Mode: 0
LetterboxInBreaks: 0
WidescreenStoryboard: 0

[Editor]
DistanceSpacing: 1.1
BeatDivisor: 4
GridSize: 4
TimelineZoom: 1.4

[Metadata]
Title:SHIORI -TV size mix-
TitleUnicode:SHIORI -TV size mix-
Artist:ClariS
ArtistUnicode:ClariS
Creator:kunka
Version:Habi's Extra
Source:終物語
Tags:ending owarimonogatari Akitoshi Ryuusei Aika rsak Momochikun HabiHolic kunkakunkakunkakunka
BeatmapID:1397951
BeatmapSetID:656098

[Difficulty]
HPDrainRate:7
CircleSize:4.3
OverallDifficulty:8
ApproachRate:9.2
SliderMultiplier:1.8
SliderTickRate:1

[Events]
//Background and Video events
0,0,"BG.jpg",0,0
Video,0,"SHIORI.avi"
//Break Periods
//Storyboard Layer 0 (Background)
//Storyboard Layer 1 (Fail)
//Storyboard Layer 2 (Pass)
//Storyboard Layer 3 (Foreground)
//Storyboard Sound Samples

[TimingPoints]
430,340.909090909091,4,2,1,40,1,0
430,-125,4,2,1,40,0,0
5884,-111.111111111111,4,2,2,50,0,0
11339,-100,4,2,2,60,0,0
14066,-90.9090909090909,4,2,2,70,0,0
16793,-100,4,2,2,60,0,0
38611,-133.333333333333,4,2,2,60,0,0
54975,-125,4,2,1,40,0,0
56339,-125,4,2,1,40,0,0
57702,-100,4,2,2,60,0,0
62475,-100,4,2,1,20,0,0
63157,-90.9090909090909,4,2,2,70,0,1
78157,-90.9090909090909,4,2,1,70,0,1
78498,-90.9090909090909,4,2,3,70,0,1
78839,-90.9090909090909,4,2,1,70,0,1
79180,-90.9090909090909,4,2,3,70,0,1
79520,-90.9090909090909,4,2,1,70,0,1
79691,-90.9090909090909,4,2,2,70,0,1
82248,-90.9090909090909,4,2,1,70,0,1
82589,-90.9090909090909,4,2,3,70,0,1
82930,-90.9090909090909,4,2,1,70,0,1
83270,-90.9090909090909,4,2,3,70,0,1
83611,-90.9090909090909,4,2,1,70,0,1
83952,-90.9090909090909,4,2,3,70,0,1
84293,-90.9090909090909,4,2,1,70,0,1
84378,-90.9090909090909,4,2,2,70,0,1
84975,-90.9090909090909,4,2,1,70,0,1
85145,-90.9090909090909,4,2,3,70,0,1
86339,-111.111111111111,4,2,3,50,0,0
88981,-111.111111111111,4,2,1,5,0,0

[Colours]
Combo1 : 255,128,255
Combo2 : 128,255,128
Combo3 : 0,255,255
Combo4 : 255,128,128
Combo5 : 255,255,128

[HitObjects]
36,128,430,5,2,0:0:0:0:
96,60,600,1,0,0:0:0:0:
192,152,770,2,0,L|120:144,1,72,0|0,0:0|0:0,0:0:0:0:
252,80,1111,1,0,0:0:0:0:
220,244,1282,1,0,0:0:0:0:
312,152,1452,1,0,0:0:0:0:
132,220,1623,1,0,0:0:0:0:
280,336,1793,5,2,0:0:0:0:
348,276,1964,1,0,0:0:0:0:
364,364,2134,1,0,0:0:0:0:
264,248,2305,1,0,0:0:0:0:
432,304,2475,2,0,P|448:272|452:232,1,72,2|0,0:0|0:0,0:0:0:0:
416,96,2816,2,0,P|400:128|396:168,1,72,0|0,0:0|0:0,0:0:0:0:
240,268,3157,5,2,0:0:0:0:
128,344,3327,1,0,0:0:0:0:
200,184,3498,2,0,P|236:172|272:180,1,72
332,248,3839,1,0,0:0:0:0:
308,92,4009,1,0,0:0:0:0:
408,192,4180,1,0,0:0:0:0:
332,12,4350,1,0,0:0:0:0:
280,168,4520,6,0,P|248:152|228:120,1,72,2|0,0:0|0:0,0:0:0:0:
392,68,4861,1,0,0:0:0:0:
332,240,5032,1,0,0:0:0:0:
440,136,5202,1,2,0:0:0:0:
280,168,5373,1,0,0:0:0:0:
496,212,5543,2,0,L|484:288,1,72,0|0,0:0|0:0,0:0:0:0:
496,308,5799,1,0,0:0:0:0:
496,308,5884,6,0,P|386:273|309:358,1,242.999992584229,6|0,0:0|0:0,0:0:0:0:
164,276,6566,2,0,L|248:284,1,80.9999975280763,0|0,0:0|0:0,0:0:0:0:
92,216,6907,2,0,L|76:136,1,80.9999975280763,0|0,0:0|0:0,0:0:0:0:
104,56,7162,1,0,0:0:0:0:
120,44,7248,6,0,B|184:36|212:83|212:83|233:86|233:86|266:142|331:124,1,242.999992584229,6|8,0:0|0:0,0:0:0:0:
480,68,7930,2,0,L|400:52,1,80.9999975280763,0|2,0:0|0:0,0:0:0:0:
352,264,8270,2,0,P|409:257|433:204,1,121.499996292114,8|0,0:3|0:0,0:0:0:0:
432,176,8611,2,0,L|451:336,1,161.999995056153,6|0,0:0|0:0,0:0:0:0:
251,344,9293,6,0,P|213:352|181:329,1,80.9999975280763
116,204,9634,1,0,0:0:0:0:
16,308,9805,1,0,0:0:0:0:
76,123,9975,2,0,P|153:118|203:178,1,161.999995056153,6|0,0:0|0:0,0:0:0:0:
344,100,10486,1,8,0:3:0:0:
344,100,10657,2,0,L|252:88,1,80.9999975280763,0|2,0:0|0:0,0:0:0:0:
400,24,10998,2,0,P|438:69|433:128,1,121.499996292114,8|0,0:3|0:0,0:0:0:0:
376,188,11339,6,0,L|196:176,1,180,6|8,0:0|0:0,0:0:0:0:
68,92,11850,1,8,0:0:0:0:
144,252,12020,1,8,0:0:0:0:
120,20,12191,1,8,0:0:0:0:
72,300,12361,1,8,0:0:0:0:
308,184,12532,1,8,0:0:0:0:
8,144,12702,5,12,0:0:0:0:
8,144,13725,5,0,0:0:0:0:
3,188,13810,1,0,0:0:0:0:
14,232,13895,1,0,0:0:0:0:
38,269,13980,1,0,0:0:0:0:
74,297,14066,6,0,L|172:284,1,99.0000030212403,12|2,0:0|0:0,0:0:0:0:
248,100,14407,1,2,0:0:0:0:
364,256,14577,6,0,L|266:242,1,99.0000030212403,12|2,0:0|0:0,0:0:0:0:
216,16,14918,1,2,0:0:0:0:
152,204,15089,5,12,0:0:0:0:
348,124,15259,1,2,0:0:0:0:
216,264,15430,1,2,0:0:0:0:
304,40,15600,5,12,0:0:0:0:
312,204,15770,1,2,0:0:0:0:
440,128,15941,1,2,0:0:0:0:
232,160,16111,5,12,0:0:0:0:
468,212,16282,2,0,L|460:264,1,49.5000015106202,8|2,0:0|0:0,0:0:0:0:
448,340,16452,1,8,0:0:0:0:
413,357,16537,1,2,0:0:0:0:
373,357,16622,1,2,0:0:0:0:
339,338,16707,1,2,0:0:0:0:
318,305,16793,6,0,P|235:284|183:352,1,180,6|2,0:0|0:0,0:0:0:0:
32,256,17305,1,0,0:0:0:0:
48,168,17475,2,0,P|89:182|114:218,1,90,2|0,0:0|0:0,0:0:0:0:
104,308,17816,1,2,0:0:0:0:
140,104,17986,1,8,0:0:0:0:
280,220,18157,6,0,P|344:208|400:248,1,135,2|0,0:0|0:0,0:0:0:0:
472,216,18498,2,0,L|488:128,1,90,2|0,0:0|0:0,0:0:0:0:
408,28,18839,1,2,0:0:0:0:
252,140,19009,1,0,0:0:0:0:
408,236,19180,1,2,0:0:0:0:
372,104,19350,1,2,0:0:0:0:
212,220,19520,6,0,P|159:151|194:73,1,180,2|2,0:0|0:0,0:0:0:0:
312,228,20032,1,0,0:0:0:0:
312,228,20117,1,0,0:0:0:0:
311,228,20202,2,0,P|266:302|180:313,1,180,2|2,0:0|0:0,0:0:0:0:
36,236,20714,1,8,0:0:0:0:
152,88,20884,6,0,L|136:188,1,90,2|0,0:0|0:0,0:0:0:0:
272,16,21225,2,0,L|288:104,1,90,2|0,0:0|0:0,0:0:0:0:
248,192,21566,1,2,0:0:0:0:
424,60,21736,2,0,L|408:148,1,90,8|2,2:3|0:0,0:0:0:0:
284,284,22077,1,2,0:0:0:0:
512,304,22248,6,0,P|457:236|370:240,1,180,6|2,0:0|0:0,0:0:0:0:
208,340,22759,1,0,0:0:0:0:
140,264,22930,2,0,L|156:172,1,90,2|0,0:0|0:0,0:0:0:0:
212,16,23270,2,0,L|227:104,1,90,2|8,0:0|0:0,0:0:0:0:
280,200,23611,5,2,0:0:0:0:
440,100,23782,1,0,0:0:0:0:
332,268,23952,1,2,0:0:0:0:
388,28,24123,1,0,0:0:0:0:
224,124,24293,5,2,0:0:0:0:
400,212,24464,1,0,0:0:0:0:
288,60,24634,1,2,0:0:0:0:
276,340,24805,1,2,0:0:0:0:
152,188,24975,6,0,P|132:144|132:104,1,90,2|0,0:0|0:0,0:0:0:0:
372,48,25316,2,0,P|392:92|392:132,1,90,2|0,0:0|0:0,0:0:0:0:
288,216,25657,1,2,0:0:0:0:
232,112,25827,1,0,0:0:0:0:
132,296,25998,2,0,L|40:280,1,90,2|8,0:0|0:0,0:0:0:0:
184,376,26339,6,0,P|232:304|200:224,1,180,2|2,0:0|0:0,0:0:0:0:
120,164,26850,1,0,0:0:0:0:
304,204,27020,1,2,0:0:0:0:
232,64,27191,1,8,0:0:0:0:
276,280,27361,1,2,0:0:0:0:
308,24,27532,1,2,0:0:0:0:
308,24,27617,1,2,0:0:0:0:
307,23,27702,6,0,P|355:95|442:95,1,180,6|2,0:0|0:0,0:0:0:0:
496,28,28214,1,0,0:0:0:0:
488,220,28384,2,0,P|454:191|410:189,1,90,2|0,0:0|0:0,0:0:0:0:
304,336,28725,1,2,0:0:0:0:
200,116,28895,1,8,0:0:0:0:
108,160,29066,6,0,P|173:217|259:203,1,180,2|2,0:0|0:0,0:0:0:0:
364,80,29577,1,0,0:0:0:0:
320,284,29748,1,2,0:0:0:0:
408,160,29918,1,0,0:0:0:0:
316,4,30089,2,0,P|284:40|276:80,1,90,2|2,0:0|0:0,0:0:0:0:
208,280,30430,6,0,B|112:252|120:312|24:280,1,180,2|2,0:0|0:0,0:0:0:0:
76,192,30941,1,0,0:0:0:0:
156,360,31111,1,2,0:0:0:0:
188,136,31282,1,0,0:0:0:0:
136,344,31452,1,2,0:0:0:0:
328,280,31623,1,8,0:0:0:0:
240,64,31793,6,0,P|160:48|96:120,1,180,2|2,0:0|0:0,0:0:0:0:
160,248,32305,1,0,0:0:0:0:
24,164,32475,1,2,0:0:0:0:
96,320,32645,1,0,0:0:0:0:
120,104,32816,1,2,0:0:0:0:
92,344,32986,1,2,0:0:0:0:
280,216,33157,6,0,P|267:129|319:58,1,180,2|2,0:0|0:0,0:0:0:0:
368,152,33668,1,0,0:0:0:0:
296,315,33839,2,0,P|251:311|213:289,1,90,2|0,0:0|0:0,0:0:0:0:
44,203,34180,2,0,P|82:181|127:175,1,90,2|8,0:0|0:0,0:0:0:0:
271,96,34520,6,0,P|187:102|147:27,1,180,2|2,0:0|0:0,0:0:0:0:
228,28,35032,1,0,0:0:0:0:
200,212,35202,1,2,0:0:0:0:
380,128,35373,1,8,0:0:0:0:
240,48,35543,1,2,0:0:0:0:
328,256,35714,1,2,0:0:0:0:
496,96,35884,6,0,B|448:56|448:56|461:172,1,180,6|2,0:0|0:0,0:0:0:0:
432,344,36395,1,0,0:0:0:0:
431,343,36566,2,0,P|415:302|425:259,1,90,2|0,0:0|0:0,0:0:0:0:
312,136,36907,1,2,0:0:0:0:
240,200,37077,1,8,0:0:0:0:
140,64,37248,6,0,P|188:64|220:88,1,90,6|8,0:0|0:0,0:0:0:0:
52,104,37589,2,0,P|44:56|56:16,1,90,2|2,0:0|0:0,0:0:0:0:
132,156,37930,2,0,P|96:192|52:204,1,90,2|8,0:0|2:3,0:0:0:0:
52,104,38270,1,2,0:0:0:0:
140,268,38441,1,2,0:0:0:0:
295,164,38611,6,0,P|359:148|406:192,1,135.000005149842,6|0,0:0|0:0,0:0:0:0:
440,268,39123,1,2,0:0:0:0:
500,96,39293,2,0,L|432:88,1,67.5000025749208,0|0,0:0|0:0,0:0:0:0:
292,28,39634,2,0,L|360:36,1,67.5000025749208,8|0,0:0|0:0,0:0:0:0:
216,75,39975,6,0,P|152:80|124:23,1,135.000005149842,2|0,0:0|0:0,0:0:0:0:
124,23,40486,1,2,0:0:0:0:
28,160,40657,2,0,L|100:152,1,67.5000025749208,0|8,0:0|0:0,0:0:0:0:
244,196,40998,1,2,0:0:0:0:
152,248,41168,1,0,0:0:0:0:
236,296,41339,6,0,L|376:280,1,135.000005149842,2|0,0:0|0:0,0:0:0:0:
492,204,41850,1,2,0:0:0:0:
492,204,42020,2,0,P|464:180|428:176,1,67.5000025749208,0|0,0:0|0:0,0:0:0:0:
360,88,42361,2,0,P|328:116|316:144,1,67.5000025749208,2|0,0:0|0:0,0:0:0:0:
208,128,42702,6,0,L|236:272,1,135.000005149842,6|0,0:0|0:0,0:0:0:0:
312,352,43214,1,2,0:0:0:0:
132,284,43384,1,4,0:0:0:0:
368,168,43555,1,0,0:0:0:0:
136,308,43725,1,8,0:0:0:0:
160,84,43895,1,0,0:0:0:0:
83,135,44066,6,0,P|139:171|204:159,1,135.000005149842,6|0,0:0|0:0,0:0:0:0:
264,32,44577,1,2,0:0:0:0:
336,104,44748,2,0,L|324:172,1,67.5000025749208,0|0,0:0|0:0,0:0:0:0:
192,244,45089,2,0,L|208:312,1,67.5000025749208,2|0,0:0|0:0,0:0:0:0:
408,368,45430,6,0,P|386:305|406:242,1,135.000005149842,2|0,0:0|0:0,0:0:0:0:
472,304,45941,1,2,0:0:0:0:
280,240,46111,1,0,0:0:0:0:
412,112,46282,1,8,0:0:0:0:
360,332,46452,1,2,0:0:0:0:
412,112,46623,1,0,0:0:0:0:
216,167,46793,6,0,P|151:174|108:125,1,135.000005149842,2|0,0:0|0:0,0:0:0:0:
192,72,47305,1,2,0:0:0:0:
40,192,47475,2,0,L|48:264,1,67.5000025749208,0|0,0:0|0:0,0:0:0:0:
232,364,47816,2,0,L|224:288,1,67.5000025749208,2|0,0:0|0:0,0:0:0:0:
319,171,48157,6,0,P|359:223|424:223,1,135.000005149842,2|0,0:0|0:0,0:0:0:0:
492,160,48668,1,2,0:0:0:0:
388,24,48839,2,0,P|384:60|384:96,1,67.5000025749208,2|0,0:0|0:0,0:0:0:0:
244,244,49180,2,0,P|243:210|239:176,1,67.5000025749208,8|0,0:0|0:0,0:0:0:0:
76,27,49520,6,0,P|63:93|82:157,1,135.000005149842,6|0,0:0|0:0,0:0:0:0:
82,157,50032,1,2,0:0:0:0:
36,300,50202,2,0,L|20:224,1,67.5000025749208,0|0,0:0|0:0,0:0:0:0:
156,104,50543,1,8,0:0:0:0:
108,348,50714,1,0,0:0:0:0:
288,256,50884,6,0,P|221:262|160:235,1,135.000005149842,2|0,0:0|0:0,0:0:0:0:
236,168,51395,1,2,0:0:0:0:
420,248,51566,1,0,0:0:0:0:
288,96,51736,1,8,0:0:0:0:
384,348,51907,1,2,0:0:0:0:
135,276,52077,1,0,0:0:0:0:
135,276,52248,6,0,P|156:212|138:148,1,135.000005149842,2|0,0:0|0:0,0:0:0:0:
84,76,52759,1,0,0:0:0:0:
232,128,52930,2,0,L|280:136,2,45.0000017166138,8|8|8,0:0|0:0|2:3,0:0:0:0:
408,68,53270,2,0,L|356:76,2,45.0000017166138,2|2|2,0:0|0:0|0:0,0:0:0:0:
336,239,53611,6,0,P|429:228|464:316,1,202.500007724762,6|0,0:0|0:0,0:0:0:0:
264,296,54293,2,0,B|248:236|248:236|264:192|264:192|236:160|236:160|224:96,1,202.500007724762,6|0,0:0|0:0,0:0:0:0:
212,20,54975,5,2,0:0:0:0:
212,20,56339,5,2,0:0:0:0:
212,20,57702,5,8,0:0:0:0:
136,280,57873,1,8,0:0:0:0:
56,136,58043,5,8,0:0:0:0:
296,204,58214,1,8,0:0:0:0:
116,56,58384,5,8,0:0:0:0:
148,256,58555,1,8,0:0:0:0:
292,108,58725,5,8,0:0:0:0:
60,164,58895,1,8,0:0:0:0:
220,36,59066,5,8,0:0:0:0:
256,256,59236,1,8,0:0:0:0:
152,196,59407,1,8,0:0:0:0:
340,168,59577,1,8,0:0:0:0:
144,100,59748,5,8,0:0:0:0:
320,76,59918,1,8,0:0:0:0:
256,236,60089,1,8,0:0:0:0:
224,16,60259,1,8,0:0:0:0:
136,288,60430,6,0,L|48:272,1,90,12|0,0:0|0:0,0:0:0:0:
212,152,60771,1,2,0:0:0:0:
268,360,60941,2,0,L|360:348,1,90,8|2,1:2|0:0,0:0:0:0:
200,172,61282,1,8,0:0:0:0:
416,268,61452,2,0,P|432:224|428:180,1,90,2|8,0:0|0:0,0:0:0:0:
384,108,61708,1,2,0:0:0:0:
392,88,61793,5,4,0:0:0:0:
392,87,63157,6,0,P|298:101|239:27,1,198.000006042481,6|8,0:0|0:0,0:0:0:0:
56,104,63668,1,0,0:0:0:0:
56,104,63839,2,0,L|164:96,1,99.0000030212403,2|2,0:0|0:0,0:0:0:0:
236,172,64180,1,8,0:0:0:0:
120,320,64350,1,0,0:0:0:0:
328,348,64520,6,0,P|328:296|304:252,1,99.0000030212403,2|2,0:0|0:0,0:0:0:0:
240,320,64861,1,8,0:0:0:0:
328,148,65032,2,0,B|392:168|392:168|424:216|424:216|496:240,1,198.000006042481,0|2,0:0|0:0,0:0:0:0:
484,144,65543,1,8,0:0:0:0:
332,240,65714,1,0,0:0:0:0:
272,48,65884,5,2,0:0:0:0:
320,260,66055,1,2,0:0:0:0:
120,164,66225,1,8,0:0:0:0:
312,120,66395,1,0,0:0:0:0:
132,180,66566,2,0,P|152:132|148:84,1,99.0000030212403,2|2,0:0|0:0,0:0:0:0:
64,8,66907,2,0,P|44:56|48:104,1,99.0000030212403,8|0,0:0|0:0,0:0:0:0:
76,268,67248,5,2,0:0:0:0:
256,224,67418,1,2,0:0:0:0:
192,356,67589,1,8,0:0:0:0:
228,140,67759,2,0,P|276:132|320:160,1,99.0000030212403,0|2,0:0|0:0,0:0:0:0:
352,244,68100,1,2,0:0:0:0:
144,208,68270,2,0,P|120:144|144:68,1,148.50000453186,8|0,0:0|0:0,0:0:0:0:
216,24,68611,6,0,L|316:32,1,99.0000030212403,6|2,0:0|0:0,0:0:0:0:
464,196,68952,2,0,L|364:188,1,99.0000030212403,8|0,0:0|0:0,0:0:0:0:
272,120,69293,1,2,0:0:0:0:
108,224,69464,1,2,0:0:0:0:
200,52,69634,1,8,0:0:0:0:
172,304,69805,1,0,0:0:0:0:
52,148,69975,6,0,P|20:188|12:240,1,99.0000030212403,6|2,0:0|0:0,0:0:0:0:
252,360,70316,2,0,P|284:320|292:268,1,99.0000030212403,8|0,0:0|0:0,0:0:0:0:
192,112,70657,1,2,0:0:0:0:
208,276,70827,1,2,0:0:0:0:
40,212,70998,2,0,L|144:200,1,99.0000030212403,8|0,0:0|0:0,0:0:0:0:
344,232,71339,6,0,P|320:188|320:136,1,99.0000030212403,6|2,0:0|0:0,0:0:0:0:
400,16,71680,2,0,P|424:60|424:112,1,99.0000030212403,8|0,0:0|0:0,0:0:0:0:
236,216,72020,1,2,0:0:0:0:
72,120,72191,1,2,0:0:0:0:
72,120,72276,1,0,0:0:0:0:
72,120,72361,1,8,0:0:0:0:
172,280,72532,1,2,0:0:0:0:
184,24,72702,6,0,P|168:76|168:120,1,99.0000030212403,12|2,0:0|0:0,0:0:0:0:
332,316,73043,2,0,P|348:264|348:220,1,99.0000030212403,12|2,0:0|0:0,0:0:0:0:
280,128,73384,1,14,0:0:0:0:
176,336,73555,1,8,0:0:0:0:
176,336,73640,1,8,0:0:0:0:
176,336,73725,2,0,L|188:288,1,49.5000015106202,8|8,0:0|0:0,0:0:0:0:
68,244,73895,2,0,L|56:192,1,49.5000015106202,8|8,0:0|0:0,0:0:0:0:
40,96,74066,5,6,0:0:0:0:
220,200,74236,1,2,0:0:0:0:
108,28,74407,1,8,0:0:0:0:
152,272,74577,1,0,0:0:0:0:
288,136,74748,2,0,L|272:32,1,99.0000030212403,2|2,0:0|0:0,0:0:0:0:
384,220,75089,2,0,L|368:320,1,99.0000030212403,8|0,0:0|0:0,0:0:0:0:
192,224,75430,5,2,0:0:0:0:
72,104,75600,1,2,0:0:0:0:
140,304,75770,1,8,0:0:0:0:
164,32,75941,2,0,L|156:136,1,99.0000030212403,0|2,0:0|0:0,0:0:0:0:
336,312,76282,2,0,L|344:208,1,99.0000030212403,2|8,0:0|0:0,0:0:0:0:
148,224,76623,1,0,0:0:0:0:
304,116,76793,5,2,0:0:0:0:
216,288,76964,1,2,0:0:0:0:
240,52,77134,1,8,0:0:0:0:
204,304,77305,1,0,0:0:0:0:
80,152,77475,2,0,P|128:124|172:128,1,99.0000030212403,2|2,0:0|0:0,0:0:0:0:
404,244,77816,2,0,P|356:272|312:268,1,99.0000030212403,8|0,0:0|0:0,0:0:0:0:
256,152,78157,5,10,0:0:0:0:
128,280,78327,1,8,0:0:0:0:
212,88,78498,1,10,0:0:0:0:
44,200,78668,1,0,0:0:0:0:
44,200,78753,1,0,0:0:0:0:
44,200,78839,1,10,0:0:0:0:
152,28,79009,1,8,0:0:0:0:
128,312,79180,1,10,0:0:0:0:
144,108,79350,1,8,0:0:0:0:
144,108,79435,1,8,0:0:0:0:
143,108,79520,6,0,P|238:95|304:164,1,198.000006042481,14|8,0:0|0:0,0:0:0:0:
284,256,80032,1,0,0:0:0:0:
468,144,80202,1,2,0:0:0:0:
348,348,80373,1,2,0:0:0:0:
388,76,80543,1,8,0:0:0:0:
152,192,80714,1,0,0:0:0:0:
152,192,80799,1,2,0:0:0:0:
151,192,80884,6,0,P|163:120|124:58,1,148.50000453186,6|0,0:0|0:0,0:0:0:0:
96,44,81225,1,8,0:0:0:0:
20,288,81395,1,0,0:0:0:0:
284,204,81566,1,2,0:0:0:0:
40,112,81736,1,2,0:0:0:0:
148,384,81907,2,0,L|160:236,1,148.50000453186,8|0,0:0|0:0,0:0:0:0:
164,196,82248,5,14,0:0:0:0:
368,256,82418,1,8,0:0:0:0:
292,60,82589,1,8,0:0:0:0:
248,284,82759,1,0,0:0:0:0:
300,24,82930,2,0,L|280:124,1,99.0000030212403,10|8,0:0|0:0,0:0:0:0:
88,280,83270,2,0,L|72:176,1,99.0000030212403,8|0,0:0|0:0,0:0:0:0:
120,108,83526,1,0,0:0:0:0:
136,80,83611,5,14,0:0:0:0:
316,188,83782,1,8,0:0:0:0:
204,16,83952,2,0,P|228:64|228:112,1,99.0000030212403,8|0,0:0|0:0,0:0:0:0:
132,240,84293,1,10,0:0:0:0:
132,240,84378,1,8,0:0:0:0:
132,240,84464,1,2,0:0:0:0:
300,124,84634,1,8,0:0:0:0:
332,336,84805,1,8,0:0:0:0:
336,312,84890,1,8,0:0:0:0:
340,280,84975,5,14,0:0:0:0:
168,312,85145,1,8,0:0:0:0:
352,192,85316,1,8,0:0:0:0:
156,108,85486,1,8,0:0:0:0:
288,304,85657,1,8,0:0:0:0:
264,48,85827,5,8,0:0:0:0:
280,72,85912,1,8,0:0:0:0:
296,100,85998,2,0,L|356:92,1,49.5000015106202,8|8,0:0|0:0,0:0:0:0:
492,224,86168,2,0,L|432:232,1,49.5000015106202,8|8,0:0|0:0,0:0:0:0:
344,240,86339,5,10,0:0:0:0:
256,192,87702,12,0,88981,0:0:0:0:
