osu file format v14

[General]
AudioFilename: SHIORI.mp3
AudioLeadIn: 0
PreviewTime: 62134
Countdown: 0
SampleSet: Soft
StackLeniency: 0.7
Mode: 0
LetterboxInBreaks: 0
WidescreenStoryboard: 0

[Editor]
DistanceSpacing: 0.9
BeatDivisor: 4
GridSize: 4
TimelineZoom: 2

[Metadata]
Title:SHIORI -TV size mix-
TitleUnicode:SHIORI -TV size mix-
Artist:ClariS
ArtistUnicode:ClariS
Creator:kunka
Version:Easy
Source:終物語
Tags:ending owarimonogatari Akitoshi Ryuusei Aika rsak Momochikun HabiHolic kunkakunkakunkakunka
BeatmapID:1396424
BeatmapSetID:656098

[Difficulty]
HPDrainRate:2
CircleSize:3
OverallDifficulty:3
ApproachRate:3
SliderMultiplier:1
SliderTickRate:1

[Events]
//Background and Video events
0,0,"BG.jpg",0,0
Video,0,"SHIORI.avi"
//Break Periods
//Storyboard Layer 0 (Background)
//Storyboard Layer 1 (Fail)
//Storyboard Layer 2 (Pass)
//Storyboard Layer 3 (Foreground)
//Storyboard Sound Samples

[TimingPoints]
430,340.909090909091,4,2,1,40,1,0
430,-111.111111111111,4,2,1,40,0,0
5884,-111.111111111111,4,2,2,50,0,0
11339,-111.111111111111,4,2,2,60,0,0
14066,-111.111111111111,4,2,2,70,0,0
16793,-111.111111111111,4,2,2,60,0,0
54975,-111.111111111111,4,2,1,40,0,0
57702,-111.111111111111,4,2,2,60,0,0
63157,-111.111111111111,4,2,2,70,0,1
78157,-111.111111111111,4,2,1,70,0,1
79180,-111.111111111111,4,2,3,70,0,1
79520,-111.111111111111,4,2,1,70,0,1
80202,-111.111111111111,4,2,2,70,0,1
82248,-111.111111111111,4,2,1,70,0,1
83270,-111.111111111111,4,2,3,70,0,1
83611,-111.111111111111,4,2,1,70,0,1
83952,-111.111111111111,4,2,3,70,0,1
84293,-111.111111111111,4,2,1,70,0,1
84634,-111.111111111111,4,2,2,70,0,1
86339,-111.111111111111,4,2,3,50,0,0

[Colours]
Combo1 : 255,128,255
Combo2 : 128,255,128
Combo3 : 0,255,255
Combo4 : 255,128,128
Combo5 : 255,255,128

[HitObjects]
152,352,430,6,0,B|194:371|238:351|238:351|282:331|326:351,1,179.999994506836,2|0,0:0|0:0,0:0:0:0:
404,372,1452,1,0,0:0:0:0:
475,333,1793,2,0,P|498:249|475:161,1,179.999994506836,2|2,0:0|0:0,0:0:0:0:
361,45,3157,6,0,B|318:25|274:45|274:45|230:65|186:45,1,179.999994506836,2|0,0:0|0:0,0:0:0:0:
109,25,4179,1,0,0:0:0:0:
38,64,4520,2,0,P|15:148|38:236,1,179.999994506836,2|2,0:0|0:0,0:0:0:0:
176,151,5884,6,0,P|260:128|348:151,1,179.999994506836,6|0,0:0|0:0,0:0:0:0:
485,236,7248,2,0,P|508:152|485:64,2,179.999994506836,6|0|6,0:0|0:0|0:0,0:0:0:0:
348,324,9293,6,0,P|264:347|176:324,2,179.999994506836,0|6|0,0:0|0:0|0:0,0:0:0:0:
256,192,11339,12,12,12702,0:0:0:0:
77,230,14066,6,0,P|63:160|37:101,1,134.999995880127,12|12,0:0|0:0,0:0:0:0:
153,66,15089,2,0,P|179:127|192:194,1,134.999995880127,12|12,0:0|0:0,0:0:0:0:
308,230,16111,2,0,P|350:211|395:202,1,89.9999972534181,12|8,0:0|0:0,0:0:0:0:
420,279,16793,6,0,P|375:287|334:305,1,89.9999972534181,6|2,0:0|0:0,0:0:0:0:
260,339,17475,2,0,P|218:321|174:312,1,89.9999972534181,2|2,0:0|0:0,0:0:0:0:
107,266,18157,2,0,L|78:180,1,89.9999972534181,2|2,0:0|0:0,0:0:0:0:
136,124,18839,2,0,L|165:38,1,89.9999972534181,2|2,0:0|0:0,0:0:0:0:
244,22,19520,6,0,P|322:59|413:51,1,179.999994506836,2|2,0:0|0:0,0:0:0:0:
482,94,20543,1,2,0:0:0:0:
489,174,20884,2,0,P|480:218|462:259,1,89.9999972534181,2|2,0:0|0:0,0:0:0:0:
385,287,21566,2,0,P|343:269|299:260,1,89.9999972534181,2|2,0:0|0:0,0:0:0:0:
218,251,22248,5,6,0:0:0:0:
118,122,22930,2,0,P|109:77|91:36,1,89.9999972534181,2|2,0:0|0:0,0:0:0:0:
169,16,23611,2,0,P|186:57|195:101,1,89.9999972534181,2|2,0:0|0:0,0:0:0:0:
253,158,24293,2,0,P|296:168|341:169,1,89.9999972534181,2|2,0:0|0:0,0:0:0:0:
415,134,24975,6,0,L|393:267,2,134.999995880127,2|0|2,0:0|0:0|0:0,0:0:0:0:
406,53,26339,2,0,P|366:31|320:33,1,89.9999972534181,2|2,0:0|0:0,0:0:0:0:
244,53,27020,2,0,P|200:63|155:64,1,89.9999972534181,2|2,0:0|0:0,0:0:0:0:
76,42,27702,5,6,0:0:0:0:
153,184,28384,1,2,0:0:0:0:
214,236,28725,2,0,L|203:329,1,89.9999972534181,2|2,0:0|0:0,0:0:0:0:
136,371,29407,1,2,0:0:0:0:
74,318,29748,2,0,L|84:228,1,89.9999972534181,2|2,0:0|0:0,0:0:0:0:
153,184,30430,6,0,P|234:150|320:184,1,179.999994506836,2|2,0:0|0:0,0:0:0:0:
386,223,31452,1,2,0:0:0:0:
388,142,31793,2,0,P|389:97|399:53,2,89.9999972534181,2|2|2,0:0|0:0|0:0,0:0:0:0:
316,180,32816,2,0,P|272:190|227:191,1,89.9999972534181,2|2,0:0|0:0,0:0:0:0:
137,326,33839,6,0,P|135:281|125:237,1,89.9999972534181,2|2,0:0|0:0,0:0:0:0:
71,176,34520,2,0,L|57:88,1,89.9999972534181,2|2,0:0|0:0,0:0:0:0:
136,71,35202,2,0,L|150:159,1,89.9999972534181,2|2,0:0|0:0,0:0:0:0:
125,237,35884,6,0,P|64:258|4:223,2,134.999995880127,6|0|2,0:0|0:0|0:0,0:0:0:0:
204,219,37248,2,0,P|248:220|292:230,1,89.9999972534181,6|2,0:0|0:0,0:0:0:0:
339,296,37930,2,0,P|382:285|427:284,1,89.9999972534181,2|2,0:0|0:0,0:0:0:0:
508,285,38611,5,6,0:0:0:0:
449,133,39293,2,0,P|406:122|361:121,1,89.9999972534181,0|8,0:0|0:0,0:0:0:0:
289,159,39975,2,0,L|274:250,1,89.9999972534181,2|0,0:0|0:0,0:0:0:0:
193,243,40657,2,0,L|178:334,1,89.9999972534181,0|2,0:0|0:0,0:0:0:0:
97,327,41339,5,2,0:0:0:0:
35,274,41680,2,0,L|20:185,2,89.9999972534181,0|0|2,0:0|0:0|0:0,0:0:0:0:
97,327,42702,2,0,P|182:349|268:326,2,179.999994506836,6|4|6,0:0|0:0|0:0,0:0:0:0:
122,166,44748,6,0,L|136:78,1,89.9999972534181,0|2,0:0|0:0,0:0:0:0:
57,61,45430,2,0,L|43:149,1,89.9999972534181,2|0,0:0|0:0,0:0:0:0:
68,226,46111,2,0,P|109:246|155:241,1,89.9999972534181,0|2,0:0|0:0,0:0:0:0:
230,220,46793,6,0,B|318:196|318:196|407:220,1,179.999994506836,2|0,0:0|0:0,0:0:0:0:
459,278,47816,1,2,0:0:0:0:
404,337,48157,2,0,B|318:314|318:314|230:337,1,179.999994506836,2|2,0:0|0:0,0:0:0:0:
151,358,49180,1,8,0:0:0:0:
78,323,49520,5,6,0:0:0:0:
122,166,50202,2,0,L|136:78,1,89.9999972534181,0|8,0:0|0:0,0:0:0:0:
57,61,50884,2,0,L|43:149,1,89.9999972534181,2|0,0:0|0:0,0:0:0:0:
68,226,51566,2,0,P|109:246|155:241,1,89.9999972534181,0|2,0:0|0:0,0:0:0:0:
227,214,52248,5,2,0:0:0:0:
280,153,52589,2,0,L|266:65,2,89.9999972534181,0|8|2,0:0|0:0|0:0,0:0:0:0:
332,214,53611,2,0,P|417:236|503:213,2,179.999994506836,6|6|2,0:0|0:0|0:0,0:0:0:0:
53,49,56339,5,2,0:0:0:0:
256,192,57702,12,12,60430,0:0:0:0:
256,192,61793,5,4,0:0:0:0:
256,192,63157,6,0,P|178:155|87:163,1,179.999994506836,6|2,0:0|0:0,0:0:0:0:
10,190,64180,1,8,0:0:0:0:
35,266,64520,2,0,P|51:306|61:350,1,89.9999972534181,2|8,0:0|0:0,0:0:0:0:
138,326,65202,2,0,P|128:282|110:240,1,89.9999972534181,2|8,0:0|0:0,0:0:0:0:
86,163,65884,6,0,P|164:126|255:134,1,179.999994506836,2|2,0:0|0:0,0:0:0:0:
330,165,66907,1,8,0:0:0:0:
407,142,67248,2,0,P|450:132|495:130,1,89.9999972534181,2|8,0:0|0:0,0:0:0:0:
484,51,67930,2,0,P|439:52|395:62,1,89.9999972534181,2|8,0:0|0:0,0:0:0:0:
317,80,68612,6,0,P|239:43|148:51,1,179.999994506836,6|2,0:0|0:0,0:0:0:0:
99,116,69634,1,8,0:0:0:0:
107,196,69975,2,0,P|116:239|118:284,1,89.9999972534181,6|8,0:0|0:0,0:0:0:0:
167,349,70657,2,0,P|210:358|255:360,1,89.9999972534181,2|8,0:0|0:0,0:0:0:0:
326,318,71339,6,0,P|370:316|414:306,2,89.9999972534181,6|8|2,0:0|0:0|0:0,0:0:0:0:
276,254,72361,1,8,0:0:0:0:
280,173,72702,2,0,P|278:128|268:84,1,89.9999972534181,12|12,0:0|0:0,0:0:0:0:
208,29,73384,2,0,P|163:30|119:40,1,89.9999972534181,14|8,0:0|0:0,0:0:0:0:
51,84,74066,6,0,P|41:127|39:172,1,89.9999972534181,6|8,0:0|0:0,0:0:0:0:
110,213,74748,2,0,P|154:214|198:224,1,89.9999972534181,2|8,0:0|0:0,0:0:0:0:
274,253,75430,2,0,P|339:237|407:236,2,134.999995880127,2|0|8,0:0|0:0|0:0,0:0:0:0:
198,224,76793,6,0,P|188:180|186:135,1,89.9999972534181,2|8,0:0|0:0,0:0:0:0:
163,57,77475,2,0,P|119:47|74:45,1,89.9999972534181,2|8,0:0|0:0,0:0:0:0:
22,108,78157,2,0,P|6:173|5:241,2,134.999995880127,10|0|10,0:0|0:0|0:0,0:0:0:0:
74,45,79520,6,0,B|116:26|160:46|160:46|204:66|248:46,1,179.999994506836,14|2,0:0|0:0,0:0:0:0:
326,25,80542,1,8,0:0:0:0:
387,77,80884,2,0,P|409:162|386:248,1,179.999994506836,6|2,0:0|0:0,0:0:0:0:
342,317,81907,1,8,0:0:0:0:
264,340,82248,5,14,0:0:0:0:
124,256,82930,2,0,P|81:239|35:232,1,89.9999972534181,10|8,0:0|0:0,0:0:0:0:
15,310,83612,2,0,P|60:315|102:331,1,89.9999972534181,14|8,0:0|0:0,0:0:0:0:
177,362,84294,2,0,P|219:346|264:339,1,89.9999972534181,10|8,0:0|0:0,0:0:0:0:
256,192,84975,12,10,86339,0:0:0:0:
256,192,87702,5,2,0:0:0:0:
