osu file format v14

[General]
AudioFilename: SHIORI.mp3
AudioLeadIn: 0
PreviewTime: 62134
Countdown: 0
SampleSet: Soft
StackLeniency: 0.7
Mode: 0
LetterboxInBreaks: 0
WidescreenStoryboard: 0

[Editor]
DistanceSpacing: 1
BeatDivisor: 4
GridSize: 4
TimelineZoom: 2

[Metadata]
Title:SHIORI -TV size mix-
TitleUnicode:SHIORI -TV size mix-
Artist:ClariS
ArtistUnicode:ClariS
Creator:kunka
Version:Akitoshi's Normal
Source:終物語
Tags:ending owarimonogatari Akitoshi Ryuusei Aika rsak Momochikun HabiHolic kunkakunkakunkakunka
BeatmapID:1396423
BeatmapSetID:656098

[Difficulty]
HPDrainRate:4
CircleSize:3.3
OverallDifficulty:4
ApproachRate:5
SliderMultiplier:1.05
SliderTickRate:1

[Events]
//Background and Video events
0,0,"BG.jpg",0,0
Video,0,"SHIORI.avi"
//Break Periods
//Storyboard Layer 0 (Background)
//Storyboard Layer 1 (Fail)
//Storyboard Layer 2 (Pass)
//Storyboard Layer 3 (Foreground)
//Storyboard Sound Samples

[TimingPoints]
430,340.909090909091,4,2,1,40,1,0
5884,-100,4,2,2,50,0,0
11339,-100,4,2,2,60,0,0
14066,-100,4,2,2,70,0,0
16793,-100,4,2,2,60,0,0
54975,-100,4,2,1,40,0,0
55657,-100,4,2,1,5,0,0
56339,-100,4,2,1,40,0,0
57702,-100,4,2,2,60,0,0
62475,-100,4,2,1,20,0,0
63157,-100,4,2,2,70,0,1
78157,-100,4,2,1,70,0,1
78498,-100,4,2,3,70,0,1
78839,-100,4,2,1,70,0,1
79180,-100,4,2,3,70,0,1
79520,-100,4,2,1,70,0,1
79691,-100,4,2,2,70,0,1
82248,-100,4,2,1,70,0,1
82589,-100,4,2,3,70,0,1
82930,-100,4,2,1,70,0,1
83270,-100,4,2,3,70,0,1
83611,-100,4,2,1,70,0,1
83952,-100,4,2,3,70,0,1
84293,-100,4,2,1,70,0,1
84378,-100,4,2,2,70,0,1
84975,-100,4,2,1,70,0,1
85145,-100,4,2,3,70,0,1
86339,-100,4,2,3,50,0,0
88981,-100,4,2,1,5,0,0

[Colours]
Combo1 : 255,128,255
Combo2 : 128,255,128
Combo3 : 0,255,255
Combo4 : 255,128,128
Combo5 : 255,255,128

[HitObjects]
250,55,430,6,0,P|192:29|59:91,1,210,2|0,0:0|0:0,0:0:0:0:
16,175,1452,1,0,0:0:0:0:
75,261,1793,2,0,L|191:253,1,105
262,189,2475,2,0,L|378:197,1,105,2|0,0:0|0:0,0:0:0:0:
429,280,3157,6,0,P|387:182|447:82,1,210,2|0,0:0|0:0,0:0:0:0:
357,17,4180,1,0,0:0:0:0:
266,70,4520,2,0,L|147:59,1,105
56,56,5202,1,2,0:0:0:0:
2,146,5543,1,0,0:0:0:0:
74,221,5884,6,0,B|141:213|141:213|206:235|206:235|288:227,1,210,6|0,0:0|0:0,0:0:0:0:
481,168,7248,2,0,L|490:279,1,105,6|0,0:0|0:0,0:0:0:0:
470,321,7759,2,0,P|428:311|354:332,1,105,8|8,0:0|3:0,0:0:0:0:
324,353,8270,1,8,3:0:0:0:
223,323,8611,6,0,B|183:214|257:224|219:100,1,210,6|0,0:0|0:0,0:0:0:0:
25,47,9975,2,0,L|35:158,1,105,6|0,0:0|0:0,0:0:0:0:
79,179,10486,2,0,L|69:290,1,105,8|8,3:0|3:0,0:0:0:0:
63,336,10998,1,8,3:0:0:0:
164,361,11339,6,0,P|214:345|277:346,1,105,6|2,0:0|0:0,0:0:0:0:
370,355,12020,2,0,L|374:301,1,52.5,2|2,0:0|0:0,0:0:0:0:
412,267,12361,2,0,L|408:213,1,52.5,2|2,0:0|0:0,0:0:0:0:
404,162,12702,1,12,0:0:0:0:
404,162,14066,6,0,P|354:173|286:150,1,105,6|2,0:0|0:0,0:0:0:0:
260,128,14577,2,0,P|210:139|142:116,1,105,8|0,0:0|0:0,0:0:0:0:
117,92,15089,1,8,0:0:0:0:
38,162,15430,1,2,0:0:0:0:
38,162,15600,2,0,L|46:275,1,105,8|2,0:0|0:0,0:0:0:0:
51,319,16111,1,8,0:0:0:0:
145,363,16452,1,8,0:0:0:0:
242,323,16793,6,0,P|296:309|362:326,1,105,6|2,0:0|0:0,0:0:0:0:
444,346,17475,2,0,L|452:237,1,105,2|2,0:0|0:0,0:0:0:0:
489,204,17986,1,8,0:0:0:0:
489,204,18157,2,0,L|481:95,1,105,2|2,0:0|0:0,0:0:0:0:
399,32,18839,2,0,P|348:19|286:28,1,105,2|2,0:0|0:0,0:0:0:0:
219,96,19520,6,0,L|211:205,1,105,2|2,0:0|0:0,0:0:0:0:
157,290,20202,2,0,P|106:296|52:276,1,105,2|2,0:0|0:0,0:0:0:0:
24,244,20714,1,8,0:0:0:0:
24,244,20884,2,0,L|16:135,1,105,2|2,0:0|0:0,0:0:0:0:
61,44,21566,1,2,0:0:0:0:
162,15,21907,1,2,0:0:0:0:
259,54,22248,6,0,P|303:68|368:50,1,105,6|2,0:0|0:0,0:0:0:0:
457,16,22930,2,0,L|468:124,1,105,2|2,0:0|0:0,0:0:0:0:
503,167,23441,1,8,0:0:0:0:
503,167,23611,2,0,L|492:275,1,105,2|2,0:0|0:0,0:0:0:0:
399,320,24293,2,0,P|353:298|290:296,1,105,2|2,0:0|0:0,0:0:0:0:
251,306,24805,1,8,3:0:0:0:
251,306,24975,6,0,L|247:188,1,105,2|2,0:0|0:0,0:0:0:0:
204,105,25657,2,0,P|148:87|89:104,1,105,2|2,0:0|0:0,0:0:0:0:
66,132,26168,1,8,0:0:0:0:
66,132,26339,2,0,L|62:250,1,105,2|2,0:0|0:0,0:0:0:0:
103,333,27020,1,2,0:0:0:0:
203,364,27361,1,2,0:0:0:0:
287,301,27702,6,0,P|343:276|393:276,1,105,6|2,0:0|0:0,0:0:0:0:
475,219,28384,2,0,L|465:99,1,105,2|2,0:0|0:0,0:0:0:0:
465,66,28895,1,8,0:0:0:0:
465,66,29066,2,0,P|404:75|356:62,1,105,2|2,0:0|0:0,0:0:0:0:
263,31,29748,1,2,0:0:0:0:
163,63,30089,1,2,0:0:0:0:
120,159,30430,6,0,L|8:149,2,105,6|2|2,0:0|0:0|0:0,0:0:0:0:
199,228,31452,2,0,L|255:223,1,52.5,2|8,0:0|0:0,0:0:0:0:
303,219,31793,2,0,L|289:338,2,105,2|2|2,0:0|0:0|0:0,0:0:0:0:
370,137,32816,2,0,L|363:77,1,52.5,2|8,0:0|0:0,0:0:0:0:
331,43,33157,6,0,P|283:34|229:48,1,105,6|2,0:0|0:0,0:0:0:0:
171,135,33839,2,0,L|185:254,1,105,2|2,0:0|0:0,0:0:0:0:
192,296,34350,1,8,0:0:0:0:
192,296,34520,2,0,P|141:313|79:300,1,105,2|2,0:0|0:0,0:0:0:0:
24,224,35202,1,2,0:0:0:0:
52,123,35543,1,2,0:0:0:0:
144,72,35884,6,0,P|206:79|261:60,2,105,6|2|2,0:0|0:0|0:0,0:0:0:0:
52,123,36907,2,0,L|61:196,1,52.5,2|8,0:0|0:0,0:0:0:0:
65,227,37248,1,6,0:0:0:0:
137,303,37589,1,8,3:0:0:0:
241,310,37930,2,0,P|286:294|325:245,1,105,8|8,3:0|3:0,0:0:0:0:
356,152,38611,6,0,B|442:133|430:184|510:166,2,157.5,6|8|4,0:0|0:0|3:0,0:0:0:0:
254,181,39975,2,0,P|254:122|317:53,2,157.5,6|8|4,0:0|0:0|3:0,0:0:0:0:
329,254,41339,6,0,L|493:245,2,157.5,2|8|4,0:0|0:0|3:0,0:0:0:0:
236,304,42702,2,0,P|160:334|56:267,1,210,6|6,0:0|0:0,0:0:0:0:
17,173,43725,1,8,0:0:0:0:
104,114,44066,6,0,B|208:106|208:106|259:131,2,157.5,6|8|4,0:0|0:0|3:0,0:0:0:0:
17,173,45430,2,0,P|5:248|49:328,2,157.5,6|8|4,0:0|0:0|3:0,0:0:0:0:
104,114,46793,6,0,P|146:183|136:266,2,157.5,6|8|4,0:0|0:0|3:0,0:0:0:0:
10,65,48157,2,0,P|73:83|206:29,1,210,6|6,0:0|0:0,0:0:0:0:
291,89,49180,1,8,0:0:0:0:
383,138,49520,6,0,L|374:247,1,105,6|0,0:0|0:0,0:0:0:0:
368,295,50032,2,0,P|329:264|214:270,1,157.5,2|8,0:0|0:0,0:0:0:0:
126,298,50884,2,0,L|119:187,1,105,2|0,0:0|0:0,0:0:0:0:
118,141,51395,1,2,0:0:0:0:
200,76,51736,2,0,L|196:20,2,52.5,8|8|8,0:0|0:0|0:0,0:0:0:0:
236,114,52248,6,0,P|314:134|390:101,1,157.5,2|0,0:0|0:0,0:0:0:0:
428,78,52930,2,0,L|436:186,1,105,8|8,0:0|3:0,0:0:0:0:
386,275,53611,2,0,P|332:287|280:282,1,105,6|0,0:0|0:0,0:0:0:0:
212,204,54293,2,0,P|158:216|106:211,1,105,6|0,0:0|0:0,0:0:0:0:
28,144,54975,5,0,0:0:0:0:
28,144,56339,5,2,0:0:0:0:
28,144,57702,6,0,L|31:249,1,105,8|8,0:0|0:0,0:0:0:0:
51,297,58214,2,0,P|94:285|162:294,1,105,8|8,0:0|0:0,0:0:0:0:
199,316,58725,1,8,0:0:0:0:
300,356,59066,1,8,0:0:0:0:
300,356,59236,2,0,P|343:344|411:353,1,105,8|8,0:0|0:0,0:0:0:0:
452,367,59748,1,8,0:0:0:0:
503,275,60089,1,8,0:0:0:0:
452,182,60430,6,0,L|343:176,1,105,12|8,0:0|0:0,0:0:0:0:
308,140,60941,2,0,L|199:146,1,105,12|8,0:0|0:0,0:0:0:0:
150,152,61452,1,8,0:0:0:0:
68,218,61793,2,0,B|38:267|38:267|43:329|81:362|139:355,1,210,6|0,0:0|0:0,0:0:0:0:
315,244,63157,6,0,L|306:121,1,105,6|8,0:0|0:0,0:0:0:0:
232,64,63839,1,2,0:0:0:0:
126,64,64180,1,8,0:0:0:0:
51,138,64520,2,0,L|42:261,1,105,2|8,0:0|0:0,0:0:0:0:
47,295,65032,2,0,P|93:294|153:323,1,105
183,355,65543,1,8,0:0:0:0:
279,313,65884,6,0,L|390:317,1,105,2|8,0:0|0:0,0:0:0:0:
477,269,66566,1,2,0:0:0:0:
510,169,66907,1,8,0:0:0:0:
458,77,67248,2,0,P|403:55|350:62,1,105,2|8,0:0|0:0,0:0:0:0:
319,94,67759,2,0,P|264:72|211:79,1,105
174,103,68270,1,8,0:0:0:0:
206,202,68611,6,0,L|198:320,1,105,6|8,0:0|0:0,0:0:0:0:
111,365,69293,1,2,0:0:0:0:
17,317,69634,1,8,0:0:0:0:
5,212,69975,2,0,P|47:187|103:182,1,105,2|8,0:0|0:0,0:0:0:0:
206,202,70657,1,0,0:0:0:0:
304,166,70998,1,8,0:0:0:0:
312,61,71339,6,0,L|204:50,1,105,6|8,0:0|0:0,0:0:0:0:
103,36,72020,2,0,P|70:84|71:150,1,105,2|8,0:0|0:0,0:0:0:0:
89,232,72702,1,8,0:0:0:0:
177,288,73043,1,8,0:0:0:0:
281,301,73384,1,8,0:0:0:0:
381,270,73725,2,8,L|384:207,1,52.5
391,165,74066,6,0,P|356:145|275:145,1,105,6|8,0:0|0:0,0:0:0:0:
249,168,74577,1,0,0:0:0:0:
249,168,74748,2,0,P|214:148|133:148,1,105,2|8,0:0|0:0,0:0:0:0:
87,59,75430,2,0,P|139:40|198:40,1,105,2|8,0:0|0:0,0:0:0:0:
237,56,75941,2,0,L|347:47,1,105
394,42,76452,1,8,0:0:0:0:
481,100,76793,6,0,P|493:152|480:209,1,105,2|8,0:0|0:0,0:0:0:0:
411,278,77475,1,2,0:0:0:0:
312,241,77816,2,0,L|252:243,1,52.5,8|0,0:0|0:0,0:0:0:0:
207,248,78157,1,2,0:0:0:0:
107,215,78498,1,2,0:0:0:0:
81,113,78839,1,10,0:0:0:0:
151,35,79180,2,0,L|216:39,1,52.5,10|8,0:0|0:0,0:0:0:0:
236,78,79520,6,0,L|358:65,1,105,6|8,0:0|0:0,0:0:0:0:
445,60,80202,1,2,0:0:0:0:
509,142,80543,1,8,0:0:0:0:
461,235,80884,2,0,P|414:255|339:246,1,105,6|8,0:0|0:0,0:0:0:0:
267,205,81566,1,2,0:0:0:0:
171,248,81907,1,8,0:0:0:0:
199,349,82248,6,0,L|323:353,1,105,6|8,0:0|0:0,0:0:0:0:
409,344,82930,1,2,0:0:0:0:
490,278,83270,1,8,0:0:0:0:
507,174,83611,2,0,P|507:130|473:60,1,105,2|8,0:0|0:0,0:0:0:0:
390,26,84293,1,2,0:0:0:0:
297,75,84634,2,8,L|226:67,1,52.5
192,65,84975,5,2,0:0:0:0:
90,90,85316,1,2,0:0:0:0:
20,168,85657,2,0,L|31:239,1,52.5,2|8,0:0|0:0,0:0:0:0:
66,256,85998,2,0,L|55:327,1,52.5,8|8,0:0|0:0,0:0:0:0:
50,360,86339,1,2,0:0:0:0:
256,192,87702,12,0,88981,0:0:0:0:
