osu file format v14

[General]
AudioFilename: bg.mp3
AudioLeadIn: 0
PreviewTime: 62305
Countdown: 0
SampleSet: Soft
StackLeniency: 0.7
Mode: 2
LetterboxInBreaks: 0
WidescreenStoryboard: 0

[Editor]
Bookmarks: 430,16793,27702,38611,49520,54975,63157
DistanceSpacing: 1.1
BeatDivisor: 4
GridSize: 4
TimelineZoom: 1.4

[Metadata]
Title:SHIORI -TV size mix-
TitleUnicode:SHIORI -TV size mix-
Artist:ClariS
ArtistUnicode:ClariS
Creator:Sinnoh
Version:Platter
Source:終物語
Tags:Fii -wwwww Spectator Owarimonogatari Ougi ending
BeatmapID:1387776
BeatmapSetID:653495

[Difficulty]
HPDrainRate:5
CircleSize:3.5
OverallDifficulty:8
ApproachRate:8
SliderMultiplier:1.8
SliderTickRate:2

[Events]
//Background and Video events
0,0,"audio.jpg",0,0
//Break Periods
//Storyboard Layer 0 (Background)
//Storyboard Layer 1 (Fail)
//Storyboard Layer 2 (Pass)
//Storyboard Layer 3 (Foreground)
//Storyboard Sound Samples

[TimingPoints]
430,340.909090909091,4,2,1,40,1,0
5884,-100,4,2,2,50,0,0
11339,-100,4,2,2,60,0,0
12702,-100,4,2,2,60,0,0
14066,-100,4,2,2,70,0,0
16793,-100,4,2,2,60,0,0
54975,-100,4,2,1,40,0,0
57702,-100,4,2,2,60,0,0
62475,-100,4,2,1,20,0,0
63157,-100,4,2,2,70,0,1
78157,-100,4,2,1,70,0,1
78498,-100,4,2,3,70,0,1
78839,-100,4,2,1,70,0,1
79180,-100,4,2,3,70,0,1
79520,-100,4,2,1,70,0,1
79691,-100,4,2,2,70,0,1
82248,-100,4,2,1,70,0,1
82589,-100,4,2,3,70,0,1
82930,-100,4,2,1,70,0,1
83270,-100,4,2,3,70,0,1
83611,-100,4,2,1,70,0,1
83952,-100,4,2,3,70,0,1
84293,-100,4,2,1,70,0,1
84378,-100,4,2,2,70,0,1
84975,-100,4,2,1,70,0,1
85145,-100,4,2,3,70,0,1
86339,-100,4,2,3,50,0,0
88981,-100,4,2,1,5,0,0

[Colours]
Combo1 : 207,217,115
Combo2 : 255,91,91
Combo3 : 255,128,255
Combo4 : 0,183,91

[HitObjects]
344,284,430,6,0,P|400:223|336:175,1,180,2|0,0:0|0:0,0:0:0:0:
257,178,941,1,0,0:0:0:0:
176,181,1111,1,0,0:0:0:0:
251,140,1282,1,0,0:0:0:0:
248,55,1452,1,0,0:0:0:0:
170,20,1623,1,0,0:0:0:0:
77,359,1793,6,0,L|63:245,1,90,2|0,0:0|0:0,0:0:0:0:
151,248,2134,1,0,0:0:0:0:
231,224,2305,2,0,P|279:200|211:116,1,180
96,96,2986,1,0,0:0:0:0:
342,267,3157,6,0,P|406:241|428:125,1,180,2|0,0:0|0:0,0:0:0:0:
349,115,3668,1,0,0:0:0:0:
244,210,3839,2,0,L|234:87,1,90,0|0,0:0|0:0,0:0:0:0:
346,107,4180,2,0,L|349:12,1,90,0|0,0:0|0:0,0:0:0:0:
456,204,4520,6,0,P|488:168|420:68,1,180,2|0,0:0|0:0,0:0:0:0:
325,198,5032,2,0,P|265:259|264:295,1,90,0|2,0:0|0:0,0:0:0:0:
382,280,5373,2,0,P|430:207|365:151,1,180,0|0,0:0|0:0,0:0:0:0:
133,286,5884,6,0,P|34:245|143:76,1,360,6|0,0:0|0:0,0:0:0:0:
205,112,6736,1,0,0:0:0:0:
209,198,6907,1,0,0:0:0:0:
136,244,7077,1,0,0:0:0:0:
295,318,7248,6,0,P|411:251|399:106,1,270,6|8,0:0|0:0,0:0:0:0:
322,120,7930,1,0,0:0:0:0:
237,61,8100,2,0,L|346:52,1,90,2|8,0:0|0:3,0:0:0:0:
410,41,8441,1,0,0:0:0:0:
242,329,8611,6,0,P|124:225|235:89,1,360,6|0,0:0|0:0,0:0:0:0:
319,68,9464,2,0,L|414:3,2,90,0|0|0,0:0|0:0|0:0,0:0:0:0:
126,288,9975,2,0,P|90:133|167:80,1,270,6|8,0:0|0:3,0:0:0:0:
316,93,10827,2,0,L|339:188,1,90,2|8,0:0|0:3,0:0:0:0:
94,268,11339,6,0,L|84:163,1,90,6|0,0:0|0:0,0:0:0:0:
177,168,11680,2,0,L|168:70,1,90,8|8,0:0|0:0,0:0:0:0:
319,172,12020,2,0,L|312:69,1,90,8|8,0:0|0:0,0:0:0:0:
473,165,12361,2,0,L|461:47,1,90,8|8,0:0|0:0,0:0:0:0:
135,65,12702,5,12,0:0:0:0:
369,224,13725,2,0,L|397:168,2,45,0|0|0,0:0|0:0|0:0,0:0:0:0:
126,245,14066,6,0,L|14:238,2,90,12|2|2,0:0|0:0|0:0,0:0:0:0:
280,180,14577,2,0,L|409:174,2,90,12|2|2,0:0|0:0|0:0,0:0:0:0:
112,190,15089,2,0,P|68:148|61:89,1,90,12|2,0:0|0:0,0:0:0:0:
163,304,15430,5,2,0:0:0:0:
320,277,15600,2,0,P|319:213|286:166,1,90,12|2,0:0|0:0,0:0:0:0:
217,187,15941,1,2,0:0:0:0:
368,122,16111,1,12,0:0:0:0:
484,292,16282,1,8,0:0:0:0:
498,248,16367,1,0,0:0:0:0:
498,203,16452,1,8,0:0:0:0:
482,151,16537,1,2,0:0:0:0:
447,113,16623,1,2,0:0:0:0:
210,278,16793,6,0,P|127:262|108:161,1,180,6|2,0:0|0:0,0:0:0:0:
176,128,17305,1,0,0:0:0:0:
272,136,17475,2,0,P|320:120|348:4,1,180,2|2,0:0|0:0,0:0:0:0:
264,21,17986,1,8,0:0:0:0:
114,183,18157,6,0,P|50:151|22:47,2,180,2|2|2,0:0|0:0|0:0,0:0:0:0:
206,115,19009,1,0,0:0:0:0:
128,113,19180,1,2,0:0:0:0:
50,114,19350,1,2,0:0:0:0:
304,232,19520,6,0,B|391:231|391:231|380:129,1,180,2|2,0:0|0:0,0:0:0:0:
290,162,20032,1,0,0:0:0:0:
213,183,20202,2,0,P|162:136|222:56,1,180,2|2,0:0|0:0,0:0:0:0:
303,63,20714,1,8,0:0:0:0:
476,232,20884,6,0,L|298:104,1,180,2|2,0:0|0:0,0:0:0:0:
255,65,21395,1,0,0:0:0:0:
361,309,21566,1,2,0:0:0:0:
441,280,21736,1,8,2:3:0:0:
451,195,21907,1,2,0:0:0:0:
378,150,22077,1,2,0:0:0:0:
145,290,22248,6,0,P|85:257|152:201,1,180,6|2,0:0|0:0,0:0:0:0:
243,200,22759,1,0,0:0:0:0:
338,197,22930,2,0,P|363:108|290:76,1,180,2|2,0:0|0:0,0:0:0:0:
196,81,23441,1,8,0:0:0:0:
38,253,23611,6,0,P|38:181|140:131,1,180,2|2,0:0|0:0,0:0:0:0:
222,124,24123,1,0,0:0:0:0:
124,260,24293,1,2,0:0:0:0:
48,219,24464,1,0,0:0:0:0:
49,134,24634,1,2,0:0:0:0:
126,96,24805,1,2,0:0:0:0:
367,285,24975,6,0,P|421:251|332:188,1,180,2|2,0:0|0:0,0:0:0:0:
262,170,25486,2,0,P|208:136|297:73,1,180,0|0,0:0|0:0,0:0:0:0:
356,56,25998,2,0,L|437:131,1,90,2|8,0:0|0:0,0:0:0:0:
137,271,26339,6,0,P|51:222|43:136,1,180,2|2,0:0|0:0,0:0:0:0:
134,119,26850,1,0,0:0:0:0:
293,126,27020,2,0,L|367:191,2,90,2|8|2,0:0|0:0|0:0,0:0:0:0:
198,124,27532,1,2,0:0:0:0:
434,223,27702,6,0,P|492:198|420:133,1,180,6|2,0:0|0:0,0:0:0:0:
352,130,28214,1,0,0:0:0:0:
269,208,28384,2,0,P|216:154|283:76,1,180,2|2,0:0|0:0,0:0:0:0:
342,103,28895,1,8,0:0:0:0:
190,309,29066,6,0,P|119:275|132:174,1,180,2|2,0:0|0:0,0:0:0:0:
212,194,29577,1,0,0:0:0:0:
312,202,29748,2,0,L|316:98,1,90,2|0,0:0|0:0,0:0:0:0:
196,102,30089,2,0,L|184:-14,1,90,2|2,0:0|0:0,0:0:0:0:
456,192,30430,6,0,P|496:160|408:92,1,180,2|2,0:0|0:0,0:0:0:0:
312,76,30941,2,0,L|224:156,2,90,0|2|0,0:0|0:0|0:0,0:0:0:0:
416,52,31452,2,0,L|320:136,1,90,2|8,0:0|0:0,0:0:0:0:
184,326,31793,6,0,P|115:270|125:187,1,180,2|2,0:0|0:0,0:0:0:0:
219,177,32305,1,0,0:0:0:0:
317,182,32475,1,2,0:0:0:0:
394,216,32645,1,0,0:0:0:0:
396,301,32816,1,2,0:0:0:0:
319,339,32986,1,2,0:0:0:0:
60,340,33157,6,0,P|52:252|127:209,1,180,2|2,0:0|0:0,0:0:0:0:
225,198,33668,1,0,0:0:0:0:
320,182,33839,2,0,L|243:136,1,90,2|0,0:0|0:0,0:0:0:0:
138,122,34180,2,0,L|219:165,1,90,2|8,0:0|0:0,0:0:0:0:
388,238,34520,6,0,P|438:109|402:90,1,180,2|2,0:0|0:0,0:0:0:0:
326,97,35032,1,0,0:0:0:0:
287,149,35202,1,2,0:0:0:0:
379,258,35373,2,0,P|426:269|456:310,2,90,8|2|2,0:0|0:0|0:0,0:0:0:0:
145,257,35884,6,0,P|75:232|42:129,1,180,6|2,0:0|0:0,0:0:0:0:
150,137,36395,2,0,P|220:112|253:9,1,180,0|0,0:0|0:0,0:0:0:0:
162,14,36907,1,2,0:0:0:0:
72,18,37077,1,8,0:0:0:0:
312,297,37248,5,6,0:0:0:0:
388,260,37418,1,8,0:0:0:0:
384,175,37589,1,2,0:0:0:0:
305,145,37759,1,2,0:0:0:0:
206,83,37930,2,0,L|297:20,2,90,2|8|2,0:0|2:3|0:0,0:0:0:0:
481,364,38611,6,0,L|293:291,1,180,6|0,0:0|0:0,0:0:0:0:
229,269,39123,1,2,0:0:0:0:
327,208,39293,2,0,P|389:162|312:113,1,180,0|8,0:0|0:0,0:0:0:0:
50,142,39975,6,0,L|234:82,1,180,2|0,0:0|0:0,0:0:0:0:
301,49,40486,1,2,0:0:0:0:
212,30,40657,2,0,L|114:61,2,90,0|8|2,0:0|0:0|0:0,0:0:0:0:
473,290,41339,6,0,P|469:202|379:169,1,180,2|0,0:0|0:0,0:0:0:0:
302,170,41850,1,2,0:0:0:0:
214,191,42020,2,0,P|144:138|148:51,1,180,0|2,0:0|0:0,0:0:0:0:
468,247,42702,6,0,L|281:226,1,180,6|0,0:0|0:0,0:0:0:0:
473,184,43384,2,0,P|491:127|381:73,1,180,4|8,0:0|0:0,0:0:0:0:
307,64,43895,1,0,0:0:0:0:
60,273,44066,6,0,P|12:252|90:183,1,180,6|0,0:0|0:0,0:0:0:0:
155,175,44577,1,2,0:0:0:0:
248,183,44748,2,0,P|318:159|315:55,1,180,0|2,0:0|0:0,0:0:0:0:
61,88,45430,6,0,L|253:55,1,180,2|0,0:0|0:0,0:0:0:0:
160,181,45941,1,2,0:0:0:0:
70,209,46111,2,0,P|61:265|78:295,1,90,0|8,0:0|0:0,0:0:0:0:
165,326,46452,1,2,0:0:0:0:
453,332,46793,6,0,P|499:311|429:231,1,180,2|0,0:0|0:0,0:0:0:0:
357,228,47305,1,2,0:0:0:0:
268,215,47475,2,0,L|451:192,1,180,0|2,0:0|0:0,0:0:0:0:
350,140,47986,1,0,0:0:0:0:
118,225,48157,6,0,P|63:191|125:125,1,180,2|0,0:0|0:0,0:0:0:0:
372,180,48839,2,0,P|438:140|374:57,1,180,2|8,0:0|0:0,0:0:0:0:
73,311,49520,6,0,L|269:258,1,180,6|0,0:0|0:0,0:0:0:0:
339,245,50032,1,2,0:0:0:0:
425,218,50202,2,0,P|430:154|334:112,1,180,0|8,0:0|0:0,0:0:0:0:
51,249,50884,6,0,P|36:177|138:139,1,180,2|0,0:0|0:0,0:0:0:0:
218,137,51395,1,2,0:0:0:0:
122,74,51566,2,0,L|34:41,2,90,0|8|2,0:0|0:0|0:0,0:0:0:0:
388,252,52248,6,0,P|446:226|444:112,1,180,2|0,0:0|0:0,0:0:0:0:
352,128,52759,1,0,0:0:0:0:
246,110,52930,2,0,L|201:49,2,60,8|8|8,0:0|0:0|2:3,0:0:0:0:
330,113,53270,2,0,L|375:52,2,60,2|2|2,0:0|0:0|0:0,0:0:0:0:
190,152,53611,6,0,P|140:126|117:8,1,180,6|0,0:0|0:0,0:0:0:0:
427,202,54293,2,0,P|446:147|360:61,1,180,6|0,0:0|0:0,0:0:0:0:
192,64,54975,1,2,0:0:0:0:
431,228,55998,1,0,0:0:0:0:
270,223,56339,6,0,P|217:152|282:83,1,180,2|0,0:0|0:0,0:0:0:0:
369,172,56850,2,0,P|423:136|460:27,2,180,0|0|0,0:0|0:0|0:0,0:0:0:0:
196,180,57702,6,0,L|101:110,2,90,8|8|8,0:0|0:0|0:0,0:0:0:0:
313,180,58214,2,0,L|408:110,2,90,8|8|8,0:0|0:0|0:0,0:0:0:0:
119,202,58725,2,0,L|24:132,2,90,8|8|8,0:0|0:0|0:0,0:0:0:0:
294,204,59236,6,0,L|389:134,2,90,8|8|8,0:0|0:0|0:0,0:0:0:0:
182,207,59748,2,0,L|181:94,1,90,8|8,0:0|0:0,0:0:0:0:
308,108,60089,2,0,L|314:10,1,90,8|8,0:0|0:0,0:0:0:0:
39,201,60430,6,0,L|35:84,1,90,12|0,0:0|0:0,0:0:0:0:
131,90,60770,1,2,0:0:0:0:
367,261,60941,2,0,L|375:160,1,90,8|2,1:2|0:0,0:0:0:0:
272,144,61282,1,8,0:0:0:0:
176,132,61452,2,0,L|133:74,2,45,2|0|8,0:0|0:0|0:0,0:0:0:0:
476,245,61793,6,0,P|505:170|425:-2,1,270,4|0,0:0|0:0,0:0:0:0:
196,108,63157,6,0,L|378:86,1,180,6|8,0:0|0:0,0:0:0:0:
276,48,63668,1,0,0:0:0:0:
196,244,63839,2,0,L|184:128,1,90,2|2,0:0|0:0,0:0:0:0:
300,224,64180,2,0,L|375:135,1,90,8|0,0:0|0:0,0:0:0:0:
122,240,64520,6,0,P|68:192|148:112,1,180,2|8,0:0|0:0,0:0:0:0:
235,155,65032,2,0,P|282:102|215:34,1,180,0|2,0:0|0:0,0:0:0:0:
98,157,65543,2,0,L|83:54,1,90,8|0,0:0|0:0,0:0:0:0:
371,120,65884,6,0,P|423:155|367:248,1,180,2|8,0:0|0:0,0:0:0:0:
270,132,66395,1,0,0:0:0:0:
375,226,66566,2,0,L|473:172,1,90,2|2,0:0|0:0,0:0:0:0:
356,145,66907,2,0,L|350:23,1,90,8|0,0:0|0:0,0:0:0:0:
115,262,67248,6,0,L|92:152,1,90,2|2,0:0|0:0,0:0:0:0:
209,177,67589,2,0,L|200:61,1,90,8|0,0:0|0:0,0:0:0:0:
318,138,67930,2,0,L|326:16,1,90,2|2,0:0|0:0,0:0:0:0:
438,205,68270,2,0,L|450:90,1,90,8|0,0:0|0:0,0:0:0:0:
149,160,68611,6,0,P|86:205|163:240,1,180,6|8,0:0|0:0,0:0:0:0:
264,144,69123,1,0,0:0:0:0:
271,102,69208,1,0,0:0:0:0:
229,76,69293,2,0,L|137:57,1,90,2|2,0:0|0:0,0:0:0:0:
36,64,69634,2,0,L|136:33,1,90,8|0,0:0|0:0,0:0:0:0:
376,256,69975,6,0,P|435:225|358:170,1,180,6|8,0:0|0:0,0:0:0:0:
270,159,70486,1,0,0:0:0:0:
174,99,70657,2,0,L|381:71,1,180,2|8,0:0|0:0,0:0:0:0:
449,59,71168,1,0,0:0:0:0:
185,267,71339,6,0,L|97:204,1,90,6|2,0:0|0:0,0:0:0:0:
211,178,71680,2,0,L|297:127,1,90,8|0,0:0|0:0,0:0:0:0:
386,113,72020,2,0,L|298:54,1,90,2|2,0:0|0:0,0:0:0:0:
202,85,72361,2,0,L|163:34,2,45,8|0|2,0:0|0:0|0:0,0:0:0:0:
472,231,72702,6,0,L|470:140,1,90,12|2,0:0|0:0,0:0:0:0:
365,136,73043,2,0,L|362:32,1,90,12|2,0:0|0:0,0:0:0:0:
249,117,73384,1,14,0:0:0:0:
365,136,73555,1,8,0:0:0:0:
405,153,73640,1,8,0:0:0:0:
425,192,73725,1,8,0:0:0:0:
413,234,73810,1,8,0:0:0:0:
377,259,73895,1,8,0:0:0:0:
102,262,74066,6,0,L|-12:247,2,90,6|2|8,0:0|0:0|0:0,0:0:0:0:
195,275,74577,1,0,0:0:0:0:
288,272,74748,2,0,L|293:167,1,90,2|2,0:0|0:0,0:0:0:0:
176,180,75089,2,0,L|171:69,1,90,8|0,0:0|0:0,0:0:0:0:
406,107,75430,6,0,L|487:61,1,90,2|2,0:0|0:0,0:0:0:0:
374,53,75770,2,0,L|280:101,1,90,8|0,0:0|0:0,0:0:0:0:
417,180,76111,2,0,L|498:228,1,90,2|2,0:0|0:0,0:0:0:0:
391,254,76452,2,0,L|508:290,1,90,8|0,0:0|0:0,0:0:0:0:
217,335,76793,5,2,0:0:0:0:
140,294,76964,1,2,0:0:0:0:
136,208,77134,1,8,0:0:0:0:
207,160,77305,1,0,0:0:0:0:
308,128,77475,2,0,L|197:86,1,90,2|2,0:0|0:0,0:0:0:0:
328,169,77816,2,0,L|332:69,1,90,8|0,0:0|0:0,0:0:0:0:
66,227,78157,6,0,L|68:111,1,90,10|8,0:0|0:0,0:0:0:0:
174,173,78498,2,0,L|177:67,1,90,10|0,0:0|0:0,0:0:0:0:
289,155,78839,2,0,L|308:102,2,45,10|0|8,0:0|0:0|0:0,0:0:0:0:
172,289,79180,2,0,L|68:244,1,90,10|8,0:0|0:0,0:0:0:0:
385,291,79520,6,0,P|440:256|460:144,1,180,14|8,0:0|0:0,0:0:0:0:
381,114,80032,1,0,0:0:0:0:
291,143,80202,2,0,L|369:188,1,90,2|2,0:0|0:0,0:0:0:0:
457,167,80543,1,8,0:0:0:0:
466,122,80628,1,0,0:0:0:0:
436,89,80714,1,0,0:0:0:0:
191,285,80884,6,0,P|140:252|120:132,1,180,6|8,0:0|0:0,0:0:0:0:
195,108,81395,1,0,0:0:0:0:
305,114,81566,2,0,L|310:19,1,90,2|2,0:0|0:0,0:0:0:0:
187,116,81907,2,0,P|173:70|181:-3,1,90,8|0,0:0|0:0,0:0:0:0:
435,238,82248,6,0,P|478:210|395:119,1,180,14|8,0:0|0:0,0:0:0:0:
341,239,82759,1,0,0:0:0:0:
246,220,82930,2,0,L|336:162,1,90,10|8,0:0|0:0,0:0:0:0:
413,135,83270,2,0,L|303:90,1,90,8|0,0:0|0:0,0:0:0:0:
153,216,83611,6,0,L|122:113,1,90,10|8,0:0|0:0,0:0:0:0:
243,118,83952,2,0,L|230:14,1,90,8|0,0:0|0:0,0:0:0:0:
352,151,84293,2,0,L|378:104,2,45,10|8|2,0:0|0:0|0:0,0:0:0:0:
239,180,84634,2,0,L|146:127,1,90,8|8,0:0|0:0,0:0:0:0:
394,325,84975,5,14,0:0:0:0:
466,280,85145,1,8,0:0:0:0:
501,195,85316,1,8,0:0:0:0:
466,280,85486,1,8,0:0:0:0:
394,325,85657,1,8,0:0:0:0:
144,319,85827,1,8,0:0:0:0:
96,294,85912,1,8,0:0:0:0:
85,244,85998,1,8,0:0:0:0:
96,294,86083,1,8,0:0:0:0:
144,319,86168,1,8,0:0:0:0:
448,108,86339,5,10,0:0:0:0:
256,192,87702,12,0,88981,0:0:0:0:
