osu file format v14

[General]
AudioFilename: bg.mp3
AudioLeadIn: 0
PreviewTime: 62305
Countdown: 0
SampleSet: Soft
StackLeniency: 0.7
Mode: 2
LetterboxInBreaks: 0
WidescreenStoryboard: 0

[Editor]
Bookmarks: 558,16921,27830,38739,55103,74194,89194
DistanceSpacing: 1
BeatDivisor: 8
GridSize: 4
TimelineZoom: 1.4

[Metadata]
Title:SHIORI -TV size mix-
TitleUnicode:SHIORI -TV size mix-
Artist:ClariS
ArtistUnicode:ClariS
Creator:Sinnoh
Version:Kaitlin & Spec's Rain
Source:終物語
Tags:Fii -wwwww Spectator Owarimonogatari Ougi ending
BeatmapID:1385265
BeatmapSetID:653495

[Difficulty]
HPDrainRate:6
CircleSize:4
OverallDifficulty:9.1
ApproachRate:9.1
SliderMultiplier:2.08
SliderTickRate:2

[Events]
//Background and Video events
0,0,"audio.jpg",0,0
//Break Periods
//Storyboard Layer 0 (Background)
//Storyboard Layer 1 (Fail)
//Storyboard Layer 2 (Pass)
//Storyboard Layer 3 (Foreground)
//Storyboard Sound Samples

[TimingPoints]
430,340.909090909091,4,2,1,40,1,0
430,-125,4,2,1,40,0,0
5884,-125,4,2,2,50,0,0
11339,-125,4,2,2,60,0,0
11680,-100,4,2,2,60,0,0
12702,-100,4,2,2,60,0,0
13725,-100,4,2,2,60,0,0
14066,-100,4,2,2,70,0,0
16793,-100,4,2,2,60,0,0
54208,-100,4,2,2,60,0,0
54293,-100,4,2,2,60,0,0
54890,-100,4,2,2,60,0,0
54975,-142.857142857143,4,2,1,40,0,0
57702,-100,4,2,2,60,0,0
62305,-125,4,2,2,60,0,0
62475,-125,4,2,1,20,0,0
63157,-100,4,2,2,70,0,1
78157,-100,4,2,1,70,0,1
78498,-100,4,2,3,70,0,1
78839,-100,4,2,1,70,0,1
79180,-100,4,2,3,70,0,1
79520,-100,4,2,1,70,0,1
79691,-100,4,2,2,70,0,1
82248,-100,4,2,1,70,0,1
82589,-100,4,2,3,70,0,1
82930,-100,4,2,1,70,0,1
83270,-100,4,2,3,70,0,1
83611,-100,4,2,1,70,0,1
83952,-100,4,2,3,70,0,1
84293,-100,4,2,1,70,0,1
84378,-100,4,2,2,70,0,1
84975,-100,4,2,1,70,0,1
85145,-100,4,2,3,70,0,1
86339,-100,4,2,3,50,0,0
88981,-100,4,2,1,5,0,0

[Colours]
Combo1 : 207,217,115
Combo2 : 255,91,91
Combo3 : 255,128,255
Combo4 : 0,183,91

[HitObjects]
173,322,259,5,0,0:0:0:0:
305,323,430,5,2,0:0:0:0:
370,287,600,1,0,0:0:0:0:
390,215,770,1,0,0:0:0:0:
362,145,941,1,0,0:0:0:0:
251,237,1111,1,0,0:0:0:0:
186,201,1282,1,0,0:0:0:0:
166,129,1452,1,0,0:0:0:0:
194,59,1623,1,0,0:0:0:0:
317,141,1793,6,0,L|328:57,1,83.2,2|0,0:0|0:0,0:0:0:0:
200,52,2134,1,0,0:0:0:0:
312,236,2305,2,0,P|375:184|392:104,1,166.4
236,216,2816,2,0,L|152:218,1,83.2,0|2,0:0|0:0,0:0:0:0:
298,158,3157,5,2,0:0:0:0:
346,101,3327,1,0,0:0:0:0:
326,28,3498,1,0,0:0:0:0:
254,6,3668,1,0,0:0:0:0:
137,186,3839,1,0,0:0:0:0:
89,129,4009,1,0,0:0:0:0:
109,56,4180,1,0,0:0:0:0:
181,34,4350,1,0,0:0:0:0:
328,248,4520,6,0,P|372:210|317:126,1,166.4,2|0,0:0|0:0,0:0:0:0:
162,177,5032,2,0,P|145:119|242:57,1,166.4
356,62,5543,2,0,L|273:61,1,83.2,2|0,0:0|0:0,0:0:0:0:
418,303,5884,6,0,P|479:244|371:168,1,249.6,6|0,0:0|0:0,0:0:0:0:
220,180,6566,2,0,P|191:135|251:41,1,166.4
432,248,7248,6,0,P|474:198|386:127,1,166.4,6|0,0:0|0:0,0:0:0:0:
247,133,7759,2,0,L|80:143,1,166.4,8|2,0:0|0:0,0:0:0:0:
169,299,8270,2,0,L|250:281,1,83.2,8|0,0:3|0:0,0:0:0:0:
420,272,8611,5,6,0:0:0:0:
466,213,8782,1,0,0:0:0:0:
446,140,8952,1,0,0:0:0:0:
385,94,9123,1,0,0:0:0:0:
268,273,9293,2,0,P|236:233|232:195,1,83.2,0|0,0:0|0:0,0:0:0:0:
360,159,9634,2,0,P|392:119|396:81,1,83.2,0|0,0:0|0:0,0:0:0:0:
273,348,9975,6,0,P|235:290|309:235,1,166.4,4|8,0:0|0:0,0:0:0:0:
178,234,10486,2,0,P|123:199|132:90,1,166.4,8|2,0:3|0:0,0:0:0:0:
276,47,10998,2,0,L|372:43,1,83.2,8|0,0:3|0:0,0:0:0:0:
112,293,11339,6,0,P|36:255|36:177,1,166.4,6|8,0:0|0:0,0:0:0:0:
148,100,11850,1,8,0:0:0:0:
399,169,12020,2,0,L|509:157,1,104,8|8,0:0|0:0,0:0:0:0:
213,74,12361,2,0,L|103:62,1,104,8|8,0:0|0:0,0:0:0:0:
440,66,12702,5,12,0:0:0:0:
159,272,13725,1,0,0:0:0:0:
135,225,13810,1,0,0:0:0:0:
156,183,13895,1,0,0:0:0:0:
207,171,13981,1,0,0:0:0:0:
409,305,14066,6,0,L|398:202,1,104,12|2,0:0|0:0,0:0:0:0:
269,163,14407,1,2,0:0:0:0:
403,210,14577,6,0,L|371:108,1,104,12|2,0:0|0:0,0:0:0:0:
205,52,14918,1,2,0:0:0:0:
481,131,15089,6,0,L|411:49,1,104,12|2,0:0|0:0,0:0:0:0:
249,52,15430,1,2,0:0:0:0:
429,254,15600,6,0,L|323:244,2,104,12|2|2,0:0|0:0|0:0,0:0:0:0:
178,328,16111,2,0,P|141:288|151:214,1,104,12|8,0:0|0:0,0:0:0:0:
202,186,16367,1,0,0:0:0:0:
375,228,16452,1,8,0:0:0:0:
424,192,16537,1,2,0:0:0:0:
432,140,16623,1,2,0:0:0:0:
394,96,16708,1,2,0:0:0:0:
100,44,16793,6,0,P|60:92|144:180,1,208,2|2,0:0|0:0,0:0:0:0:
328,60,17475,2,0,P|368:108|284:196,1,208,2|2,0:0|0:0,0:0:0:0:
176,180,17986,1,8,0:0:0:0:
432,196,18157,6,0,P|472:244|388:332,1,208,2|2,0:0|0:0,0:0:0:0:
168,44,18839,1,2,0:0:0:0:
89,108,19009,1,0,0:0:0:0:
71,208,19180,1,2,0:0:0:0:
122,296,19350,1,2,0:0:0:0:
231,336,19520,6,0,P|283:328|439:360,1,208,2|2,0:0|0:0,0:0:0:0:
355,300,20032,1,0,0:0:0:0:
225,172,20202,2,0,P|185:220|269:308,1,208,2|2,0:0|0:0,0:0:0:0:
392,272,20714,1,8,0:0:0:0:
160,68,20884,6,0,P|111:85|59:89,1,104,2|0,0:0|0:0,0:0:0:0:
216,128,21225,2,0,P|228:192|112:264,1,208,2|2,0:0|0:0,0:0:0:0:
16,240,21736,1,8,2:3:0:0:
140,360,21907,2,0,L|24:344,1,104,2|2,0:0|0:0,0:0:0:0:
280,340,22248,5,6,0:0:0:0:
440,320,22589,1,2,0:0:0:0:
228,320,22930,1,2,0:0:0:0:
149,256,23100,1,0,0:0:0:0:
131,156,23270,1,2,0:0:0:0:
182,68,23441,1,8,0:0:0:0:
292,32,23611,6,0,P|360:24|408:0,1,104,2|0,0:0|0:0,0:0:0:0:
244,136,23952,2,0,P|156:156|76:72,1,208,2|2,0:0|0:0,0:0:0:0:
160,196,24464,1,0,0:0:0:0:
24,296,24634,2,0,P|92:304|140:328,1,104,2|2,0:0|0:0,0:0:0:0:
436,372,24975,6,0,P|392:344|240:384,2,208,2|2|2,0:0|0:0|0:0,0:0:0:0:
292,312,25827,2,0,P|280:256|304:208,1,104,0|2,0:0|0:0,0:0:0:0:
424,148,26168,1,12,0:0:0:0:
164,168,26339,6,4,P|192:72|284:12,1,208,6|6,0:0|0:0,0:0:0:0:
408,16,26850,1,0,0:0:0:0:
104,228,27020,1,2,0:0:0:0:
100,292,27191,1,8,0:0:0:0:
140,343,27361,1,2,0:0:0:0:
220,360,27532,2,0,L|270:349,1,52,2|0,0:0|0:0,0:0:0:0:
471,303,27702,6,0,P|454:229|321:190,1,208,6|2,0:0|0:0,0:0:0:0:
207,118,28214,1,0,0:0:0:0:
343,288,28384,2,0,P|393:253|325:144,1,208,2|2,0:0|0:0,0:0:0:0:
205,142,28895,1,8,0:0:0:0:
443,358,29066,6,0,L|469:222,1,104,2|0,0:0|0:0,0:0:0:0:
320,219,29407,2,0,L|294:83,1,104,2|0,0:0|0:0,0:0:0:0:
436,297,29748,1,2,0:0:0:0:
495,212,29918,1,0,0:0:0:0:
463,112,30089,1,2,0:0:0:0:
365,76,30259,1,2,0:0:0:0:
101,318,30430,6,0,P|72:245|173:170,1,208,2|2,0:0|0:0,0:0:0:0:
273,167,30941,1,0,0:0:0:0:
167,263,31111,2,0,P|141:204|145:121,1,104,2|0,0:0|0:0,0:0:0:0:
284,264,31452,2,0,P|310:205|306:122,1,104,2|8,0:0|0:0,0:0:0:0:
57,358,31793,6,0,L|42:246,1,104,2|0,0:0|0:0,0:0:0:0:
159,223,32134,2,0,L|176:100,1,104,2|0,0:0|0:0,0:0:0:0:
31,203,32475,1,2,0:0:0:0:
20,110,32645,1,0,0:0:0:0:
158,103,32816,1,2,0:0:0:0:
27,105,32986,1,2,0:0:0:0:
388,348,33157,6,0,P|428:302|329:240,1,208,2|2,0:0|0:0,0:0:0:0:
234,221,33668,1,0,0:0:0:0:
105,260,33839,2,0,L|88:154,1,104,0|2,0:0|0:0,0:0:0:0:
385,143,34180,2,0,P|431:111|436:32,1,104,2|8,0:0|0:0,0:0:0:0:
188,332,34520,6,0,P|128:288|188:184,1,208,2|2,0:0|0:0,0:0:0:0:
292,184,35032,1,0,0:0:0:0:
408,184,35202,2,0,L|448:88,1,104,2|8,0:0|0:0,0:0:0:0:
328,44,35543,1,2,0:0:0:0:
452,72,35714,1,2,0:0:0:0:
198,314,35884,6,0,P|143:268|185:151,1,208,6|2,0:0|0:0,0:0:0:0:
340,196,36395,2,0,P|380:186|409:126,2,104,0|2|0,0:0|0:0|0:0,0:0:0:0:
166,212,36907,2,0,L|41:196,1,104,2|8,0:0|0:0,0:0:0:0:
347,363,37248,6,0,P|398:330|406:262,1,104,6|8,0:0|0:0,0:0:0:0:
165,363,37589,2,0,P|114:330|106:262,1,104,2|2,0:0|0:0,0:0:0:0:
332,234,37930,1,2,0:0:0:0:
211,207,38100,1,8,2:3:0:0:
334,134,38270,1,2,0:0:0:0:
35,50,38611,6,0,P|14:110|126:213,1,208,6|0,0:0|0:0,0:0:0:0:
225,172,39123,1,2,0:0:0:0:
96,248,39293,2,0,L|288:376,1,208,0|8,0:0|0:0,0:0:0:0:
143,332,39805,1,0,0:0:0:0:
383,55,39975,5,2,0:0:0:0:
430,104,40145,1,0,0:0:0:0:
444,171,40316,1,0,0:0:0:0:
422,235,40486,1,2,0:0:0:0:
326,277,40657,2,0,L|217:268,2,104,0|8|2,0:0|0:0|0:0,0:0:0:0:
104,239,41339,6,0,P|215:238|298:186,1,208,2|0,0:0|0:0,0:0:0:0:
174,117,41850,1,2,0:0:0:0:
456,229,42020,2,0,P|477:144|385:62,1,208,0|2,0:0|0:0,0:0:0:0:
306,54,42532,1,0,0:0:0:0:
68,165,42702,6,0,P|47:80|139:-2,1,208,6|0,0:0|0:0,0:0:0:0:
434,208,43384,2,0,P|455:293|363:375,1,208,4|8,0:0|0:0,0:0:0:0:
284,383,43895,1,0,0:0:0:0:
28,288,44066,6,0,P|12:224|116:128,1,208,6|0,0:0|0:0,0:0:0:0:
208,116,44577,1,0,0:0:0:0:
328,316,44748,2,0,L|220:304,1,104
84,102,45089,2,0,L|204:76,1,104,2|0,0:0|0:0,0:0:0:0:
460,168,45430,6,0,L|474:48,1,104,2|0,0:0|0:0,0:0:0:0:
308,356,45770,2,0,P|296:312|316:248,1,104,2|0,0:0|0:0,0:0:0:0:
376,184,46111,1,0,0:0:0:0:
472,152,46282,1,8,0:0:0:0:
334,17,46452,2,0,P|391:34|453:33,1,104,2|0,0:0|0:0,0:0:0:0:
185,79,46793,6,0,P|92:107|65:225,1,208,2|0,0:0|0:0,0:0:0:0:
164,265,47305,1,2,0:0:0:0:
285,317,47475,2,0,P|334:303|376:261,2,104,0|0|2,0:0|0:0|0:0,0:0:0:0:
164,265,47986,1,0,0:0:0:0:
394,120,48157,6,0,P|440:196|366:308,1,208,2|0,0:0|0:0,0:0:0:0:
306,329,48668,1,2,0:0:0:0:
51,69,48839,2,0,L|177:54,1,104,2|0,0:0|0:0,0:0:0:0:
440,280,49180,2,0,L|405:396,1,104,8|0,0:0|0:0,0:0:0:0:
127,336,49520,6,0,L|21:351,2,104,6|0|0,0:0|0:0|0:0,0:0:0:0:
235,370,50032,1,2,0:0:0:0:
71,292,50202,2,0,P|61:231|184:141,1,208,0|8,0:0|0:0,0:0:0:0:
258,162,50714,1,0,0:0:0:0:
490,152,50884,6,0,P|500:91|377:1,1,208,2|0,0:0|0:0,0:0:0:0:
302,36,51395,1,2,0:0:0:0:
262,129,51566,1,0,0:0:0:0:
297,224,51736,1,8,0:0:0:0:
388,268,51907,2,0,L|509:280,1,104,2|0,0:0|0:0,0:0:0:0:
226,346,52248,6,0,L|4:366,1,208,2|0,0:0|0:0,0:0:0:0:
125,319,52759,1,0,0:0:0:0:
381,357,52930,6,0,L|465:373,2,69.3333333333333,8|8|8,0:0|0:0|2:3,0:0:0:0:
192,212,53270,2,0,L|108:228,2,69.3333333333333,2|2|2,0:0|0:0|0:0,0:0:0:0:
367,50,53611,6,0,P|482:110|367:285,1,364,6|0,0:0|0:0,0:0:0:0:
145,334,54293,6,0,P|30:274|145:99,1,364,6|0,0:0|0:0,0:0:0:0:
217,111,54975,5,2,0:0:0:0:
416,192,55998,1,0,0:0:0:0:
232,296,56339,2,0,B|136:296|136:296|274:297,1,218.399993334961,2|0,0:0|0:0,0:0:0:0:
460,176,57191,1,0,0:0:0:0:
264,176,57532,1,0,0:0:0:0:
448,347,57702,6,0,L|471:233,1,104,8|8,0:0|0:0,0:0:0:0:
361,195,58043,1,8,0:0:0:0:
204,304,58214,2,0,L|181:190,1,104,8|8,0:0|0:0,0:0:0:0:
291,152,58555,1,8,0:0:0:0:
64,347,58725,6,0,L|41:233,1,104,8|8,0:0|0:0,0:0:0:0:
151,195,59066,1,8,0:0:0:0:
326,312,59236,2,0,L|349:198,1,104,8|8,0:0|0:0,0:0:0:0:
239,160,59577,1,8,0:0:0:0:
110,224,59748,2,0,L|98:106,1,104,8|8,0:0|0:0,0:0:0:0:
402,224,60089,2,0,L|414:106,1,104,8|8,0:0|0:0,0:0:0:0:
82,245,60430,5,12,0:0:0:0:
186,168,60600,1,0,0:0:0:0:
71,108,60770,1,2,0:0:0:0:
344,179,60941,1,8,1:2:0:0:
240,102,61111,1,2,0:0:0:0:
355,42,61282,1,8,0:0:0:0:
103,329,61452,2,0,L|81:273,1,52,2|0,0:0|0:0,0:0:0:0:
243,239,61623,2,0,L|268:175,1,52,8|2,0:0|0:0,0:0:0:0:
91,125,61793,1,4,0:0:0:0:
331,293,62305,6,0,P|407:269|311:205,1,249.6,2|0,0:0|0:0,0:0:0:0:
90,218,63157,6,0,P|161:208|302:207,1,208,6|8,0:0|0:0,0:0:0:0:
424,132,63668,1,0,0:0:0:0:
189,349,63839,2,0,L|67:338,1,104,2|2,0:0|0:0,0:0:0:0:
241,229,64180,2,0,L|381:203,1,104,8|0,0:0|0:0,0:0:0:0:
58,242,64520,6,0,P|42:171|165:94,1,208,2|8,0:0|0:0,0:0:0:0:
278,160,65032,2,0,P|269:86|153:29,1,208
38,91,65543,1,8,0:0:0:0:
152,168,65714,2,0,L|223:159,1,52
384,236,65884,6,0,P|436:196|365:96,1,208,2|8,0:0|0:0,0:0:0:0:
211,96,66395,1,0,0:0:0:0:
331,317,66566,2,0,L|356:183,1,104,2|2,0:0|0:0,0:0:0:0:
188,171,66907,2,0,L|163:37,1,104,8|0,0:0|0:0,0:0:0:0:
409,304,67248,6,0,P|472:261|410:157,1,208,2|8,0:0|0:0,0:0:0:0:
281,122,67759,2,0,L|398:106,2,104,0|2|2,0:0|0:0|0:0,0:0:0:0:
46,214,68270,2,0,L|25:94,1,104,8|0,0:0|0:0,0:0:0:0:
90,77,68526,1,0,0:0:0:0:
316,351,68611,6,0,P|377:326|320:207,1,208,6|8,0:0|0:0,0:0:0:0:
228,212,69123,1,0,0:0:0:0:
354,262,69293,2,0,L|379:147,1,104,2|2,0:0|0:0,0:0:0:0:
244,113,69634,1,8,0:0:0:0:
365,83,69805,1,0,0:0:0:0:
103,294,69975,6,0,P|42:269|99:150,1,208,6|8,0:0|0:0,0:0:0:0:
191,155,70486,1,0,0:0:0:0:
41,206,70657,2,0,L|16:91,1,104,2|2,0:0|0:0,0:0:0:0:
196,67,70998,1,8,0:0:0:0:
47,26,71168,1,0,0:0:0:0:
351,341,71339,6,0,L|461:334,1,104,6|2,0:0|0:0,0:0:0:0:
297,224,71680,2,0,L|444:216,1,104,8|0,0:0|0:0,0:0:0:0:
112,131,72020,2,0,L|230:122,1,104,2|2,0:0|0:0,0:0:0:0:
342,38,72361,1,8,0:0:0:0:
189,308,72532,2,0,L|175:240,1,52,2|0,0:0|0:0,0:0:0:0:
402,299,72702,6,0,P|437:248|403:178,1,104,12|2,0:0|0:0,0:0:0:0:
194,166,73043,2,0,P|159:115|193:45,1,104,12|2,0:0|0:0,0:0:0:0:
303,34,73384,1,14,0:0:0:0:
75,311,73555,1,8,0:0:0:0:
37,283,73640,1,8,0:0:0:0:
18,240,73725,1,8,0:0:0:0:
21,193,73810,1,8,0:0:0:0:
55,161,73895,1,8,0:0:0:0:
101,151,73981,1,8,0:0:0:0:
395,76,74066,6,0,P|410:165|400:216,1,104,6|2,0:0|0:0,0:0:0:0:
287,255,74407,1,8,0:0:0:0:
444,328,74577,1,0,0:0:0:0:
208,60,74748,2,0,L|332:35,1,104,2|2,0:0|0:0,0:0:0:0:
480,368,75089,2,0,L|356:343,1,104,8|0,0:0|0:0,0:0:0:0:
115,344,75430,6,0,P|54:345|-10:382,2,104,2|2|8,0:0|0:0|0:0,0:0:0:0:
270,284,75941,2,0,P|299:233|191:132,1,208,0|2,0:0|0:0,0:0:0:0:
68,45,76452,2,0,P|119:45|167:27,1,104,8|0,0:0|0:0,0:0:0:0:
475,110,76793,6,0,L|353:85,1,104,2|2,0:0|0:0,0:0:0:0:
256,339,77134,1,8,0:0:0:0:
378,271,77305,1,0,0:0:0:0:
211,221,77475,1,2,0:0:0:0:
372,10,77645,2,0,P|311:10|250:35,2,104,2|8|0,0:0|0:0|0:0,0:0:0:0:
109,234,78157,6,0,P|170:234|231:209,1,104,10|8,0:0|0:0,0:0:0:0:
474,359,78498,2,0,L|451:236,1,104,10|0,0:0|0:0,0:0:0:0:
201,331,78839,1,10,0:0:0:0:
252,339,78924,1,0,0:0:0:0:
303,347,79009,1,8,0:0:0:0:
44,113,79180,2,0,P|105:113|166:88,1,104,10|8,0:0|0:0,0:0:0:0:
213,56,79435,1,0,0:0:0:0:
420,47,79520,6,0,P|447:128|356:196,1,208,14|8,0:0|0:0,0:0:0:0:
247,315,80032,2,0,L|375:346,1,104,0|2,0:0|0:0,0:0:0:0:
460,316,80373,1,2,0:0:0:0:
165,211,80543,2,0,L|293:180,1,104,8|0,0:0|0:0,0:0:0:0:
318,127,80799,1,2,0:0:0:0:
84,152,80884,6,0,P|57:233|139:307,1,208,6|8,0:0|0:0,0:0:0:0:
247,315,81395,1,0,0:0:0:0:
16,23,81566,2,0,L|135:48,1,104,2|2,0:0|0:0,0:0:0:0:
413,95,81907,2,0,P|359:125|294:120,1,104,8|0,0:0|0:0,0:0:0:0:
53,347,82248,6,0,L|171:336,1,104,14|8,0:0|0:0,0:0:0:0:
315,250,82589,2,0,L|197:239,1,104,8|0,0:0|0:0,0:0:0:0:
507,348,82930,2,0,P|455:361|389:337,1,104,10|8,0:0|0:0,0:0:0:0:
111,241,83270,2,0,P|163:228|229:252,1,104,8|0,0:0|0:0,0:0:0:0:
276,281,83526,1,0,0:0:0:0:
85,99,83611,6,0,P|52:165|139:281,1,208,10|8,0:0|0:0,0:0:0:0:
272,48,84123,2,0,L|363:58,1,52
160,16,84293,2,0,P|128:46|92:112,1,104,10|2,0:0|0:0,0:0:0:0:
256,304,84634,2,0,P|316:236|320:180,1,104,8|8,0:0|0:0,0:0:0:0:
240,152,84890,1,8,0:0:0:0:
2,314,84975,6,0,L|136:292,1,104,14|8,0:0|0:0,0:0:0:0:
340,125,85316,2,0,L|206:103,1,104,8|8,0:0|0:0,0:0:0:0:
482,351,85657,2,0,L|348:329,1,104,8|8,0:0|0:0,0:0:0:0:
316,356,85912,1,8,0:0:0:0:
110,379,85998,2,0,L|55:361,1,52,8|8,0:0|0:0,0:0:0:0:
306,222,86168,2,0,L|361:204,1,52,8|8,0:0|0:0,0:0:0:0:
75,114,86339,5,10,0:0:0:0:
256,192,87702,12,0,88981,0:0:0:0:
