osu file format v14

[General]
AudioFilename: bg.mp3
AudioLeadIn: 0
PreviewTime: 62305
Countdown: 0
SampleSet: Soft
StackLeniency: 0.7
Mode: 2
LetterboxInBreaks: 0
WidescreenStoryboard: 0

[Editor]
Bookmarks: 430,16793,27702,38611,49520,63157
DistanceSpacing: 0.5
BeatDivisor: 4
GridSize: 4
TimelineZoom: 1.4

[Metadata]
Title:SHIORI -TV size mix-
TitleUnicode:SHIORI -TV size mix-
Artist:ClariS
ArtistUnicode:ClariS
Creator:Sinnoh
Version:Rain
Source:終物語
Tags:Fii -wwwww Spectator Owarimonogatari Ougi ending
BeatmapID:1407767
BeatmapSetID:653495

[Difficulty]
HPDrainRate:6
CircleSize:4
OverallDifficulty:9
ApproachRate:9
SliderMultiplier:2
SliderTickRate:2

[Events]
//Background and Video events
0,0,"audio.jpg",0,0
//Break Periods
//Storyboard Layer 0 (Background)
//Storyboard Layer 1 (Fail)
//Storyboard Layer 2 (Pass)
//Storyboard Layer 3 (Foreground)
//Storyboard Sound Samples

[TimingPoints]
430,340.909090909091,4,2,1,40,1,0
5884,-100,4,2,2,50,0,0
11339,-100,4,2,2,60,0,0
11680,-100,4,2,2,60,0,0
12702,-100,4,2,2,60,0,0
13725,-100,4,2,2,60,0,0
14066,-100,4,2,2,70,0,0
16793,-100,4,2,2,60,0,0
54975,-100,4,2,1,40,0,0
57702,-100,4,2,2,60,0,0
62475,-100,4,2,1,20,0,0
63157,-100,4,2,2,70,0,1
78157,-100,4,2,1,70,0,1
78498,-100,4,2,3,70,0,1
78839,-100,4,2,1,70,0,1
79180,-100,4,2,3,70,0,1
79520,-100,4,2,1,70,0,1
79691,-100,4,2,2,70,0,1
82248,-100,4,2,1,70,0,1
82589,-100,4,2,3,70,0,1
82930,-100,4,2,1,70,0,1
83270,-100,4,2,3,70,0,1
83611,-100,4,2,1,70,0,1
83952,-100,4,2,3,70,0,1
84293,-100,4,2,1,70,0,1
84378,-100,4,2,2,70,0,1
84975,-100,4,2,1,70,0,1
85145,-100,4,2,3,70,0,1
86339,-100,4,2,3,50,0,0
88981,-100,4,2,1,5,0,0

[Colours]
Combo1 : 207,217,115
Combo2 : 255,91,91
Combo3 : 255,128,255
Combo4 : 0,183,91

[HitObjects]
376,284,259,5,0,0:0:0:0:
239,262,430,6,0,L|231:157,1,100,2|0,0:0|0:0,0:0:0:0:
352,159,770,2,0,L|360:54,1,100,0|0,0:0|0:0,0:0:0:0:
238,56,1111,1,0,0:0:0:0:
151,117,1282,1,0,0:0:0:0:
153,213,1452,1,0,0:0:0:0:
243,270,1623,1,0,0:0:0:0:
366,250,1793,6,0,L|256:246,1,100,2|0,0:0|0:0,0:0:0:0:
168,232,2134,1,0,0:0:0:0:
288,192,2305,2,0,L|488:188,1,200
296,72,2986,1,0,0:0:0:0:
54,222,3157,6,0,L|49:114,1,100,2|0,0:0|0:0,0:0:0:0:
168,132,3498,2,0,L|163:24,1,100,0|0,0:0|0:0,0:0:0:0:
294,60,3839,2,0,L|409:67,3,100,0|0|0|0,0:0|0:0|0:0|0:0,0:0:0:0:
251,244,4520,6,0,P|184:203|268:138,1,200,2|0,0:0|0:0,0:0:0:0:
379,290,5032,2,0,L|483:293,1,100,0|2,0:0|0:0,0:0:0:0:
348,229,5373,2,0,P|294:189|366:95,1,200,0|0,0:0|0:0,0:0:0:0:
93,376,5884,6,0,P|39:347|133:194,1,300,6|0,0:0|0:0,0:0:0:0:
244,123,6566,1,0,0:0:0:0:
136,170,6736,1,0,0:0:0:0:
136,264,6907,1,0,0:0:0:0:
244,299,7077,1,0,0:0:0:0:
485,280,7248,6,0,L|188:178,1,300,6|8,0:0|0:0,0:0:0:0:
405,115,8100,2,0,L|284:109,1,100,2|8,0:0|0:3,0:0:0:0:
411,87,8441,1,0,0:0:0:0:
140,318,8611,6,0,P|33:272|83:96,1,300,6|0,0:0|0:0,0:0:0:0:
158,116,9293,1,0,0:0:0:0:
265,46,9464,2,0,L|364:108,2,100,0|0|0,0:0|0:0|0:0,0:0:0:0:
496,238,9975,6,0,P|490:158|363:119,1,200,6|0,0:0|0:0,0:0:0:0:
265,141,10486,1,8,0:3:0:0:
449,242,10827,2,0,L|460:120,1,100,2|8,0:0|0:3,0:0:0:0:
347,141,11168,1,0,0:0:0:0:
62,281,11339,6,0,P|59:210|179:152,1,200,12|8,0:0|0:0,0:0:0:0:
260,125,11850,1,0,0:0:0:0:
321,31,12020,1,8,0:0:0:0:
169,23,12191,1,8,0:0:0:0:
355,103,12361,1,8,0:0:0:0:
162,99,12532,1,8,0:0:0:0:
457,182,12702,5,12,0:0:0:0:
209,264,13725,1,0,0:0:0:0:
268,261,13810,1,0,0:0:0:0:
327,261,13895,1,0,0:0:0:0:
387,258,13981,1,0,0:0:0:0:
137,128,14066,6,0,L|23:124,2,100,12|2|2,0:0|0:0|0:0,0:0:0:0:
384,127,14577,2,0,L|498:123,2,100,12|2|2,0:0|0:0|0:0,0:0:0:0:
130,232,15089,2,0,L|256:232,1,100,12|2,0:0|0:0,0:0:0:0:
356,231,15430,1,2,0:0:0:0:
48,152,15600,6,0,L|160:100,2,100,12|2|2,0:0|0:0|0:0,0:0:0:0:
348,119,16111,2,0,L|240:117,1,100,12|8,0:0|0:0,0:0:0:0:
404,114,16452,1,8,0:0:0:0:
445,159,16537,1,2,0:0:0:0:
442,212,16623,1,2,0:0:0:0:
391,254,16708,1,2,0:0:0:0:
178,290,16793,6,0,P|100:255|168:165,1,200,6|2,0:0|0:0,0:0:0:0:
240,166,17305,1,0,0:0:0:0:
367,193,17475,2,0,L|368:92,1,100,2|0,0:0|0:0,0:0:0:0:
242,58,17816,1,2,0:0:0:0:
369,32,17986,1,8,0:0:0:0:
106,234,18157,6,0,L|320:268,1,200,2|2,0:0|0:0,0:0:0:0:
420,234,18668,1,0,0:0:0:0:
180,206,18839,1,2,0:0:0:0:
72,149,19009,2,0,L|191:143,2,100,0|2|2,0:0|0:0|0:0,0:0:0:0:
331,252,19520,6,0,B|411:249|411:249|454:159|345:162,1,200,2|2,0:0|0:0,0:0:0:0:
279,150,20032,1,0,0:0:0:0:
156,165,20202,2,0,L|148:37,1,100,2|0,0:0|0:0,0:0:0:0:
275,44,20543,1,2,0:0:0:0:
140,28,20714,1,8,0:0:0:0:
402,283,20884,6,0,P|458:234|373:157,1,200,2|2,0:0|0:0,0:0:0:0:
275,225,21395,1,0,0:0:0:0:
35,128,21566,1,2,0:0:0:0:
156,85,21736,2,0,L|40:44,2,100,8|2|2,2:3|0:0|0:0,0:0:0:0:
422,225,22248,6,0,P|474:192|381:106,1,200,6|2,0:0|0:0,0:0:0:0:
297,104,22759,1,0,0:0:0:0:
177,295,22930,2,0,L|179:186,1,100,2|0,0:0|0:0,0:0:0:0:
312,191,23270,1,2,0:0:0:0:
437,183,23441,1,8,0:0:0:0:
178,329,23611,6,0,P|122:298|200:205,1,200,2|2,0:0|0:0,0:0:0:0:
298,180,24123,1,0,0:0:0:0:
400,167,24293,1,2,0:0:0:0:
270,103,24464,2,0,L|375:95,2,100,0|2|2,0:0|0:0|0:0,0:0:0:0:
34,291,24975,6,0,L|238:291,1,200,2|2,0:0|0:0,0:0:0:0:
129,200,25486,2,0,L|24:194,1,100,0|2,0:0|0:0,0:0:0:0:
149,125,25827,2,0,L|260:123,2,100,0|2|8,0:0|0:0|0:0,0:0:0:0:
455,272,26339,6,0,P|485:202|381:152,1,200,2|2,0:0|0:0,0:0:0:0:
279,146,26850,1,0,0:0:0:0:
168,163,27020,1,2,0:0:0:0:
284,337,27191,1,8,0:0:0:0:
380,240,27361,1,2,0:0:0:0:
232,252,27532,2,0,L|160:292,1,50,2|2,0:0|0:0,0:0:0:0:
388,303,27702,6,0,P|444:267|362:181,1,200,6|2,0:0|0:0,0:0:0:0:
284,177,28214,1,0,0:0:0:0:
133,219,28384,2,0,L|127:97,1,100,2|0,0:0|0:0,0:0:0:0:
255,50,28725,2,0,L|133:43,1,100,2|8,0:0|0:0,0:0:0:0:
486,284,29066,6,0,L|494:164,1,100,2|0,0:0|0:0,0:0:0:0:
361,170,29407,2,0,L|372:38,1,100,2|0,0:0|0:0,0:0:0:0:
132,93,29748,2,0,B|44:92|44:92|30:123,1,100,2|0,0:0|0:0,0:0:0:0:
171,176,30089,2,0,B|259:175|259:175|287:183,1,100,2|2,0:0|0:0,0:0:0:0:
18,283,30430,6,0,P|18:197|137:139,1,200,2|2,0:0|0:0,0:0:0:0:
230,152,30941,2,0,L|350:157,2,100,0|2|0,0:0|0:0|0:0,0:0:0:0:
99,310,31452,2,0,L|86:192,1,100,2|8,0:0|0:0,0:0:0:0:
126,172,31708,1,0,0:0:0:0:
302,175,31793,6,0,L|416:173,1,100,2|0,0:0|0:0,0:0:0:0:
238,256,32134,2,0,L|116:257,1,100,2|0,0:0|0:0,0:0:0:0:
295,307,32475,2,0,L|301:183,1,100,2|0,0:0|0:0,0:0:0:0:
172,218,32816,2,0,L|174:118,1,100,2|2,0:0|0:0,0:0:0:0:
443,254,33157,6,0,P|492:238|424:148,1,200,2|2,0:0|0:0,0:0:0:0:
334,146,33668,1,0,0:0:0:0:
229,103,33839,2,0,L|353:103,1,100,2|0,0:0|0:0,0:0:0:0:
200,200,34180,2,0,L|88:200,1,100,2|8,0:0|0:0,0:0:0:0:
375,261,34520,6,0,L|379:153,1,100,2|0,0:0|0:0,0:0:0:0:
238,159,34861,2,0,L|111:156,1,100,2|0,0:0|0:0,0:0:0:0:
259,90,35202,1,2,0:0:0:0:
127,94,35373,2,0,L|12:44,2,100,8|2|2,0:0|0:0|0:0,0:0:0:0:
427,300,35884,6,0,P|488:262|391:201,1,200,6|2,0:0|0:0,0:0:0:0:
278,184,36395,2,0,L|166:186,1,100,0|2,0:0|0:0,0:0:0:0:
300,107,36736,2,0,L|188:112,2,100,0|2|8,0:0|0:0|0:0,0:0:0:0:
38,284,37248,5,6,0:0:0:0:
144,251,37418,1,8,0:0:0:0:
144,251,37589,1,2,0:0:0:0:
38,284,37759,1,2,0:0:0:0:
166,81,37930,2,0,L|269:97,1,100,2|8,0:0|2:3,0:0:0:0:
128,199,38270,2,0,L|-2:221,1,100,2|2,0:0|0:0,0:0:0:0:
380,328,38611,6,0,L|402:98,1,200,6|0,0:0|0:0,0:0:0:0:
281,135,39123,1,2,0:0:0:0:
176,217,39293,2,0,L|169:103,1,100,0|0,0:0|0:0,0:0:0:0:
321,218,39634,2,0,B|323:171|323:171|304:97,1,100,8|0,0:0|0:0,0:0:0:0:
35,313,39975,6,0,L|49:184,1,100,2|0,0:0|0:0,0:0:0:0:
170,221,40316,2,0,L|178:108,1,100,0|2,0:0|0:0,0:0:0:0:
281,97,40657,1,0,0:0:0:0:
176,244,40827,1,8,0:0:0:0:
71,302,40998,2,0,B|56:250|56:250|61:180,1,100,2|0,0:0|0:0,0:0:0:0:
330,284,41339,6,0,B|425:230|425:230|508:228|508:228|493:220|493:220|497:183,1,200,2|0,0:0|0:0,0:0:0:0:
385,114,41850,1,2,0:0:0:0:
252,114,42020,2,0,L|52:224,1,200,0|2,0:0|0:0,0:0:0:0:
180,292,42532,1,0,0:0:0:0:
451,255,42702,6,0,P|494:160|389:119,1,200,6|0,0:0|0:0,0:0:0:0:
325,206,43214,1,2,0:0:0:0:
87,202,43384,2,0,L|3:124,2,100,4|0|8,0:0|0:0|0:0,0:0:0:0:
188,213,43895,1,0,0:0:0:0:
475,180,44066,6,0,P|452:83|327:48,1,200,6|0,0:0|0:0,0:0:0:0:
266,164,44577,1,2,0:0:0:0:
156,126,44748,2,0,L|274:117,1,100,0|0,0:0|0:0,0:0:0:0:
392,112,45089,2,0,L|494:105,1,100,2|0,0:0|0:0,0:0:0:0:
182,312,45430,6,0,P|102:296|84:183,1,200,2|0,0:0|0:0,0:0:0:0:
181,186,45941,1,2,0:0:0:0:
454,140,46111,2,0,L|308:132,1,100,0|8,0:0|0:0,0:0:0:0:
230,116,46452,2,0,L|363:103,1,100,2|0,0:0|0:0,0:0:0:0:
63,297,46793,6,0,L|50:176,1,100,2|0,0:0|0:0,0:0:0:0:
182,190,47134,2,0,L|186:55,1,100,0|2,0:0|0:0,0:0:0:0:
330,289,47475,2,0,L|338:182,1,100,0|0,0:0|0:0,0:0:0:0:
197,171,47816,2,0,L|82:150,1,100,2|0,0:0|0:0,0:0:0:0:
416,264,48157,6,0,P|476:238|397:170,1,200,2|0,0:0|0:0,0:0:0:0:
284,192,48668,2,0,L|220:153,1,50,2|0,0:0|0:0,0:0:0:0:
406,150,48839,2,0,L|505:149,2,100,2|0|8,0:0|0:0|0:0,0:0:0:0:
147,208,49520,6,0,L|345:144,1,200,6|0,0:0|0:0,0:0:0:0:
462,111,50032,1,2,0:0:0:0:
317,106,50202,2,0,L|190:139,1,100,0|0,0:0|0:0,0:0:0:0:
98,165,50543,2,0,L|-23:193,1,100,8|0,0:0|0:0,0:0:0:0:
354,293,50884,6,0,L|359:165,1,100,2|0,0:0|0:0,0:0:0:0:
223,185,51225,2,0,L|229:63,1,100,0|2,0:0|0:0,0:0:0:0:
350,78,51566,1,0,0:0:0:0:
208,77,51736,2,0,L|99:103,2,100,8|2|0,0:0|0:0|0:0,0:0:0:0:
470,273,52248,6,0,P|496:217|377:152,1,200,2|0,0:0|0:0,0:0:0:0:
284,150,52759,1,0,0:0:0:0:
55,189,52930,2,0,L|-7:115,2,66.6666666666667,8|8|8,0:0|0:0|2:3,0:0:0:0:
169,219,53270,2,0,L|107:293,2,66.6666666666667,2|2|2,0:0|0:0|0:0,0:0:0:0:
416,270,53611,6,0,P|471:242|396:159,1,200,6|0,0:0|0:0,0:0:0:0:
153,102,54293,2,0,L|374:96,1,200,6|0,0:0|0:0,0:0:0:0:
128,84,54975,5,2,0:0:0:0:
391,227,55998,1,0,0:0:0:0:
199,300,56339,2,0,P|168:197|249:94,1,200,2|0,0:0|0:0,0:0:0:0:
326,172,56850,2,0,P|347:38|308:-31,1,200,0|0,0:0|0:0,0:0:0:0:
190,60,57532,1,0,0:0:0:0:
356,200,57702,6,0,L|393:98,2,100,8|8|8,0:0|0:0|0:0,0:0:0:0:
171,207,58214,2,0,L|128:115,2,100,8|8|8,0:0|0:0|0:0,0:0:0:0:
399,135,58725,2,0,L|483:53,2,100,8|8|8,0:0|0:0|0:0,0:0:0:0:
113,135,59236,6,0,L|23:59,2,100,8|8|8,0:0|0:0|0:0,0:0:0:0:
404,280,59748,2,0,L|408:158,1,100,8|8,0:0|0:0,0:0:0:0:
177,188,60089,2,0,L|163:63,1,100,8|8,0:0|0:0,0:0:0:0:
421,81,60430,6,0,L|305:80,2,100,12|0|2,0:0|0:0|0:0,0:0:0:0:
133,87,60941,2,0,L|246:86,1,100,8|2,1:2|0:0,0:0:0:0:
345,90,61282,1,8,0:0:0:0:
101,289,61452,1,2,0:0:0:0:
64,251,61537,1,0,0:0:0:0:
64,251,61623,1,8,0:0:0:0:
101,289,61708,1,2,0:0:0:0:
344,284,61793,6,0,P|440:224|328:120,1,300,4|0,0:0|0:0,0:0:0:0:
445,135,63157,6,0,L|240:132,1,200,6|8,0:0|0:0,0:0:0:0:
328,72,63668,1,0,0:0:0:0:
206,171,63839,1,2,0:0:0:0:
102,170,64009,1,2,0:0:0:0:
263,295,64180,2,0,P|276:246|265:169,1,100,8|0,0:0|0:0,0:0:0:0:
223,169,64435,1,0,0:0:0:0:
54,188,64520,6,0,P|23:136|72:124,1,100,2|2,0:0|0:0,0:0:0:0:
168,80,64861,1,8,0:0:0:0:
300,76,65032,2,0,L|424:79,2,100,0|2|2,0:0|0:0|0:0,0:0:0:0:
448,277,65543,2,0,L|462:139,1,100,8|0,0:0|0:0,0:0:0:0:
406,145,65799,1,0,0:0:0:0:
196,148,65884,6,0,L|70:145,1,100,2|2,0:0|0:0,0:0:0:0:
232,243,66225,2,0,L|332:245,1,100,8|0,0:0|0:0,0:0:0:0:
214,159,66566,1,2,0:0:0:0:
346,162,66736,1,2,0:0:0:0:
186,277,66907,2,0,L|166:156,1,100,8|0,0:0|0:0,0:0:0:0:
455,103,67248,6,0,L|341:101,1,100,2|2,0:0|0:0,0:0:0:0:
103,115,67589,2,0,L|224:117,1,100,8|0,0:0|0:0,0:0:0:0:
379,137,67930,2,0,L|250:127,1,100,2|2,0:0|0:0,0:0:0:0:
169,186,68270,2,0,L|279:191,1,100,8|0,0:0|0:0,0:0:0:0:
37,306,68611,6,0,P|21:237|139:160,1,200,6|8,0:0|0:0,0:0:0:0:
248,165,69123,2,0,L|264:94,1,50,0|0,0:0|0:0,0:0:0:0:
203,85,69293,2,0,L|104:77,1,100,2|2,0:0|0:0,0:0:0:0:
256,36,69634,2,0,L|110:23,1,100,8|0,0:0|0:0,0:0:0:0:
392,158,69975,6,0,L|494:158,1,100,6|2,0:0|0:0,0:0:0:0:
368,294,70316,2,0,L|373:172,1,100,8|0,0:0|0:0,0:0:0:0:
111,157,70657,2,0,L|9:157,1,100,2|2,0:0|0:0,0:0:0:0:
144,294,70998,2,0,L|139:172,1,100,8|0,0:0|0:0,0:0:0:0:
380,136,71339,6,0,L|248:135,1,100,6|2,0:0|0:0,0:0:0:0:
120,120,71680,2,0,L|246:121,1,100,8|0,0:0|0:0,0:0:0:0:
336,68,72020,2,0,L|217:69,1,100,2|2,0:0|0:0,0:0:0:0:
82,292,72361,1,8,0:0:0:0:
46,258,72447,1,0,0:0:0:0:
48,208,72532,1,2,0:0:0:0:
92,176,72617,1,0,0:0:0:0:
397,197,72702,6,0,L|400:94,1,100,12|2,0:0|0:0,0:0:0:0:
147,128,73043,2,0,L|142:3,1,100,12|2,0:0|0:0,0:0:0:0:
303,93,73384,1,14,0:0:0:0:
192,238,73555,2,0,L|175:174,1,50,8|8,0:0|0:0,0:0:0:0:
361,192,73725,1,8,0:0:0:0:
410,166,73810,1,8,0:0:0:0:
400,112,73895,1,8,0:0:0:0:
347,157,73980,1,8,0:0:0:0:
111,318,74066,6,0,L|12:318,2,100,6|2|8,0:0|0:0|0:0,0:0:0:0:
357,319,74577,1,0,0:0:0:0:
453,251,74748,2,0,L|345:253,3,100,2|2|8|0,0:0|0:0|0:0|0:0,0:0:0:0:
81,239,75430,6,0,L|189:218,1,100,2|2,0:0|0:0,0:0:0:0:
312,136,75770,2,0,L|209:126,1,100,8|0,0:0|0:0,0:0:0:0:
94,94,76111,2,0,L|222:74,1,100,2|2,0:0|0:0,0:0:0:0:
31,239,76452,2,0,L|156:243,1,100,8|0,0:0|0:0,0:0:0:0:
418,151,76793,6,0,L|521:102,2,100,2|2|8,0:0|0:0|0:0,0:0:0:0:
128,244,77305,1,0,0:0:0:0:
265,215,77475,2,0,L|272:104,1,100,2|2,0:0|0:0,0:0:0:0:
120,120,77816,2,0,L|112:-5,1,100,8|0,0:0|0:0,0:0:0:0:
167,16,78072,1,0,0:0:0:0:
346,124,78157,6,0,L|448:127,1,100,10|8,0:0|0:0,0:0:0:0:
302,238,78498,2,0,L|198:209,1,100,10|0,0:0|0:0,0:0:0:0:
387,249,78839,2,0,L|435:308,2,50,10|0|8,0:0|0:0|0:0,0:0:0:0:
158,267,79180,2,0,L|64:200,1,100,10|8,0:0|0:0,0:0:0:0:
112,216,79435,1,0,0:0:0:0:
343,327,79520,5,14,0:0:0:0:
438,283,79691,1,2,0:0:0:0:
436,188,79861,1,8,0:0:0:0:
339,145,80032,1,0,0:0:0:0:
221,139,80202,2,0,L|115:168,1,100,2|2,0:0|0:0,0:0:0:0:
404,295,80543,1,8,0:0:0:0:
453,273,80628,1,0,0:0:0:0:
460,222,80714,1,0,0:0:0:0:
417,180,80799,1,0,0:0:0:0:
234,307,80884,5,6,0:0:0:0:
122,263,81055,1,2,0:0:0:0:
124,168,81225,1,8,0:0:0:0:
238,125,81395,1,0,0:0:0:0:
367,90,81566,2,0,L|248:80,1,100,2|2,0:0|0:0,0:0:0:0:
133,109,81907,2,0,L|250:119,1,100,8|0,0:0|0:0,0:0:0:0:
485,194,82248,6,0,L|477:294,1,100,14|8,0:0|0:0,0:0:0:0:
342,237,82589,2,0,L|463:232,1,100,8|0,0:0|0:0,0:0:0:0:
290,177,82930,2,0,L|176:175,1,100,10|8,0:0|0:0,0:0:0:0:
362,300,83270,2,0,P|385:245|370:208,1,100,8|0,0:0|0:0,0:0:0:0:
327,189,83526,1,0,0:0:0:0:
128,174,83611,6,0,L|24:165,2,100,10|8|8,0:0|0:0|0:0,0:0:0:0:
257,181,84123,2,0,L|308:135,1,50
110,334,84293,2,0,L|41:295,1,50,10|8,0:0|0:0,0:0:0:0:
115,257,84464,2,0,L|242:254,1,100,2|8,0:0|0:0,0:0:0:0:
372,294,84805,2,0,L|378:343,1,50,8|8,0:0|0:0,0:0:0:0:
180,358,84975,6,0,P|146:318|208:302,1,100,14|8,0:0|0:0,0:0:0:0:
412,342,85316,2,0,L|418:230,1,100,8|8,0:0|0:0,0:0:0:0:
188,132,85657,1,8,0:0:0:0:
418,243,85827,2,0,L|430:186,1,50,8|8,0:0|0:0,0:0:0:0:
222,249,85998,1,8,0:0:0:0:
168,220,86083,1,8,0:0:0:0:
164,163,86168,1,8,0:0:0:0:
212,131,86253,1,8,0:0:0:0:
475,89,86339,5,10,0:0:0:0:
256,192,87702,12,0,88981,0:0:0:0:
