osu file format v14

[General]
AudioFilename: bg.mp3
AudioLeadIn: 0
PreviewTime: 62305
Countdown: 0
SampleSet: Soft
StackLeniency: 0.7
Mode: 2
LetterboxInBreaks: 0
WidescreenStoryboard: 0

[Editor]
Bookmarks: 430,16793,27702,38611,49520,63157
DistanceSpacing: 1.1
BeatDivisor: 4
GridSize: 4
TimelineZoom: 1.4

[Metadata]
Title:SHIORI -TV size mix-
TitleUnicode:SHIORI -TV size mix-
Artist:ClariS
ArtistUnicode:ClariS
Creator:Sinnoh
Version:Cup
Source:終物語
Tags:Fii -wwwww Spectator Owarimonogatari Ougi ending
BeatmapID:1389215
BeatmapSetID:653495

[Difficulty]
HPDrainRate:3
CircleSize:2.5
OverallDifficulty:6
ApproachRate:6
SliderMultiplier:1.3
SliderTickRate:1

[Events]
//Background and Video events
0,0,"audio.jpg",0,0
//Break Periods
//Storyboard Layer 0 (Background)
//Storyboard Layer 1 (Fail)
//Storyboard Layer 2 (Pass)
//Storyboard Layer 3 (Foreground)
//Storyboard Sound Samples

[TimingPoints]
430,340.909090909091,4,2,1,40,1,0
5884,-100,4,2,2,50,0,0
11339,-100,4,2,2,60,0,0
12702,-100,4,2,2,60,0,0
14066,-100,4,2,2,70,0,0
16793,-100,4,2,2,60,0,0
54975,-100,4,2,1,40,0,0
57702,-100,4,2,2,60,0,0
62475,-100,4,2,1,20,0,0
63157,-100,4,2,2,70,0,1
78157,-100,4,2,1,70,0,1
78498,-100,4,2,3,70,0,1
78839,-100,4,2,1,70,0,1
79180,-100,4,2,3,70,0,1
79520,-100,4,2,1,70,0,1
79691,-100,4,2,2,70,0,1
82248,-100,4,2,1,70,0,1
82589,-100,4,2,3,70,0,1
82930,-100,4,2,1,70,0,1
83270,-100,4,2,3,70,0,1
83611,-100,4,2,1,70,0,1
83952,-100,4,2,3,70,0,1
84293,-100,4,2,1,70,0,1
84378,-100,4,2,2,70,0,1
84975,-100,4,2,1,70,0,1
85145,-100,4,2,3,70,0,1
86339,-100,4,2,3,50,0,0
88981,-100,4,2,1,5,0,0

[Colours]
Combo1 : 207,217,115
Combo2 : 255,91,91
Combo3 : 255,128,255
Combo4 : 0,183,91

[HitObjects]
372,389,430,6,0,P|491:173|352:-30,1,520,2|2,0:0|0:0,0:0:0:0:
156,172,2475,1,2,0:0:0:0:
392,376,3157,2,0,P|144:208|221:22,1,520,2|2,0:0|0:0,0:0:0:0:
410,255,5202,1,2,0:0:0:0:
154,217,5884,6,0,L|391:101,1,260,6|0,0:0|0:0,0:0:0:0:
102,299,7248,2,0,P|75:241|163:135,1,195,6|8,0:0|0:0,0:0:0:0:
293,163,8100,2,0,L|305:69,1,65,2|8,0:0|0:3,0:0:0:0:
150,110,8611,6,0,L|369:250,2,260,6|0|6,0:0|0:0|0:0,0:0:0:0:
363,171,10486,1,8,0:3:0:0:
225,200,10827,2,0,L|222:118,1,65,2|8,0:0|0:3,0:0:0:0:
256,192,11339,12,12,12702,0:0:0:0:
360,251,14066,6,0,L|144:184,2,195,12|12|12,0:0|0:0|0:0,0:0:0:0:
170,305,15600,1,12,0:0:0:0:
368,314,16111,2,0,P|376:248|318:199,1,130,12|8,0:0|0:0,0:0:0:0:
150,262,16793,6,0,P|92:198|112:138,1,130,6|2,0:0|0:0,0:0:0:0:
229,140,17475,1,2,0:0:0:0:
106,109,17816,1,2,0:0:0:0:
242,194,18157,2,0,L|360:136,1,130,2|2,0:0|0:0,0:0:0:0:
488,120,18839,2,0,L|345:67,1,130,2|2,0:0|0:0,0:0:0:0:
200,352,19520,6,0,P|126:319|214:203,1,260,2|2,0:0|0:0,0:0:0:0:
338,212,20543,1,2,0:0:0:0:
482,197,20884,2,0,L|344:136,1,130,2|2,0:0|0:0,0:0:0:0:
211,125,21566,2,0,L|344:64,1,130,2|2,0:0|0:0,0:0:0:0:
161,201,22248,6,0,P|167:126|215:91,1,130,6|2,0:0|0:0,0:0:0:0:
354,101,22930,1,2,0:0:0:0:
491,102,23270,1,2,0:0:0:0:
344,236,23611,2,0,L|222:191,1,130,2|2,0:0|0:0,0:0:0:0:
350,290,24293,2,0,P|393:255|346:227,1,130,2|2,0:0|0:0,0:0:0:0:
153,247,24975,6,0,P|78:203|123:98,1,195,2|0,0:0|0:0,0:0:0:0:
252,196,25827,2,0,L|269:121,1,65,0|2,0:0|0:0,0:0:0:0:
148,100,26339,2,0,L|295:52,1,130,2|2,0:0|0:0,0:0:0:0:
422,283,27020,2,0,P|463:251|430:174,1,130,2|2,0:0|0:0,0:0:0:0:
268,230,27702,6,0,P|201:197|196:124,1,130,6|2,0:0|0:0,0:0:0:0:
328,127,28384,2,0,L|449:73,2,130,2|2|2,0:0|0:0|0:0,0:0:0:0:
175,132,29407,2,0,L|54:78,2,130,2|2|2,0:0|0:0|0:0,0:0:0:0:
365,270,30430,6,0,P|394:191|312:130,1,195,2|0,0:0|0:0,0:0:0:0:
120,168,31452,1,2,0:0:0:0:
264,260,31793,2,0,L|256:125,1,130,2|2,0:0|0:0,0:0:0:0:
92,163,32475,2,0,L|79:26,1,130,2|2,0:0|0:0,0:0:0:0:
234,75,33157,5,2,0:0:0:0:
403,248,33668,1,0,0:0:0:0:
328,195,33839,2,0,L|207:123,1,130,2|2,0:0|0:0,0:0:0:0:
360,159,34520,2,0,P|375:101|302:76,1,130,2|2,0:0|0:0,0:0:0:0:
186,85,35202,2,0,P|150:98|203:147,1,130,2|2,0:0|0:0,0:0:0:0:
365,237,35884,6,0,L|178:134,1,195,6|0,0:0|0:0,0:0:0:0:
316,132,36736,2,0,L|324:63,1,65,0|2,0:0|0:0,0:0:0:0:
150,61,37248,2,0,P|97:109|135:175,1,130,6|2,0:0|0:0,0:0:0:0:
238,232,37930,2,0,L|97:288,1,130,2|2,0:0|0:0,0:0:0:0:
299,352,38611,6,0,P|372:310|344:209,1,195,6|2,0:0|0:0,0:0:0:0:
273,221,39293,2,0,P|245:204|248:92,1,130,0|8,0:0|0:0,0:0:0:0:
411,163,39975,2,0,P|465:136|487:59,2,130,2|0|0,0:0|0:0|0:0,0:0:0:0:
272,188,40998,1,2,0:0:0:0:
146,158,41339,6,0,L|292:101,1,130,2|0,0:0|0:0,0:0:0:0:
129,104,42020,2,0,L|0:31,1,130,0|2,0:0|0:0,0:0:0:0:
205,313,42702,2,0,L|438:177,2,260,6|4|6,0:0|0:0|0:0,0:0:0:0:
458,339,44748,2,0,P|460:265|414:227,1,130,0|2,0:0|0:0,0:0:0:0:
263,235,45430,6,0,P|209:202|189:127,1,130,2|0,0:0|0:0,0:0:0:0:
328,113,46111,1,0,0:0:0:0:
189,98,46452,1,2,0:0:0:0:
356,208,46793,2,0,P|411:173|412:108,1,130,2|0,0:0|0:0,0:0:0:0:
270,126,47475,2,0,P|215:91|214:26,1,130,0|2,0:0|0:0,0:0:0:0:
357,33,48157,6,0,L|236:104,1,130,2|0,0:0|0:0,0:0:0:0:
127,97,48839,2,0,L|251:34,1,130,2|8,0:0|0:0,0:0:0:0:
80,280,49520,6,0,P|56:208|170:166,1,195,6|2,0:0|0:0,0:0:0:0:
212,255,50202,2,0,L|328:180,1,130,0|8,0:0|0:0,0:0:0:0:
168,172,50884,2,0,L|40:107,2,130,2|0|0,0:0|0:0|0:0,0:0:0:0:
286,233,51907,1,2,0:0:0:0:
450,205,52248,6,0,L|296:161,1,130,2|0,0:0|0:0,0:0:0:0:
163,231,52930,2,0,P|145:174|203:122,1,130,8|2,0:0|0:0,0:0:0:0:
349,118,53611,1,6,0:0:0:0:
92,121,54293,1,6,0:0:0:0:
256,180,54975,5,2,0:0:0:0:
436,211,56339,1,2,0:0:0:0:
256,192,57702,12,2,61452,0:0:0:0:
255,132,61793,5,4,0:0:0:0:
91,132,63157,6,0,L|241:108,1,130,6|8,0:0|0:0,0:0:0:0:
362,209,63839,2,0,P|402:171|352:135,1,130,2|8,0:0|0:0,0:0:0:0:
196,187,64520,2,0,P|199:146|282:90,1,130,2|8,0:0|0:0,0:0:0:0:
365,229,65032,2,0,P|407:192|383:101,1,130,0|2,0:0|0:0,0:0:0:0:
329,84,65543,1,8,0:0:0:0:
150,287,65884,6,0,P|90:268|82:188,1,130,2|8,0:0|0:0,0:0:0:0:
196,169,66566,1,2,0:0:0:0:
73,208,66907,1,8,0:0:0:0:
247,232,67248,2,0,P|305:214|287:149,1,130,2|8,0:0|0:0,0:0:0:0:
212,140,67759,2,0,P|173:115|214:49,1,130,0|2,0:0|0:0,0:0:0:0:
281,51,68270,1,8,0:0:0:0:
443,86,68611,6,0,L|296:104,1,130,6|8,0:0|0:0,0:0:0:0:
184,122,69293,1,2,0:0:0:0:
69,139,69634,1,8,0:0:0:0:
232,275,69975,2,0,P|275:250|229:210,1,130,6|8,0:0|0:0,0:0:0:0:
104,194,70657,2,0,P|61:169|107:129,1,130,2|8,0:0|0:0,0:0:0:0:
282,95,71339,6,0,L|422:86,1,130,6|8,0:0|0:0,0:0:0:0:
274,171,72020,2,0,L|134:181,1,130,2|8,0:0|0:0,0:0:0:0:
296,277,72702,1,12,0:0:0:0:
457,231,73043,1,12,0:0:0:0:
305,160,73384,1,14,0:0:0:0:
154,105,73725,1,8,0:0:0:0:
329,213,74066,6,0,P|391:187|396:129,1,130,6|8,0:0|0:0,0:0:0:0:
322,97,74577,1,0,0:0:0:0:
241,113,74748,2,0,P|179:87|174:29,1,130,2|8,0:0|0:0,0:0:0:0:
316,217,75430,1,2,0:0:0:0:
187,226,75770,1,8,0:0:0:0:
315,193,76111,1,2,0:0:0:0:
188,181,76452,1,8,0:0:0:0:
55,321,76793,6,0,P|43:268|123:243,1,130,2|8,0:0|0:0,0:0:0:0:
174,232,77305,1,0,0:0:0:0:
229,230,77475,2,0,P|265:195|213:137,1,130,2|8,0:0|0:0,0:0:0:0:
102,137,78157,1,10,0:0:0:0:
230,95,78498,1,10,0:0:0:0:
356,53,78839,1,10,0:0:0:0:
487,86,79180,1,10,0:0:0:0:
305,295,79520,6,0,B|260:292|260:292|244:233|304:214,1,130,14|8,0:0|0:0,0:0:0:0:
429,206,80202,2,0,B|476:175|476:175|418:103,1,130,2|8,0:0|0:0,0:0:0:0:
242,137,80884,2,0,L|99:135,1,130,6|8,0:0|0:0,0:0:0:0:
247,93,81566,2,0,P|285:39|224:22,1,130,2|8,0:0|0:0,0:0:0:0:
90,57,82248,6,0,L|236:16,1,130,14|8,0:0|0:0,0:0:0:0:
367,120,82930,2,0,L|227:159,1,130,10|8,0:0|0:0,0:0:0:0:
85,236,83611,2,0,P|101:119|111:106,1,130,10|8,0:0|0:0,0:0:0:0:
285,220,84293,2,0,P|357:194|394:128,1,130,10|8,0:0|0:0,0:0:0:0:
256,192,84975,12,10,86339,0:0:0:0:
108,168,87702,5,2,0:0:0:0:
