osu file format v9

[General]
AudioFilename: ClariS - Nexus _ Short Ver.mp3
AudioLeadIn: 2500
PreviewTime: 74098
Countdown: 0
SampleSet: Normal
StackLeniency: 0.7
Mode: 0
LetterboxInBreaks: 0

[Editor]
DistanceSpacing: 1.4
BeatDivisor: 4
GridSize: 8

[Metadata]
Title:Nexus (Short Ver.)
Artist:ClariS
Creator:ikari_kyon
Version:Insane
Source:Ore no Imouto ga Konna ni Kawaii Wake ga Nai
Tags:oreimo light novel vol.9 main theme Alice Clara Livetune Kei

[Difficulty]
HPDrainRate:8
CircleSize:5
OverallDifficulty:7
ApproachRate:8
SliderMultiplier:2.1
SliderTickRate:1

[Events]
//Background and Video events
Video,0,"ClariS - Nexus _ Short Ver. - video.flv"
0,0,"nexus bg.jpg"
//Break Periods
//Storyboard Layer 0 (Background)
//Storyboard Layer 1 (Fail)
//Storyboard Layer 2 (Pass)
//Storyboard Layer 3 (Foreground)
//Storyboard Sound Samples
//Background Colour Transformations
3,100,163,162,255

[TimingPoints]
1045,458.015267175573,4,2,0,90,1,0
15243,-100,4,1,0,45,0,0
74327,-100,4,1,0,45,0,1
103640,-100,4,1,0,45,0,0
120128,-100,4,2,0,15,0,0

[Colours]
Combo1 : 255,128,255
Combo2 : 171,252,203
Combo3 : 175,221,254
Combo4 : 0,147,0
Combo5 : 140,89,81

[HitObjects]
256,56,1045,2,0,B|256:272,1,210,6|0
320,184,1732,2,0,B|360:232|352:312|304:336|256:336,1,210,2|0
160,288,2419,2,0,B|128:288|112:232,2,52.5,2|0|0
176,176,2877,1,0
200,144,2991,1,0
232,120,3106,2,0,B|264:88|328:80|392:96|424:136,1,210,2|0
256,312,3793,5,2
336,176,4022,1,2
176,176,4251,1,2
256,40,4480,1,0
256,200,4709,1,4
256,312,5167,5,0
256,312,5396,1,6
128,176,5854,5,0
112,136,5968,1,0
112,96,6083,2,0,B|144:48|208:48,2,105,2|0|2
256,192,6770,1,0
400,96,6999,2,0,B|368:48|304:48,1,105,2|0
256,136,7457,1,2
256,296,7686,1,0
256,296,7915,2,0,B|304:296|304:296|296:248|320:224,2,105,2|0|6
256,136,8602,5,0
256,136,8831,1,0
256,136,9060,1,4
352,304,9518,5,0
352,304,9632,1,2
352,304,9747,1,0
352,304,9861,1,0
352,304,9976,1,0
256,192,10205,5,2
160,304,10434,1,2
352,303,10663,1,2
256,192,10892,1,0
256,32,11121,2,0,B|256:144,2,105,2|2|2
40,192,11808,5,0
160,192,12037,2,0,B|120:192|96:208|96:208|128:232|120:312|72:328,1,210,4|0
184,280,12724,2,0,B|224:288|240:232|240:232|240:96,1,210,4|0
304,192,13411,1,4
256,192,13640,12,0,15243
256,192,15701,5,4
136,200,15930,2,0,B|80:176|80:112,1,105,2|0
256,88,16388,2,0,B|304:112|320:168,1,105,2|0
224,240,16846,1,2
256,264,16961,1,0
288,272,17075,2,0,B|344:264|360:200,1,105,0|0
192,184,17533,5,0
320,72,17762,1,2
320,184,17991,1,0
192,72,18220,1,2
280,128,18449,1,0
320,128,18564,1,0
360,128,18678,1,2
400,128,18793,1,0
440,128,18907,2,0,B|440:192|376:192,1,105
256,312,19365,5,0
184,232,19594,1,2
256,72,19823,1,0
328,152,20052,1,2
224,152,20281,2,0,B|272:136|312:96,1,105
360,312,20739,5,0
384,288,20854,1,0
392,256,20968,1,2
384,216,21083,1,0
360,184,21197,2,0,B|368:128|424:104,2,105
176,192,21884,6,0,B|104:192|104:272,1,105,2|0
296,192,22342,1,2
296,192,22571,1,2
40,352,23029,6,0,B|104:352|144:328|144:328|184:352|256:352,1,210,0|0
256,280,23716,1,2
256,143,23945,2,0,B|256:63|344:63,1,105,0|2
256,144,24403,2,0,B|256:224|168:224,1,105
333,359,24861,5,0
256,280,25090,1,2
176,360,25319,1,0
256,280,25548,1,2
384,280,25777,1,0
456,360,26006,1,2
480,256,26235,1,0
392,192,26464,5,0
256,192,26693,2,0,B|360:192,1,105,0|2
224,192,27151,2,0,B|104:192,1,105,0|2
208,256,27609,2,0,B|184:320,1,52.5
256,256,27838,2,0,B|256:312,1,52.5,2|0
304,256,28067,2,0,B|320:304|320:304|360:248|384:240|456:240,1,210
256,64,28754,5,0
256,64,28869,2,0,B|256:240,2,157.5
256,64,29670,1,0
448,192,29899,1,2
256,296,30128,1,0
256,144,30357,6,0,B|312:144|344:192,1,105,4|0
296,88,30815,2,0,B|248:64|184:96|184:96|200:144|183:188,1,210,2|0
184,216,31388,1,0
184,248,31503,1,0
184,280,31617,1,0
184,312,31732,2,0,B|256:312|304:336,1,105,2|0
256,192,32190,5,0
208,40,32419,1,0
160,192,32648,1,2
288,96,32877,1,0
136,96,33106,1,0
64,352,33335,6,0,B|112:304|64:256,1,105,2|2
208,192,33793,2,0,B|160:240|208:288,1,105
312,168,34251,1,0
472,168,34480,1,2
384,112,34709,2,0,B|384:224,1,105
280,208,35167,2,0,B|280:328,2,105,0|2|0
152,192,35854,5,0
64,136,36083,1,0
160,88,36312,1,2
96,176,36541,2,0,B|32:272,1,105
256,192,36999,5,2
256,192,37228,1,2
440,192,37457,2,0,B|392:152|344:192,1,105,0|0
152,288,37915,2,0,B|112:240|152:192,1,105,0|2
256,40,38373,5,0
256,72,38487,1,0
256,104,38602,2,0,B|256:216,2,105,0|0|2
368,104,39289,2,0,B|400:152|400:208,1,105
144,104,39747,2,0,B|112:152|112:208,1,105,0|2
256,336,40205,5,0
256,304,40319,1,0
256,272,40434,2,0,B|256:152,1,105,0|2
152,224,40892,1,2
360,224,41121,1,0
256,40,41350,2,0,B|256:248,2,210,0|2|0
360,160,42495,5,0
248,160,42724,2,0,B|128:160,1,105,2|0
248,144,43182,2,0,B|248:80|312:80,1,105
248,168,43640,2,0,B|248:232|312:232,1,105,2|0
360,160,44098,5,0
392,160,44212,1,0
424,160,44327,1,2
456,160,44441,1,0
488,160,44556,2,0,B|488:216|440:248,1,105,2|0
256,280,45014,6,0,B|184:280|160:224,1,105,4|0
256,104,45472,2,0,B|328:104|352:160,1,105,2|0
144,192,45930,5,0
248,192,46159,1,0
192,72,46388,5,2
256,160,46617,1,0
336,72,46846,5,0
296,176,47075,1,0
256,336,47304,6,0,B|224:272|256:224,1,105,2|0
256,128,47762,1,0
256,128,47877,1,0
256,128,47991,1,2
256,128,48106,1,0
256,128,48220,2,0,B|192:144|176:208,1,105,2|0
192,232,48564,1,0
160,256,48678,2,0,B|112:240|96:176,1,105
256,80,49136,5,2
367,191,49365,1,0
478,79,49594,1,0
367,191,49823,1,0
304,296,50052,1,2
432,296,50281,1,0
432,296,50510,6,0,B|288:296,1,105
440,116,50968,2,0,B|368:192,1,105,2|0
256,192,51426,1,0
256,192,51541,1,0
256,192,51655,1,2
256,192,51770,1,0
256,192,51884,1,2
32,192,52113,5,0
112,112,52342,2,0,B|168:128|200:192|168:256|112:264,1,210,0|2
256,192,53029,1,0
400,112,53258,2,0,B|344:128|312:192|344:256|400:264,1,210,0|2
480,192,53945,1,0
304,192,54174,5,0
256,96,54403,1,0
208,192,54632,1,2
256,296,54861,1,0
336,192,55090,1,0
256,64,55319,1,2
176,192,55548,1,2
48,352,55777,5,0
48,352,55892,1,0
48,352,56006,2,0,B|112:328|160:360,1,105
104,256,56464,1,2
56,160,56693,2,0,B|104:200|152:152,1,105
384,192,57151,5,0
280,192,57380,2,0,B|232:240|232:296,1,105,2|0
192,160,57838,2,0,B|215:95|266:72,1,105
336,152,58296,1,2
368,56,58525,1,0
472,48,58754,1,0
488,152,58983,5,2
488,184,59098,1,0
488,216,59212,2,0,B|480:280|376:336|312:320,1,210,2|4
232,248,59899,6,0,B|280:272|336:248,1,105,0|2
288,184,60357,2,0,B|242:160|173:181,1,105
256,40,60815,1,0
256,40,60930,1,0
256,40,61045,2,0,B|256:152,2,105,2|0|0
144,88,61732,6,0,B|96:136|96:184,1,105,0|2
104,280,62190,2,0,B|152:328|200:328,1,105
256,192,62648,1,0
256,192,62762,1,0
256,192,62877,2,0,B|256:80,1,105,2|0
184,208,63335,6,0,B|96:288,1,105
256,248,63793,2,0,B|256:360,1,105,2|0
328,208,64251,2,0,B|416:288,2,105,0|0|2
128,272,64938,5,0
144,256,65052,1,0
144,232,65167,1,0
136,208,65281,1,0
128,184,65396,2,0,B|112:120|160:72,1,105,2|2
168,72,65739,1,0
192,64,65854,1,0
216,64,65968,1,0
232,80,66083,2,0,B|280:160|272:200,1,105,2|2
336,80,66541,2,0,B|384:160|376:200,1,105,2|0
272,176,66999,5,4
168,184,67228,2,0,B|165:242|216:292,1,105,0|2
296,232,67686,1,0
296,232,67800,1,0
296,232,67915,2,0,B|312:288|376:320,2,105,0|0|2
200,136,68602,5,0
200,136,68716,1,0
200,136,68831,2,0,B|184:80|120:48,2,105,0|0|2
312,136,69518,5,0
312,136,69632,1,0
312,136,69747,2,0,B|328:80|392:48,2,105,0|0|2
224,224,70434,5,0
152,304,70663,2,0,B|80:272|80:208,1,105,2|0
152,304,71121,2,0,B|224:304|256:264,1,105,2|0
256,48,71579,5,2
392,136,71808,1,0
336,280,72037,1,2
178,280,72266,1,0
120,136,72495,1,2
256,168,72724,2,0,B|256:288,2,105,0|2|2
408,160,73411,5,2
424,168,73525,1,0
440,176,73640,1,0
456,184,73754,1,0
472,192,73869,2,0,B|496:264|448:296,1,105,2|0
160,192,74327,6,0,B|160:112|208:88|208:88|232:120|280:64,2,210,6|0|2
176,192,75357,1,0
192,192,75472,1,0
208,192,75586,1,0
224,192,75701,2,0,B|352:192,1,105
256,328,76159,5,2
200,280,76388,1,0
312,280,76617,1,0
153,230,76846,1,0
358,230,77075,1,2
256,32,77304,5,0
256,48,77419,1,0
256,64,77533,1,0
160,112,77762,2,0,B|120:152|120:208,1,105,0|2
352,112,78220,2,0,B|392:152|392:208,1,105
256,344,78678,5,0
216,192,78907,1,2
160,344,79136,1,0
112,192,79365,1,0
56,344,79594,2,0,B|56:256|120:256,1,105,0|2
256,264,80052,5,0
288,248,80167,1,0
304,224,80281,1,0
160,168,80510,1,0
168,136,80625,1,0
144,112,80739,1,2
304,96,80968,1,2
336,104,81083,1,0
336,136,81197,1,2
256,352,81426,5,0
96,352,81655,2,0,B|96:144,1,210,2|0
24,88,82342,2,0,B|24:27|96:8|168:27|168:88,1,210,2|0
168,88,82915,1,0
168,88,83029,1,2
208,184,83258,5,0
312,184,83487,1,2
208,184,83716,2,0,B|320:184,1,105,0|2
408,184,84174,1,0
408,184,84289,1,0
408,184,84403,2,0,B|448:240|408:280,2,105,2|0|2
312,184,85090,2,0,B|208:184,1,105,0|2
80,304,85548,5,0
104,304,85663,1,0
128,304,85777,1,2
104,200,86006,1,0
32,192,86235,2,0,B|48:128|104:104|160:128|176:192,1,210,2|2
184,224,86808,1,0
208,240,86922,1,0
240,240,87037,1,0
256,216,87151,2,0,B|317:204|365:249,1,105,2|0
336,120,87609,6,0,B|384:80|448:96,1,105,2|0
392,184,88067,1,2
352,280,88296,1,0
256,328,88525,1,2
160,280,88754,1,0
120,184,88983,1,4
256,144,89212,2,0,B|256:256,1,105,0|2
256,104,89670,5,0
256,104,89785,1,0
256,104,89899,2,0,B|288:56|344:56,1,105
240,40,90357,1,2
160,112,90586,1,0
352,112,90815,1,0
272,40,91044,1,0
224,168,91274,6,0,B|104:168,1,105,2|0
40,256,91732,1,0
40,280,91846,1,0
56,296,91961,2,0,B|120:304|160:264,2,105,0|2|0
96,352,92648,5,0
104,248,92877,1,0
200,280,93106,1,2
104,248,93335,1,0
176,160,93564,2,0,B|248:160|256:224,1,105
320,128,94022,2,0,B|248:128|240:64,1,105,2|0
320,192,94480,5,0
320,192,94594,1,0
320,192,94709,1,0
432,312,94938,1,2
280,344,95167,1,0
176,224,95396,1,2
176,224,95510,1,0
176,224,95625,1,0
136,320,95854,5,2
88,152,96083,1,0
256,88,96312,1,0
424,152,96541,1,0
448,328,96770,2,0,B|352:336|224:328,1,210,2|0
256,152,97457,5,0
256,152,97571,1,0
256,152,97686,1,2
256,256,97915,2,0,B|256:361,1,105
152,272,98373,6,0,B|128:248|160:224,2,52.5,0|0|2
360,272,98831,2,0,B|384:248|352:224,2,52.5
256,192,99289,1,0
176,272,99518,1,2
320,272,99747,1,0
160,272,99976,1,0
336,272,100205,1,0
160,272,100434,6,0,B|48:272,1,105,2|0
64,344,100892,2,0,B|120:344|160:272|128:200|64:200,1,210,0|2
56,168,101464,1,0
80,144,101579,1,0
112,152,101693,1,0
136,176,101808,2,0,B|208:176|240:128,1,105
384,168,102266,5,2
280,168,102495,2,0,B|232:216|232:272,1,105
408,224,102953,1,0
416,208,103067,1,0
416,184,103182,1,2
272,120,103411,1,0
256,112,103525,1,0
264,96,103640,1,4
256,192,103869,12,0,105472
256,120,105701,5,0
256,120,105815,1,0
256,120,105930,2,0,B|184:120|160:176,1,105,2|0
256,216,106388,1,0
168,264,106617,1,0
256,312,106846,1,2
344,264,107075,1,0
256,216,107304,6,0,B|296:168|256:120,1,105
352,192,107762,2,0,B|312:144|352:96,1,105,2|0
224,160,108220,1,0
192,160,108335,1,0
160,160,108449,1,0
128,160,108564,1,0
96,160,108678,2,0,B|64:192|64:192|72:224|64:272,1,105,2|0
64,352,109136,5,0
128,264,109365,2,0,B|192:296|176:352,1,105,0|2
216,248,109823,1,0
304,232,110052,2,0,B|240:200|256:144,1,105,0|0
256,48,110510,5,2
256,48,110625,1,0
256,48,110739,1,2
256,48,110854,1,0
256,48,110968,2,0,B|360:48,2,105,0|0|2
256,192,111655,5,2
184,352,111884,2,0,B|120:352|128:280|128:280|64:264|80:192,1,210,0|2
256,192,112571,1,2
328,32,112800,2,0,B|392:32|384:104|384:104|448:120|432:192,1,210,0|2
256,144,113487,5,2
232,128,113602,1,0
200,120,113716,1,0
168,128,113831,1,0
144,144,113945,2,0,B|112:192|112:256,1,105,0|2
257,247,114403,5,2
399,242,114632,2,0,B|400:192|368:144,1,105
344,208,115090,2,0,B|280:192|256:248,1,105,2|2
169,209,115548,2,0,B|233:193|257:249,1,105
112,344,116006,5,2
96,328,116121,1,0
80,304,116235,1,2
72,280,116350,1,0
72,256,116464,2,0,B|80:192|112:160,1,105,0|2
111,160,116922,1,0
304,160,117151,6,0,B|304:128|272:120,2,52.5,2|0|0
256,336,117609,1,2
208,160,117838,2,0,B|208:128|240:120,2,52.5,0|0|2
256,280,118296,1,4
256,192,118525,12,2,120128
