osu file format v9

[General]
AudioFilename: ClariS - Naisho no Hanashi (TV Size).mp3
AudioLeadIn: 1500
PreviewTime: 57186
Countdown: 0
SampleSet: Soft
StackLeniency: 0.7
Mode: 0
LetterboxInBreaks: 0

[Editor]
DistanceSpacing: 1.5
BeatDivisor: 3
GridSize: 8

[Metadata]
Title:Naisho no Hanashi (TV Size)
Artist:ClariS
Creator:wcx19911123
Version:Insane
Source:Nisemonogatari
Tags:Kenezz Nymph Vicho-kun [Shalon] Senjogahara Hitagi Hachikuji Mayoi Kanbaru Suruga Sengoku Nadeko Hanekawa Tsubasa Oshino Shinobu Araragi Karen Araragi Tsukihi Saito Chiwa Kato Emiri Sawashiro Miyuki Hanazawa Kana Horie Yui Sakamoto Maaya Kitamura Eri Iguchi Yuka VOFAN Aniplex SHAFT ED ending ryo supercell

[Difficulty]
HPDrainRate:7
CircleSize:4
OverallDifficulty:7
ApproachRate:8
SliderMultiplier:1.6
SliderTickRate:1

[Events]
//Background and Video events
Video,200,"ClariS - Naisho no Hanashi (TV Size).AVI"
0,0,"BG.jpg"
//Break Periods
//Storyboard Layer 0 (Background)
//Storyboard Layer 1 (Fail)
//Storyboard Layer 2 (Pass)
//Storyboard Layer 3 (Foreground)
//Storyboard Sound Samples
//Background Colour Transformations
3,100,163,162,255

[TimingPoints]
589,309.278350515464,4,2,1,70,1,0
2960,-100,4,2,1,60,0,0
6774,-100,4,2,0,70,0,0
7702,-100,4,2,2,70,0,0
9248,-100,4,2,1,70,0,0
9454,-100,4,2,2,70,0,0
10485,-100,4,2,1,70,0,0
10692,-100,4,2,2,70,0,0
11723,-100,4,2,1,70,0,0
12032,-100,4,2,2,70,0,0
12341,-100,4,2,1,70,0,0
12650,-100,4,2,2,70,0,0
14197,-100,4,2,1,70,0,0
14403,-100,4,2,2,70,0,0
15021,-100,4,2,1,70,0,0
15125,-100,4,2,2,70,0,0
15331,-100,4,2,1,50,0,0
15434,-100,4,2,1,70,0,0
15640,-100,4,2,2,70,0,0
15949,-100,4,2,1,50,0,0
16052,-100,4,2,1,70,0,0
16362,-100,4,2,2,70,0,0
16671,-100,4,2,1,70,0,0
16877,-100,4,2,1,50,0,0
17599,-100,4,2,1,70,0,0
17908,-100,4,2,2,60,0,0
18217,-100,4,2,1,55,0,0
25949,-100,4,2,0,40,0,0
26156,-100,4,2,1,55,0,0
26774,-100,4,2,2,55,0,0
26877,-100,4,2,1,55,0,0
27083,-100,4,2,2,55,0,0
27186,-100,4,2,1,55,0,0
27805,-100,4,2,2,55,0,0
28114,-100,4,2,1,55,0,0
35228,-100,4,2,0,55,0,0
35434,-100,4,2,1,55,0,0
35640,-100,4,2,1,40,0,0
35846,-100,4,2,1,55,0,0
36774,-100,4,2,2,40,0,0
36980,-100,4,2,1,55,0,0
37702,-133.333333333333,4,2,2,60,0,0
38011,-133.333333333333,4,2,1,60,0,0
38939,-133.333333333333,4,2,0,60,0,0
39145,-133.333333333333,4,2,1,60,0,0
45125,-133.333333333333,4,1,1,60,0,0
46259,-133.333333333333,4,2,1,60,0,0
46362,-133.333333333333,4,1,1,70,0,0
47444,-133.333333333333,4,2,1,60,0,0
48217,-133.333333333333,4,2,0,60,0,0
48372,-133.333333333333,4,2,1,60,0,0
49454,-133.333333333333,4,2,0,60,0,0
49609,-133.333333333333,4,2,1,60,0,0
51929,-133.333333333333,4,2,1,50,0,0
52238,-133.333333333333,4,2,1,60,0,0
52547,-133.333333333333,4,2,1,70,0,0
53784,-133.333333333333,4,2,1,75,0,0
55021,-133.333333333333,4,2,1,50,0,0
55640,-100,4,2,1,60,0,0
56259,-100,4,1,1,55,0,0
56877,-100,4,2,2,70,0,0
57186,-100,4,2,1,70,0,0
57496,-100,4,2,0,70,0,1
57702,-100,4,2,1,70,0,1
62444,-100,4,2,2,70,0,1
62650,-100,4,2,1,70,0,1
67290,-100,4,2,1,70,0,0
67393,-100,4,2,2,70,0,1
67599,-100,4,2,1,70,0,1
72341,-100,4,2,2,55,0,1
72547,-100,4,2,1,70,0,1
77290,-100,4,2,2,55,0,0
77496,-100,4,2,1,55,0,0
79661,-100,4,2,1,45,0,0
79764,-100,4,2,1,55,0,0
82238,-100,4,2,0,55,0,0
82444,-100,4,2,1,55,0,0
86259,-100,4,2,0,55,0,0

[Colours]
Combo1 : 33,201,167
Combo2 : 255,21,9
Combo3 : 255,255,32

[HitObjects]
256,32,589,5,0
256,352,1207,1,0
480,192,1826,5,0
324,148,2135,1,0
188,236,2444,1,0
32,192,2753,1,0
56,88,2960,5,0
56,88,3063,2,0,B|120:96|136:168,1,106.666666666667
136,208,3372,2,0,B|136:272|200:288,1,106.666666666667,8|0
264,296,3681,2,0,B|264:232|200:216,1,106.666666666667
136,208,3991,2,0,B|76:220|64:280,1,106.666666666667,4|4
56,328,4300,5,2
216,352,4609,1,8
296,280,4815,1,0
296,280,4918,2,0,B|352:256|400:296,1,106.666666666667
424,336,5228,1,4
424,216,5434,5,4
424,216,5537,2,0,B|424:152|480:128,1,106.666666666667,2|0
444,64,5846,2,0,B|388:96|339:59,1,106.666666666667,8|0
304,124,6156,2,0,B|359:156|352:216,1,106.666666666667
328,280,6465,1,4
120,360,6774,5,4
24,160,7083,1,4
216,48,7393,1,4
352,136,7702,2,0,B|336:88|280:80|280:80|264:112|224:120,1,160,0|4
80,80,8217,5,0
80,80,8320,2,0,B|20:100|24:168,1,106.666666666667,8|0
96,152,8630,2,0,B|128:200|96:256,1,106.666666666667
32,284,8939,1,8
168,352,9145,5,0
168,352,9248,2,0,B|232:368|260:316,1,106.666666666667,2|0
286,250,9558,2,0,B|224:231|194:287,1,106.666666666667,8|0
259,317,9867,2,0,B|320:336|352:280,1,106.666666666667
348,211,10176,1,8
488,271,10382,5,0
488,271,10485,2,0,B|488:331|440:359,1,106.666666666667,2|0
364,359,10795,2,0,B|312:329|311:273,1,106.666666666667,8|0
348,211,11104,2,0,B|400:184|452:208,1,106.666666666667
488,271,11413,1,8
310,272,11619,5,0
310,272,11723,2,0,B|256:232|288:168,1,106.666666666667,2|2
320,140,12032,1,8
424,32,12238,1,0
424,32,12341,2,0,B|384:80|328:64,1,106.666666666667,2|2
284,36,12650,1,8
136,48,12857,5,0
136,48,12960,2,0,B|72:48|56:112,1,106.666666666667,4|0
128,120,13269,2,0,B|192:120|208:184,1,106.666666666667,8|0
136,192,13578,2,0,B|72:192|56:256,1,106.666666666667
56,324,13887,1,8
184,248,14094,5,0
184,248,14197,2,0,B|228:200|192:144,1,106.666666666667,2|0
260,112,14506,2,0,B|280:174|346:171,1,106.666666666667,8|0
340,244,14815,2,0,B|276:230|246:289,1,106.666666666667,0|2
236,356,15125,1,8
376,308,15331,5,8
376,308,15434,2,0,B|432:312|464:256,1,106.666666666667,2|0
408,208,15743,2,0,B|368:168|392:104,1,106.666666666667,8|8
432,48,16052,1,2
260,112,16362,1,8
292,224,16568,5,0
292,224,16671,1,2
180,192,16877,1,8
180,192,16980,2,0,B|172:256,2,53.3333333333333,8|8|8
168,140,17290,2,0,B|120:64|24:80,1,160,8|0
28,240,17908,5,4
180,192,18217,1,8
104,220,18372,2,0,B|104:320|192:352,1,160,2|0
264,296,18836,2,0,B|304:272|344:288,1,80,8|0
432,320,19145,5,2
488,136,19454,1,8
384,208,19661,1,0
384,208,19764,2,0,B|332:240|280:208,1,106.666666666667
248,168,20073,1,8
88,64,20382,5,2
248,168,20692,1,8
168,120,20846,2,0,B|88:136|56:224,1,160,2|0
56,320,21310,1,8
140,272,21465,2,0,B|184:256|224:280,1,80
320,352,21826,5,2
320,352,21929,2,0,B|376:376|424:328,1,106.666666666667,8|0
408,280,22238,2,0,B|352:256|304:304,1,106.666666666667,2|0
272,336,22547,1,8
456,224,22857,5,2
296,120,23166,1,8
360,48,23320,2,0,B|400:80|408:152|360:192,1,160,2|0
272,216,23784,1,8
208,144,23939,6,0,B|176:112|128:120,1,80
24,272,24403,1,8
96,336,24558,2,0,B|176:376|256:328,1,160
316,264,25021,1,8
232,56,25331,5,2
92,232,25640,1,8
184,256,25795,2,0,B|224:256|256:224,1,80,0|4
296,104,26156,1,0
296,104,26259,2,0,B|352:80|392:128,1,106.666666666667,8|0
404,180,26568,5,2
384,304,26774,1,8
384,304,26877,1,8
284,224,27083,1,8
284,224,27186,1,2
404,180,27393,1,0
404,180,27496,2,0,B|456:152|456:88,1,106.666666666667,8|0
428,48,27805,6,0,B|356:0|268:40,1,160,4|8
272,144,28320,1,0
272,144,28424,2,0,B|256:232|176:264,1,160,0|8
48,288,28939,5,0
48,288,29042,2,0,B|104:272|120:216,1,106.666666666667,2|0
168,192,29351,2,0,B|112:208|72:160,1,106.666666666667,8|0
16,160,29661,2,0,B|72:168|104:112,1,106.666666666667
112,60,29970,1,8
208,128,30176,5,8
208,128,30279,2,0,B|296:144|352:72,1,160,2|8
480,32,30743,2,0,B|408:80|416:172,1,160,2|0
456,256,31207,1,8
415,169,31362,1,0
328,128,31516,6,0,B|240:104|176:160,1,160,0|8
200,272,31980,2,0,B|288:296|352:240,1,160,0|2
415,169,32444,1,8
360,40,32650,1,0
360,40,32753,5,2
160,96,33063,1,8
248,136,33217,2,0,B|312:192|296:280,1,160,2|0
256,368,33681,1,8
168,272,33887,5,0
168,272,33991,2,0,B|112:244|72:288,1,106.666666666667,2|0
32,348,34300,2,0,B|88:376|128:332,1,106.666666666667,8|0
168,272,34609,2,0,B|195:216|145:175,1,106.666666666667
85,140,34918,2,0,B|58:196|108:237,1,106.666666666667,8|0
168,272,35228,6,0,B|224:288|264:240,1,106.666666666667,4|0
272,188,35537,2,0,B|264:136,2,53.3333333333333,8|8|8
312,224,35846,1,2
352,312,36001,2,0,B|432:304|464:208,1,160,4|4
444,116,36465,5,8
344,40,36671,1,0
344,40,36774,1,8
272,144,36980,1,0
272,144,37083,2,0,B|232:192|176:176,1,106.666666666667,8|4
128,152,37393,1,2
64,40,37599,5,0
64,40,37702,2,0,B|16:80|24:152,1,119.999996423721,4|0
104,176,38166,2,0,B|160:208|160:280,1,119.999996423721,2|0
124,352,38630,1,2
232,200,38939,6,0,B|264:168|304:168,1,79.9999976158143,2|0
342,175,39248,1,0
360,360,39558,2,0,B|400:352|424:312,1,79.9999976158143,2|0
436,276,39867,1,8
488,176,40073,5,0
488,176,40176,2,0,B|496:112|448:64,1,119.999996423721,2|0
392,128,40640,2,0,B|336:160|272:136,1,119.999996423721,2|0
208,88,41104,1,2
124,80,41259,6,0,B|88:88|72:112,1,59.9999982118607
40,216,41619,1,0
40,216,41723,1,2
152,344,42032,1,2
216,192,42341,1,8
232,136,42496,1,0
272,96,42650,6,0,B|320:56|384:72,1,119.999996423721,2|0
456,116,43114,1,2
328,288,43475,1,0
328,288,43578,2,0,B|336:336|384:344,1,79.9999976158143,2|0
428,316,43887,6,0,B|415:243|344:231,1,119.999996423721
280,320,44351,2,0,B|256:336|216:320,1,59.9999982118607,0|8
136,232,44712,1,0
136,232,44815,2,0,B|112:200|120:152,1,79.9999976158143,0|2
136,104,45125,5,8
264,40,45434,1,0
368,136,45743,1,0
232,180,46052,2,0,B|216:144|232:96,1,79.9999976158143,0|0
264,40,46362,5,8
432,24,46671,1,0
504,176,46980,1,0
336,160,47290,1,0
288,216,47444,1,0
304,288,47599,6,0,B|336:344|408:344,1,119.999996423721,2|0
456,320,48063,1,0
488,272,48217,1,2
480,216,48372,2,0,B|456:160|384:152,1,119.999996423721
264,232,48991,5,0
176,344,49300,2,0,B|144:352|112:336,1,59.9999982118607,0|2
64,288,49609,2,0,B|40:224|56:168,1,119.999996423721
92,108,50073,5,2
224,48,50382,1,0
152,64,50537,2,0,B|168:128|232:152,1,119.999996423721
360,48,51207,1,0
360,48,51310,2,0,B|408:16|480:32,1,119.999996423721
496,200,51929,5,8
424,240,52083,1,8
388,316,52238,2,0,B|400:352,2,29.9999991059304
340,248,52547,6,0,B|336:208|368:176,2,79.9999976158143,8|4|0
320,264,53063,1,4
296,272,53166,2,0,B|272:312|288:352,1,79.9999976158143,8|4
240,368,53475,2,0,B|200:376|168:344,1,79.9999976158143,0|4
168,272,53784,6,0,B|120:272|104:312,2,79.9999976158143,8|4|0
192,256,54300,1,0
200,232,54403,2,0,B|200:184|160:168,1,79.9999976158143,8|4
112,184,54712,2,0,B|64:184|48:136,1,79.9999976158143
32,72,55021,6,0,B|24:32,2,39.9999988079071,8|8|8
104,56,55331,2,0,B|112:16,2,39.9999988079071,8|8|8
168,88,55640,2,0,B|184:144,2,53.3333333333333,8|8|8
232,56,55949,2,0,B|256:8,2,53.3333333333333,8|8|8
256,128,56259,6,0,B|256:192|201:210,2,106.666666666667
232,56,56774,1,0
232,56,56877,1,4
440,24,57186,1,0
496,152,57393,5,0
496,152,57496,2,0,B|504:216|456:248,1,106.666666666667,4|0
400,200,57805,2,0,B|344:176|304:224,1,106.666666666667,8|0
288,296,58114,2,0,B|264:360|208:360,1,106.666666666667
144,328,58424,2,0,B|152:264|96:240,1,106.666666666667,8|0
24,248,58733,5,2
96,32,59042,1,8
248,200,59351,1,0
352,240,59506,2,0,B|400:252|432:208,1,80,0|8
384,72,59867,5,0
384,72,59970,2,0,B|344:120|372:176,1,106.666666666667,2|0
424,217,60279,2,0,B|456:268|424:320,1,106.666666666667,8|0
208,360,60795,1,0
208,360,60898,2,0,B|160:328|176:264,1,106.666666666667,8|0
208,200,61207,6,0,B|248:152|216:96,1,106.666666666667
168,48,61516,1,8
19,258,61826,2,0,B|51:314|115:294,1,106.666666666667
175,266,62135,2,0,B|143:210|79:230,1,106.666666666667,8|0
109,295,62444,6,0,B|141:351|205:331,1,106.666666666667,4|0
248,280,62753,1,8
464,208,63063,2,0,B|404:212|384:272,1,106.666666666667
372,340,63372,1,8
200,192,63681,5,0
416,120,63991,1,8
312,160,64145,2,0,B|232:136|216:40,1,160
128,112,64609,2,0,B|168:136|208:112,1,80,8|0
344,32,64918,6,0,B|432:8|496:72,1,160,0|8
448,224,65382,2,0,B|360:248|296:184,1,160
256,88,65846,1,8
152,48,66001,1,0
48,96,66156,6,0,B|0:72,2,53.3333333333333,2|0|0
56,168,66465,2,0,B|0:168,2,53.3333333333333,8|0|0
88,232,66774,2,0,B|40:256,2,53.3333333333333,2|0|0
136,288,67083,2,0,B|184:328|240:312,1,106.666666666667,8|0
260,244,67393,6,0,B|280:188|344:192,1,106.666666666667,4|0
412,212,67702,2,0,B|392:268|328:264,1,106.666666666667,8|0
200,200,68011,2,0,B|156:152|192:96,1,106.666666666667,2|0
236,48,68320,2,0,B|280:96|244:152,1,106.666666666667,8|0
200,200,68630,5,2
16,328,68939,1,8
112,272,69094,2,0,B|200:248|256:320,1,160,0|0
360,360,69558,1,8
480,272,69764,5,0
480,272,69867,2,0,B|504:216|472:168,1,106.666666666667
432,136,70176,1,8
376,232,70331,2,0,B|328:304|232:296,1,160
136,248,70795,1,8
80,152,70949,1,0
120,48,71104,6,0,B|160:4|216:32,1,106.666666666667
272,76,71413,2,0,B|232:120|176:92,1,106.666666666667,8|0
120,48,71723,1,0
32,168,71929,1,0
32,168,72032,1,8
180,184,72238,5,0
180,184,72341,2,0,B|232:208|232:272,1,106.666666666667,4|0
208,340,72650,2,0,B|202:283|258:251,1,106.666666666667,8|0
328,236,72960,2,0,B|282:269|226:237,1,106.666666666667
180,184,73269,2,0,B|88:192|64:280,1,160,8|2
288,360,73887,5,8
384,296,74042,2,0,B|440:240|416:144,1,160
296,88,74506,2,0,B|336:112|376:88,1,80,8|0
464,24,74815,5,0
296,208,75125,1,8
152,160,75331,1,0
152,160,75434,2,0,B|108:112|144:56,1,106.666666666667
200,104,75743,2,0,B|244:152|208:208,1,106.666666666667,8|0
144,232,76052,6,0,B|88:216|40:256,1,106.666666666667
61,326,76362,2,0,B|117:342|165:302,1,106.666666666667,8|0
216,256,76671,2,0,B|272:228|312:272,1,106.666666666667
352,333,76980,2,0,B|296:361|256:317,1,106.666666666667,8|0
200,184,77290,6,0,B|192:128|224:80,1,106.666666666667,4|0
264,48,77599,1,8
384,88,77805,1,0
384,88,77908,2,0,B|384:152|432:184,1,106.666666666667
472,208,78217,1,8
408,320,78424,5,0
408,320,78527,2,0,B|368:360|304:360,1,106.666666666667
260,348,78836,1,8
144,288,79042,1,0
144,288,79145,2,0,B|200:280|224:224,1,106.666666666667
224,172,79454,1,8
168,56,79661,5,8
168,56,79764,2,0,B|104:40|64:88,1,106.666666666667
44,128,80073,1,8
152,192,80279,1,0
152,192,80382,2,0,B|200:216|216:272,1,106.666666666667
216,328,80692,1,8
328,264,80898,5,0
328,264,81001,2,0,B|376:240|432:264,1,106.666666666667
472,296,81310,1,8
424,176,81516,1,0
424,176,81619,2,0,B|408:120|432:72,1,106.666666666667
464,28,81929,1,8
240,32,82238,6,0,B|184:32|152:88,1,106.666666666667,4|0
136,136,82547,1,8
40,336,82857,2,0,B|96:360|144:328,1,106.666666666667
176,288,83166,1,8
296,104,83475,6,0,B|352:96|392:144,1,106.666666666667
408,192,83784,1,8
256,352,84094,2,0,B|200:344|176:288,1,106.666666666667
172,236,84403,1,8
294,48,84712,6,0,B|350:64|366:128,1,106.666666666667,0|8
366,196,85021,2,0,B|350:252|286:268,1,106.666666666667,0|2
218,264,85331,2,0,B|162:248|146:184,1,106.666666666667,2|0
146,116,85640,2,0,B|162:60|226:44,1,106.666666666667,8|2
256,110,85949,5,0
376,320,86259,1,4
136,320,86568,1,4
