osu file format v12

[General]
AudioFilename: Luminous.mp3
AudioLeadIn: 2000
PreviewTime: 59560
Countdown: 0
SampleSet: Soft
StackLeniency: 0.3
Mode: 0
LetterboxInBreaks: 1

[Editor]
DistanceSpacing: 1.3
BeatDivisor: 4
GridSize: 8

[Metadata]
Title:Luminous -movie MIX-
TitleUnicode:ルミナス -movie MIX-
Artist:ClariS
ArtistUnicode:ClariS
Creator:No_Gu
Version:Hard
Source:Gekijouban Puella Magi Madoka Magica [Zenhen] Hajimari no Monogatari
Tags:劇場版 魔法少女まどか☆マギカ [前編] 始まりの物語 Flask
BeatmapID:268152
BeatmapSetID:98234

[Difficulty]
HPDrainRate:5
CircleSize:4
OverallDifficulty:6
ApproachRate:8
SliderMultiplier:1.44
SliderTickRate:1

[Events]
//Background and Video events
0,0,"BG.jpg",0,0
//Break Periods
//Storyboard Layer 0 (Background)
//Storyboard Layer 1 (Fail)
//Storyboard Layer 2 (Pass)
//Storyboard Layer 3 (Foreground)
//Storyboard Sound Samples
//Background Colour Transformations
3,100,163,162,255

[TimingPoints]
601,346.820809248555,4,2,1,70,1,0
2335,-200,4,2,1,70,0,0
4762,-100,4,2,1,70,0,0
13086,-133.333333333333,4,2,1,70,0,0
15861,-200,4,2,1,50,0,0
21236,-200,4,2,1,40,0,0
24184,-200,4,2,1,50,0,0
35283,-100,4,2,1,70,0,0
60254,-100,4,1,2,50,0,1
60340,-100,4,2,1,70,0,1
71265,-100,4,2,1,70,0,0
71352,-100,4,2,1,70,0,1
82450,-133.333333333333,4,2,1,70,0,0
83491,-200,4,2,1,70,0,0
86612,-100,4,2,1,70,0,0
88346,-100,4,2,1,20,0,0
88520,-100,4,2,1,25,0,0
88693,-100,4,2,1,30,0,0
88866,-100,4,2,1,35,0,0
89040,-100,4,2,1,40,0,0
89213,-100,4,2,1,45,0,0
89387,-100,4,2,1,50,0,0
89560,-100,4,2,1,55,0,0
89733,-100,4,2,1,60,0,0
89907,-100,4,2,1,65,0,0
90080,-100,4,2,1,70,0,0
90254,-100,4,2,1,75,0,0
90427,346.820809248555,4,2,1,75,1,0
90427,-100,4,2,1,80,0,0
91120,-133.333333333333,4,2,1,80,0,0
91814,-133.333333333333,4,2,1,40,0,0
91987,-133.333333333333,4,2,1,80,0,0
93678,346.820809248555,4,2,1,80,1,0
93764,-100,4,2,1,5,0,0
97493,-100,4,2,1,40,0,0

[Colours]
Combo1 : 255,128,128
Combo2 : 255,255,128
Combo3 : 128,255,255
Combo4 : 128,255,128

[HitObjects]
64,136,601,1,2,0:0:0:0:
96,64,947,1,0,0:0:0:0:
160,216,1294,1,2,0:0:0:0:
158,137,1640,1,0,0:0:0:0:
272,240,1988,1,2,0:0:0:0:
236,169,2335,2,0,L|243:124,1,36,0|2,0:0|0:0,0:0:0:0:
256,48,2855,5,4,1:0:0:0:
256,192,2942,12,4,4762,0:0:0:0:
64,168,5109,5,0,0:0:0:0:
72,80,5283,2,0,P|128:40|208:56,1,144,2|0,0:0|0:0,0:0:0:0:
224,144,5803,2,0,L|152:136,1,72,0|8,0:0|0:0,0:0:0:0:
104,216,6150,6,0,L|248:232,2,144,2|0|2,0:0|0:0|0:0,0:0:0:0:
40,160,7017,2,0,P|32:128|32:88,1,72,4|4,0:3|0:3,0:0:0:0:
24,240,7364,1,2,0:0:0:0:
24,240,7450,1,0,0:0:0:0:
24,240,7537,6,0,P|56:296|144:296,1,144,2|0,0:0|0:0,0:0:0:0:
376,256,8231,2,0,P|368:182|312:150,1,144,2|0,0:0|0:0,0:0:0:0:
176,239,8751,1,8,0:0:0:0:
176,239,8924,6,0,P|243:269|299:236,1,144,2|0,0:0|0:0,0:0:0:0:
296,72,9444,1,4,0:3:0:0:
296,72,9618,2,0,P|236:115|232:184,1,144,2|0,0:0|0:0,0:0:0:0:
312,240,10138,2,0,L|352:224,2,36,8|8|4,0:0|0:0|0:0,0:0:0:0:
150,305,10658,5,0,0:0:0:0:
88,142,11005,1,2,0:0:0:0:
264,88,11352,1,0,0:0:0:0:
328,152,11525,6,0,L|400:144,1,72,10|0,0:0|0:0,0:0:0:0:
248,176,11872,2,0,L|176:168,1,72,8|0,0:0|0:0,0:0:0:0:
344,344,12392,1,2,0:0:0:0:
256,312,12565,1,4,0:3:0:0:
168,344,12739,1,4,0:3:0:0:
456,64,13086,6,0,B|400:40|336:72|320:120,2,162.00000617981,4|8|0,0:0|0:0|0:0,0:0:0:0:
55,319,14473,2,0,B|112:344|176:312|192:264,2,162.00000617981,2|4|8,0:0|0:3|0:0,0:0:0:0:
256,192,15861,5,4,0:0:0:0:
256,192,18288,6,0,L|336:192,1,72,0|2,0:0|0:0,0:0:0:0:
256,192,21236,6,0,L|216:192,1,36,0|2,1:0|1:2,0:0:0:0:
256,192,24184,5,2,0:0:0:0:
256,192,26959,5,4,1:0:0:0:
256,192,29733,5,2,1:2:0:0:
256,192,32508,5,2,1:2:0:0:
256,192,35283,6,0,B|208:136|248:64|248:64|208:32|144:64,2,216,4|8|4,0:0|0:0|0:3,0:0:0:0:
320,128,36496,1,2,0:0:0:0:
320,128,36583,1,0,0:0:0:0:
320,128,36670,6,0,P|384:128|448:176,1,144,2|8,0:0|0:0,0:0:0:0:
408,304,37190,2,0,P|344:304|280:256,1,144,2|2,0:0|0:0,0:0:0:0:
176,80,37884,1,8,0:0:0:0:
176,80,37970,1,8,0:0:0:0:
176,80,38057,6,0,L|168:232,1,144,4|8,0:0|0:0,0:0:0:0:
264,296,38577,2,0,L|272:144,1,144,2|2,0:0|0:0,0:0:0:0:
352,104,39098,2,0,P|392:96|424:104,1,72,10|0,0:0|0:0,0:0:0:0:
272,64,39444,6,0,P|208:48|120:56,1,144,2|8,0:0|0:0,0:0:0:0:
128,176,39965,2,0,P|192:192|280:184,1,144,2|2,0:0|0:0,0:0:0:0:
352,232,40485,2,0,L|360:312,1,72,10|0,0:0|0:0,0:0:0:0:
448,360,40832,6,0,L|464:200,1,144,2|8,0:0|0:0,0:0:0:0:
400,152,41352,2,0,P|384:144|328:144,1,72,2|0,0:0|0:0,0:0:0:0:
256,104,41699,2,0,P|241:113|213:162,1,72,2|10,0:0|0:0,0:0:0:0:
136,192,42046,2,0,P|137:209|165:258,1,72,0|2,0:0|0:0,0:0:0:0:
376,344,42566,5,8,0:0:0:0:
440,288,42739,2,0,P|448:224|440:128,1,144,2|2,0:0|0:0,0:0:0:0:
368,88,43259,2,8,L|296:96,1,72,10|0,0:0|0:0,0:0:0:0:
232,160,43606,6,0,P|152:152|96:104,1,144,2|8,0:0|0:0,0:0:0:0:
96,32,44127,1,2,0:0:0:0:
40,168,44300,2,0,L|56:312,1,144,0|10,0:0|0:0,0:0:0:0:
128,360,44820,1,0,0:0:0:0:
208,320,44994,6,0,P|280:312|352:352,1,144,2|8,0:0|0:0,0:0:0:0:
416,304,45514,2,0,P|440:272|416:152,1,144,2|2,0:0|0:0,0:0:0:0:
368,112,46034,1,10,0:0:0:0:
288,96,46207,1,0,0:0:0:0:
208,128,46381,6,0,P|136:136|64:112,1,144,2|8,0:0|0:0,0:0:0:0:
68,269,46901,2,0,P|136:248|208:256,1,144,2|2,0:0|0:0,0:0:0:0:
288,304,47421,1,8,0:0:0:0:
400,80,47768,5,2,0:0:0:0:
384,160,47942,1,0,0:0:0:0:
424,232,48115,1,8,0:0:0:0:
408,312,48288,2,0,P|344:344|264:336,1,144,2|2,0:0|0:0,0:0:0:0:
208,272,48809,2,0,L|136:280,1,72,4|4,0:3|0:3,0:0:0:0:
176,160,49155,6,0,P|264:168|304:216,1,144,4|8,0:0|0:0,0:0:0:0:
384,176,49676,2,0,L|400:24,1,144,2|2,0:0|0:0,0:0:0:0:
304,88,50196,1,8,0:0:0:0:
200,56,50369,6,0,P|128:56|72:112,1,144,2|2,0:0|0:0,0:0:0:0:
176,208,50890,2,0,L|168:136,1,72,8|2,0:0|0:0,0:0:0:0:
296,184,51236,2,0,P|280:232|248:256,1,72,0|2,0:0|0:0,0:0:0:0:
336,336,51583,2,0,P|286:346|249:330,1,72,8|2,0:0|0:0,0:0:0:0:
184,288,51930,6,0,P|136:248|56:280,1,144,2|8,0:0|0:0,0:0:0:0:
120,320,52450,2,0,L|136:144,1,144,2|2,0:0|0:0,0:0:0:0:
200,120,52970,1,8,0:0:0:0:
280,168,53144,1,2,0:0:0:0:
280,168,53231,1,2,0:0:0:0:
280,168,53317,6,0,L|352:160,1,72,0|8,0:0|0:0,0:0:0:0:
464,336,54011,1,8,0:0:0:0:
403,298,54184,1,0,0:0:0:0:
333,281,54358,1,0,0:0:0:0:
261,288,54531,1,0,0:0:0:0:
196,317,54705,6,0,P|134:344|38:328,1,144,4|8,0:0|0:0,0:0:0:0:
40,192,55225,2,0,P|101:164|197:180,1,144,4|2,0:0|0:0,0:0:0:0:
256,128,55745,2,0,P|272:88|272:56,1,72,8|0,0:0|0:0,0:0:0:0:
256,216,56092,6,0,B|248:272|248:272|256:296|256:296|248:360,1,144,4|8,0:0|0:0,0:0:0:0:
328,256,56612,2,0,B|336:200|336:200|328:176|328:176|336:112,1,144,4|8,0:0|0:0,0:0:0:0:
400,64,57132,1,0,0:0:0:0:
256,192,57479,12,2,58866,0:0:0:0:
88,64,59560,6,0,P|72:48|48:40,2,48,2|0|0,0:0|0:0|0:0,0:0:0:0:
160,96,59907,2,0,P|181:90|200:73,2,48,2|0|0,0:0|0:0|0:0,0:0:0:0:
96,144,60254,6,0,P|88:216|104:304,1,144,12|10,0:0|0:0,0:0:0:0:
160,344,60774,1,0,0:0:0:0:
240,312,60947,2,0,L|320:320,1,72,2|0,0:0|0:0,0:0:0:0:
384,232,61294,1,8,0:0:0:0:
312,144,61468,6,0,P|224:160|200:208,1,144,2|2,0:0|0:0,0:0:0:0:
288,224,61988,1,8,0:0:0:0:
336,64,62161,1,0,0:0:0:0:
448,192,62335,2,0,P|464:264|448:344,1,144,2|10,0:0|0:0,0:0:0:0:
360,352,62855,1,0,0:0:0:0:
296,288,63028,6,0,L|152:304,1,144,2|8,0:0|0:0,0:0:0:0:
80,256,63548,2,0,P|56:200|72:104,1,144,2|2,0:0|0:0,0:0:0:0:
128,48,64069,1,8,0:0:0:0:
208,96,64242,6,0,B|240:80|240:80|296:112|368:88,1,144,2|2,0:0|0:0,0:0:0:0:
416,152,64762,2,0,P|416:192|408:224,1,72,8|0,0:0|0:0,0:0:0:0:
328,320,65109,1,2,0:0:0:0:
240,288,65283,1,0,0:0:0:0:
238,197,65456,1,10,0:0:0:0:
328,168,65629,1,0,0:0:0:0:
383,244,65803,6,0,P|408:192|384:96,1,144,4|10,0:0|0:0,0:0:0:0:
320,48,66323,1,0,0:0:0:0:
232,88,66496,2,0,L|80:80,1,144,2|10,0:0|0:0,0:0:0:0:
72,216,67017,1,2,0:0:0:0:
72,216,67103,1,0,0:0:0:0:
72,216,67190,6,0,P|144:216|184:152,2,144,2|8|2,0:0|0:0|0:0,0:0:0:0:
16,160,68057,1,0,0:0:0:0:
80,296,68231,2,0,L|64:368,1,72,10|0,0:0|0:0,0:0:0:0:
184,344,68577,6,0,L|152:200,1,144,4|10,0:0|0:0,0:0:0:0:
184,120,69098,1,0,0:0:0:0:
184,120,69184,1,0,0:0:0:0:
184,120,69271,1,8,0:0:0:0:
320,184,69444,1,2,0:0:0:0:
320,184,69791,6,0,P|384:176|416:96,1,144,4|0,0:0|0:0,0:0:0:0:
312,32,70311,2,0,L|336:104,1,72,8|0,0:0|0:0,0:0:0:0:
240,152,70658,2,0,L|217:83,1,72,8|0,0:0|0:0,0:0:0:0:
112,88,71005,2,0,L|136:160,1,72,8|0,0:0|0:0,0:0:0:0:
176,296,71352,6,0,P|112:328|32:320,1,144,4|8,0:0|0:0,0:0:0:0:
160,216,71872,1,0,0:0:0:0:
240,344,72046,2,0,P|304:376|384:368,1,144,2|8,0:0|0:0,0:0:0:0:
440,312,72566,6,0,L|424:152,1,144,2|2,0:0|0:0,0:0:0:0:
416,80,73086,1,8,0:0:0:0:
352,136,73259,1,0,0:0:0:0:
272,152,73433,2,0,L|192:144,1,72,2|0,0:0|0:0,0:0:0:0:
136,232,73780,2,0,L|216:240,1,72,10|0,0:0|0:0,0:0:0:0:
304,336,74127,6,0,P|336:272|328:200,1,144,2|8,0:0|0:0,0:0:0:0:
136,232,74647,2,0,P|104:168|112:96,1,144,2|2,0:0|0:0,0:0:0:0:
184,40,75167,1,8,0:0:0:0:
264,88,75340,6,0,P|320:96|408:72,1,144,2|2,0:0|0:0,0:0:0:0:
472,16,75861,2,0,P|488:56|488:88,1,72,8|0,0:0|0:0,0:0:0:0:
432,240,76207,1,2,0:0:0:0:
378,192,76381,1,0,0:0:0:0:
312,163,76554,1,10,0:0:0:0:
241,156,76728,1,0,0:0:0:0:
171,171,76901,6,0,P|80:176|16:144,1,144,4|8,0:0|0:0,0:0:0:0:
48,32,77421,2,0,P|139:27|203:59,1,144,2|2,0:0|0:0,0:0:0:0:
264,88,77942,2,0,P|296:88|336:72,1,72,8|0,0:0|0:0,0:0:0:0:
184,136,78288,6,0,L|200:288,1,144,4|8,0:0|0:0,0:0:0:0:
296,336,78809,2,0,L|280:184,1,144,2|2,0:0|0:0,0:0:0:0:
336,120,79329,1,8,0:0:0:0:
336,120,79676,6,0,P|384:96|472:104,1,144,8|8,0:0|0:0,0:0:0:0:
512,184,80196,1,0,0:0:0:0:
488,264,80369,2,0,P|440:288|352:280,1,144,8|8,0:0|0:0,0:0:0:0:
104,304,81063,6,0,P|160:232|144:160,1,144,4|8,0:0|0:0,0:0:0:0:
16,96,81583,2,0,P|11:144|67:216,1,144,2|2,0:0|0:0,0:0:0:0:
104,128,82103,2,0,P|136:112|176:112,1,72,8|0,0:0|0:0,0:0:0:0:
256,192,82450,12,4,84184,0:3:0:0:
368,72,84531,6,0,L|376:32,2,36,8|8|0,0:0|0:0|0:0,0:0:0:0:
256,192,85225,6,0,P|200:208|152:184,1,108,4|8,0:0|0:0,0:0:0:0:
216,56,85918,2,0,L|208:128,1,72,8|2,0:0|0:0,0:0:0:0:
256,192,86439,12,4,87999,0:0:0:0:
352,48,88346,6,8,L|424:40,1,72
392,120,88693,2,8,L|458:149,1,72
384,200,89040,2,8,L|426:258,1,72
328,256,89387,2,8,L|336:328,1,72
256,272,89733,2,8,L|226:338,1,72
179,251,90080,2,8,L|120:293,1,72
120,192,90427,5,4,0:0:0:0:
120,192,91467,2,0,L|48:208,1,54.0000020599366,8|0,0:0|0:0,0:0:0:0:
0,152,91814,2,0,P|-8:96|8:32,1,108.000004119873,4|4,0:3|0:0,0:0:0:0:
256,192,93678,5,2,0:0:0:0:
256,192,93764,12,2,97493,0:0:0:0:
