osu file format v14

[General]
AudioFilename: Luminous MOVIE MIX.mp3
AudioLeadIn: 0
PreviewTime: 59568
Countdown: 0
SampleSet: Soft
StackLeniency: 0.7
Mode: 3
LetterboxInBreaks: 0
SpecialStyle: 0
WidescreenStoryboard: 1

[Editor]
Bookmarks: 39619
DistanceSpacing: 1.2
BeatDivisor: 2
GridSize: 4
TimelineZoom: 1

[Metadata]
Title:Luminous -Movie MIX-
TitleUnicode:ルミナス -Movie MIX-
Artist:ClariS
ArtistUnicode:ClariS
Creator:Tatsuya Kaname
Version:Double Duet
Source:劇場版 魔法少女まどか☆マギカ 始まりの物語
Tags:Mahou Shoujo Madoka ☆ Magica Zenpen Hajimari no Monogatari Anime Puella Magi Beginnings Eternal Movie
BeatmapID:664616
BeatmapSetID:295283

[Difficulty]
HPDrainRate:7
CircleSize:4
OverallDifficulty:7
ApproachRate:5
SliderMultiplier:1.4
SliderTickRate:1

[Events]
//Background and Video events
0,0,"BG.jpg",0,0
//Break Periods
//Storyboard Layer 0 (Background)
//Storyboard Layer 1 (Fail)
//Storyboard Layer 2 (Pass)
//Storyboard Layer 3 (Foreground)
//Storyboard Sound Samples

[TimingPoints]
602,346.820809248555,4,2,3,45,1,0
56526,-100,4,2,3,50,0,0
60255,-100,4,2,3,65,0,1
61815,-100,4,2,3,40,0,1
61902,-100,4,2,3,65,0,1
62336,-100,4,2,3,65,0,1
66844,-100,4,2,3,65,0,1
68578,-100,4,2,3,65,0,1
68665,-100,4,2,3,65,0,1
69445,-100,4,2,3,65,0,1
70659,-100,4,2,3,65,0,1
71266,-100,4,2,3,65,0,1
71353,-100,4,2,3,65,0,1
73087,-100,4,2,3,65,0,1
73434,-100,4,2,3,65,0,1
75168,-100,4,2,3,65,0,1
75341,-100,4,2,3,65,0,1
76555,-100,4,2,3,55,0,1
76729,-100,4,2,3,65,0,1
77943,-100,4,2,3,65,0,1
78289,-100,4,2,3,65,0,1
80023,-100,4,2,3,55,0,1
80197,-100,4,2,3,65,0,1
82450,-100,4,2,3,70,0,1
83838,-100,4,2,3,70,0,1
86960,-100,4,2,3,70,0,0
88346,-100,4,2,3,20,0,0
88520,-100,4,2,3,25,0,0
88693,-100,4,2,3,30,0,0
88866,-100,4,2,3,35,0,0
89040,-100,4,2,3,40,0,0
89213,-100,4,2,3,45,0,0
89387,-100,4,2,3,50,0,0
89560,-100,4,2,3,55,0,0
89733,-100,4,2,3,60,0,0
89907,-100,4,2,3,65,0,0
90080,-100,4,2,3,70,0,0
90254,-100,4,2,3,75,0,0
90427,-100,4,2,3,80,0,0
91814,-100,4,2,3,40,0,0

[HitObjects]
320,192,602,5,2,0:0:0:0:
192,192,602,1,2,0:0:0:0:
192,192,948,1,8,0:0:0:0:
64,192,948,1,8,0:0:0:0:
448,192,1295,1,2,0:0:0:0:
320,192,1295,1,2,0:0:0:0:
64,192,1642,1,8,0:0:0:0:
192,192,1642,1,8,0:0:0:0:
192,192,1989,1,2,0:0:0:0:
320,192,1989,1,2,0:0:0:0:
64,192,2336,1,2,0:0:0:0:
192,192,2336,1,2,0:0:0:0:
448,192,2509,1,8,0:0:0:0:
320,192,2509,1,8,0:0:0:0:
192,192,2856,128,4,4590:0:0:0:0:
320,192,2856,128,4,4590:0:0:0:0:
64,192,4763,128,4,7365:0:0:0:0:
192,192,5110,1,8,0:0:0:0:
192,192,5804,1,8,0:0:0:0:
192,192,6151,1,2,0:0:0:0:
192,192,6497,1,8,0:0:0:0:
192,192,7191,1,8,0:0:0:0:
192,192,7538,128,12,9792:0:0:0:0:
320,192,7538,1,12,0:0:0:0:
320,192,8232,1,8,0:0:0:0:
320,192,8925,1,8,0:0:0:0:
320,192,9619,1,8,0:0:0:0:
320,192,10312,128,12,13087:0:0:0:0:
448,192,10312,1,12,0:0:0:0:
448,192,11006,1,8,0:0:0:0:
448,192,11700,1,8,0:0:0:0:
448,192,12393,1,8,0:0:0:0:
192,192,12740,1,2,0:0:0:0:
448,192,13087,128,4,15515:0:0:0:0:
64,192,13087,128,4,15515:0:0:0:0:
320,192,15862,1,4,0:0:0:0:
192,192,15862,1,4,0:0:0:0:
64,192,16208,1,0,0:0:0:0:
64,192,16555,128,2,16902:0:0:0:0:
448,192,16555,128,2,16902:0:0:0:0:
320,192,17075,128,2,17943:0:0:0:0:
192,192,17596,128,2,17943:0:0:0:0:
64,192,18289,1,2,0:0:0:0:
192,192,18463,1,2,0:0:0:0:
320,192,18636,128,10,18983:0:0:0:0:
448,192,19156,128,8,19677:0:0:0:0:
64,192,19850,128,8,20370:0:0:0:0:
448,192,20717,1,8,0:0:0:0:
320,192,20717,1,8,0:0:0:0:
320,192,21064,1,8,0:0:0:0:
192,192,21064,1,8,0:0:0:0:
64,192,21411,1,4,0:0:0:0:
64,192,21758,128,0,21931:0:0:0:0:
448,192,22104,128,2,22451:0:0:0:0:
320,192,22451,1,0,0:0:0:0:
192,192,22625,128,2,23145:0:0:0:0:
64,192,22625,1,2,0:0:0:0:
64,192,23145,128,2,23492:0:0:0:0:
320,192,23838,1,2,0:0:0:0:
192,192,24012,1,2,0:0:0:0:
64,192,24185,128,10,25052:0:0:0:0:
448,192,24706,128,8,25052:0:0:0:0:
64,192,25399,128,8,26960:0:0:0:0:
448,192,25399,128,8,26960:0:0:0:0:
192,192,26266,128,8,26960:0:0:0:0:
320,192,26266,128,8,26960:0:0:0:0:
448,192,27307,1,2,0:0:0:0:
320,192,27654,1,2,0:0:0:0:
64,192,27654,1,2,0:0:0:0:
64,192,28000,1,2,0:0:0:0:
320,192,28000,1,2,0:0:0:0:
448,192,28174,128,0,28521:0:0:0:0:
192,192,28174,128,0,28521:0:0:0:0:
320,192,28694,128,0,29041:0:0:0:0:
64,192,28694,128,0,29041:0:0:0:0:
64,192,29388,1,0,0:0:0:0:
192,192,29561,1,0,0:0:0:0:
320,192,29734,128,2,30081:0:0:0:0:
192,192,30255,128,2,30602:0:0:0:0:
448,192,30602,128,2,30948:0:0:0:0:
64,192,30948,128,8,31469:0:0:0:0:
448,192,31469,1,0,0:0:0:0:
448,192,31815,1,8,0:0:0:0:
320,192,32162,1,8,0:0:0:0:
192,192,32509,1,4,0:0:0:0:
64,192,32509,1,4,0:0:0:0:
320,192,32856,1,8,0:0:0:0:
448,192,32856,1,8,0:0:0:0:
192,192,33203,1,8,0:0:0:0:
64,192,33203,1,8,0:0:0:0:
320,192,33723,1,8,0:0:0:0:
448,192,33723,1,8,0:0:0:0:
64,192,34243,1,8,0:0:0:0:
192,192,34243,1,8,0:0:0:0:
64,192,34590,128,2,37018:0:0:0:0:
192,192,34590,128,2,37018:0:0:0:0:
320,192,34937,128,2,37018:0:0:0:0:
448,192,34937,128,2,37018:0:0:0:0:
192,192,37365,1,8,0:0:0:0:
320,192,37365,1,8,0:0:0:0:
64,192,37711,1,8,0:0:0:0:
448,192,37711,1,8,0:0:0:0:
64,192,38058,1,4,0:0:0:0:
192,192,38405,1,8,0:0:0:0:
320,192,38405,1,8,0:0:0:0:
192,192,38578,1,8,0:0:0:0:
320,192,38578,1,8,0:0:0:0:
64,192,38925,1,2,0:0:0:0:
448,192,38925,1,2,0:0:0:0:
192,192,39272,128,8,39792:0:0:0:0:
320,192,39272,128,8,39792:0:0:0:0:
64,192,40139,128,8,40312:0:0:0:0:
192,192,40486,128,8,40659:0:0:0:0:
320,192,40833,128,4,41006:0:0:0:0:
448,192,41180,1,2,0:0:0:0:
448,192,41353,128,8,41526:0:0:0:0:
320,192,41700,128,8,41873:0:0:0:0:
192,192,42047,128,8,42567:0:0:0:0:
192,192,42914,1,8,0:0:0:0:
64,192,42914,1,8,0:0:0:0:
192,192,43087,1,8,0:0:0:0:
320,192,43087,1,8,0:0:0:0:
448,192,43260,1,8,0:0:0:0:
320,192,43260,1,8,0:0:0:0:
192,192,43434,1,8,0:0:0:0:
320,192,43434,1,8,0:0:0:0:
192,192,43607,128,4,43954:0:0:0:0:
64,192,43607,128,4,43954:0:0:0:0:
320,192,44301,128,4,44648:0:0:0:0:
448,192,44301,128,4,44648:0:0:0:0:
448,192,44995,128,8,45341:0:0:0:0:
320,192,44995,128,8,45341:0:0:0:0:
192,192,45515,128,8,46035:0:0:0:0:
64,192,45862,1,8,0:0:0:0:
320,192,46208,1,2,0:0:0:0:
448,192,46382,128,12,46555:0:0:0:0:
320,192,46729,1,2,0:0:0:0:
320,192,46902,128,4,47075:0:0:0:0:
192,192,47249,128,4,47422:0:0:0:0:
64,192,47596,128,4,48116:0:0:0:0:
64,192,48463,1,8,0:0:0:0:
192,192,48463,1,8,0:0:0:0:
64,192,48810,1,8,0:0:0:0:
192,192,48810,1,8,0:0:0:0:
320,192,49156,128,4,49677:0:0:0:0:
448,192,49156,128,4,49677:0:0:0:0:
192,192,49503,1,2,0:0:0:0:
64,192,49503,1,2,0:0:0:0:
192,192,49677,1,2,0:0:0:0:
64,192,49677,1,2,0:0:0:0:
192,192,50023,1,0,0:0:0:0:
320,192,50023,1,0,0:0:0:0:
320,192,50370,128,4,50891:0:0:0:0:
448,192,50370,128,4,50891:0:0:0:0:
192,192,51237,1,8,0:0:0:0:
448,192,51584,1,8,0:0:0:0:
320,192,51931,1,4,0:0:0:0:
448,192,52278,1,0,0:0:0:0:
448,192,52451,1,0,0:0:0:0:
64,192,52798,1,6,0:0:0:0:
64,192,53145,128,4,53665:0:0:0:0:
64,192,54012,1,8,0:0:0:0:
192,192,54185,1,8,0:0:0:0:
320,192,54359,1,8,0:0:0:0:
448,192,54532,1,8,0:0:0:0:
64,192,54706,128,4,55226:0:0:0:0:
320,192,54706,128,4,55226:0:0:0:0:
320,192,55919,1,8,0:0:0:0:
192,192,55919,1,8,0:0:0:0:
448,192,56093,128,4,56613:0:0:0:0:
64,192,56093,128,4,56613:0:0:0:0:
320,192,57133,1,2,0:0:0:0:
192,192,57133,1,2,0:0:0:0:
64,192,57480,128,4,58867:0:0:0:0:
192,192,57480,128,4,58867:0:0:0:0:
320,192,57480,128,4,58867:0:0:0:0:
448,192,57480,128,4,58867:0:0:0:0:
448,192,59561,128,8,60081:0:0:0:0:
320,192,60255,128,4,60428:0:0:0:0:
192,192,60602,128,8,60775:0:0:0:0:
64,192,60948,128,2,61122:0:0:0:0:
192,192,61295,1,8,0:0:0:0:
320,192,61469,128,4,61815:0:0:0:0:
448,192,61815,128,4,62162:0:0:0:0:
64,192,62336,128,8,62509:0:0:0:0:
192,192,62682,128,8,62856:0:0:0:0:
448,192,63029,1,4,0:0:0:0:
320,192,63029,1,4,0:0:0:0:
320,192,63376,1,0,0:0:0:0:
448,192,63376,1,0,0:0:0:0:
64,192,63549,128,2,63896:0:0:0:0:
192,192,63549,128,2,63896:0:0:0:0:
320,192,64070,1,2,0:0:0:0:
448,192,64070,1,2,0:0:0:0:
320,192,64243,1,4,0:0:0:0:
448,192,64243,1,4,0:0:0:0:
320,192,64590,128,4,64937:0:0:0:0:
448,192,64590,128,4,64937:0:0:0:0:
64,192,65110,1,0,0:0:0:0:
192,192,65284,1,8,0:0:0:0:
320,192,65457,1,8,0:0:0:0:
448,192,65630,1,8,0:0:0:0:
448,192,65804,128,4,65977:0:0:0:0:
320,192,66151,128,4,66324:0:0:0:0:
192,192,66497,128,4,66671:0:0:0:0:
448,192,66844,128,8,67018:0:0:0:0:
320,192,67191,128,4,67365:0:0:0:0:
192,192,67538,128,4,67711:0:0:0:0:
64,192,67885,128,2,68232:0:0:0:0:
192,192,68232,128,2,68578:0:0:0:0:
320,192,68578,128,4,68925:0:0:0:0:
448,192,68578,128,4,68925:0:0:0:0:
64,192,69099,128,4,69272:0:0:0:0:
448,192,69445,128,4,69619:0:0:0:0:
320,192,69792,128,4,70312:0:0:0:0:
192,192,69792,128,4,70312:0:0:0:0:
64,192,70659,128,8,71700:0:0:0:0:
192,192,71353,128,4,71700:0:0:0:0:
320,192,71700,1,8,0:0:0:0:
448,192,71700,1,8,0:0:0:0:
320,192,72047,128,2,72393:0:0:0:0:
192,192,72393,1,2,0:0:0:0:
64,192,72567,128,0,72740:0:0:0:0:
448,192,72914,128,0,73087:0:0:0:0:
192,192,73434,128,8,73607:0:0:0:0:
320,192,73434,128,8,73607:0:0:0:0:
192,192,73781,128,8,73954:0:0:0:0:
320,192,73781,128,8,73954:0:0:0:0:
448,192,74128,128,4,74474:0:0:0:0:
320,192,74648,128,0,74995:0:0:0:0:
192,192,75168,1,0,0:0:0:0:
64,192,75341,128,4,75862:0:0:0:0:
192,192,75688,128,4,75862:0:0:0:0:
64,192,76208,1,2,0:0:0:0:
192,192,76382,1,2,0:0:0:0:
320,192,76555,1,2,0:0:0:0:
448,192,76729,1,2,0:0:0:0:
320,192,76902,1,4,0:0:0:0:
192,192,76902,1,4,0:0:0:0:
64,192,77249,1,8,0:0:0:0:
448,192,77249,1,8,0:0:0:0:
64,192,77422,1,8,0:0:0:0:
448,192,77422,1,8,0:0:0:0:
192,192,77769,128,2,77943:0:0:0:0:
320,192,77769,128,2,77943:0:0:0:0:
192,192,78289,1,4,0:0:0:0:
320,192,78289,1,4,0:0:0:0:
448,192,78636,1,8,0:0:0:0:
64,192,78636,1,8,0:0:0:0:
64,192,78810,1,8,0:0:0:0:
448,192,78810,1,8,0:0:0:0:
320,192,79156,1,2,0:0:0:0:
192,192,79156,1,2,0:0:0:0:
192,192,79677,128,4,80370:0:0:0:0:
320,192,79677,128,4,80370:0:0:0:0:
192,192,80717,1,2,0:0:0:0:
64,192,80717,1,2,0:0:0:0:
320,192,80891,1,2,0:0:0:0:
448,192,80891,1,2,0:0:0:0:
192,192,81064,128,4,81411:0:0:0:0:
64,192,81064,128,4,81411:0:0:0:0:
320,192,81584,128,4,81931:0:0:0:0:
448,192,81584,128,4,81931:0:0:0:0:
192,192,82278,128,4,83838:0:0:0:0:
320,192,82278,128,4,83838:0:0:0:0:
320,192,84185,128,2,84359:0:0:0:0:
448,192,84185,128,2,84359:0:0:0:0:
320,192,84532,128,2,84706:0:0:0:0:
192,192,84532,128,2,84706:0:0:0:0:
64,192,84879,128,8,85052:0:0:0:0:
192,192,84879,128,8,85052:0:0:0:0:
192,192,85226,128,4,86093:0:0:0:0:
448,192,85226,128,4,86093:0:0:0:0:
320,192,86266,128,4,86960:0:0:0:0:
64,192,86266,128,4,86960:0:0:0:0:
64,192,87307,1,2,0:0:0:0:
192,192,87480,128,2,87827:0:0:0:0:
320,192,87827,128,4,90428:0:0:0:0:
448,192,87827,128,4,90428:0:0:0:0:
64,192,90428,128,4,90775:0:0:0:0:
192,192,90428,128,4,90775:0:0:0:0:
320,192,91122,1,2,0:0:0:0:
448,192,91122,1,2,0:0:0:0:
320,192,91469,1,2,0:0:0:0:
448,192,91469,1,2,0:0:0:0:
64,192,91815,1,0,0:0:0:0:
192,192,91989,1,0,0:0:0:0:
320,192,92162,128,4,93029:0:0:0:0:
192,192,93203,1,2,0:0:0:0:
64,192,93203,1,2,0:0:0:0:
192,192,93549,128,4,97538:0:0:0:0:
64,192,93549,128,4,97538:0:0:0:0:
