osu file format v11

[General]
AudioFilename: luminous.mp3
AudioLeadIn: 2037
PreviewTime: 59564
Countdown: 0
SampleSet: Soft
StackLeniency: 0.7
Mode: 0
LetterboxInBreaks: 1

[Editor]
Bookmarks: 51761,69796
DistanceSpacing: 1
BeatDivisor: 6
GridSize: 4

[Metadata]
Title:Luminous
TitleUnicode:Luminous
Artist:ClariS
ArtistUnicode:ClariS
Creator:Mei_coN
Version:Pokie
Source:Puella Magi Madoka Magica the Movie
Tags:mahou shoujo pokie athena tennos jogfi2002
BeatmapID:189563
BeatmapSetID:60911

[Difficulty]
HPDrainRate:7
CircleSize:4
OverallDifficulty:7
ApproachRate:8
SliderMultiplier:1.7
SliderTickRate:2

[Events]
//Background and Video events
0,0,"bg1.jpg"
//Break Periods
2,88219,98364
//Storyboard Layer 0 (Background)
//Storyboard Layer 1 (Fail)
//Storyboard Layer 2 (Pass)
//Storyboard Layer 3 (Foreground)
//Storyboard Sound Samples
//Background Colour Transformations
3,100,163,162,255

[TimingPoints]
-767,346.820809248555,4,2,1,40,1,0
588,-133.333333333333,4,2,1,20,0,0
2862,-133.333333333333,4,2,1,20,0,0
4770,-133.333333333333,4,2,2,50,0,1
13093,-133.333333333333,4,2,2,50,0,0
13420,-133.333333333333,4,2,2,40,0,0
13767,-133.333333333333,4,2,2,30,0,0
14114,-133.333333333333,4,2,2,20,0,0
14481,-133.333333333333,4,2,2,10,0,0
14981,-133.333333333333,4,2,2,40,0,0
15501,-133.333333333333,4,2,2,30,0,0
15848,-200,4,2,0,35,0,0
25906,-200,4,2,0,40,0,0
26253,-200,4,2,0,45,0,0
26599,-200,4,2,0,50,0,0
26946,-200,4,2,0,55,0,0
27293,-200,4,2,0,35,0,0
35290,-200,4,2,0,45,0,0
36657,-100,4,2,0,40,0,0
37891,-100,4,2,1,40,0,0
38044,-100,4,2,0,50,0,0
38391,-100,4,2,1,50,0,0
39452,-100,4,2,1,35,0,0
39538,-100,4,2,1,50,0,0
42226,-100,4,2,1,35,0,0
42313,-100,4,2,1,50,0,0
48816,-100,4,2,1,40,0,0
48989,-100,4,2,1,50,0,0
53325,-100,4,1,1,50,0,0
53498,-100,4,2,1,50,0,0
53671,-100,4,1,1,25,0,0
54018,-100,4,2,1,50,0,0
54192,-100,4,1,1,50,0,0
54365,-100,4,2,1,50,0,0
57486,-200,4,2,1,50,0,0
58353,-200,4,1,1,50,0,0
59221,-200,4,2,1,50,0,0
59394,-200,4,1,1,50,0,0
59567,-83.3333333333333,4,2,1,30,0,0
59926,-83.3333333333333,4,2,1,35,0,0
60100,-83.3333333333333,4,2,1,40,0,0
60261,-100,4,2,2,60,0,1
82457,-133.333333333333,4,2,2,60,0,1
86273,-200,4,2,0,15,0,1
86879,-133.333333333333,4,2,0,5,0,1
87140,-133.333333333333,4,2,0,10,0,1
87313,-133.333333333333,4,2,0,25,0,1
87660,-133.333333333333,4,2,0,40,0,1
88007,-133.333333333333,4,2,0,50,0,0
99085,-100,4,2,2,40,0,0
103787,-100,4,2,2,30,0,0
103960,-100,4,2,2,40,0,0
104134,-100,4,2,2,30,0,0
104567,-100,4,2,2,40,0,0
108642,-133.333333333333,4,2,2,40,0,0
108796,-100,4,2,2,30,0,0
108969,-100,4,2,2,35,0,0
109143,-100,4,2,2,40,0,0
109316,-100,4,2,2,45,0,0
109490,-100,4,2,2,40,0,0
109663,-100,4,2,2,55,0,0
109836,-100,4,2,2,40,0,0
110010,-100,4,2,2,65,0,0
110183,-100,4,2,2,40,0,0
119047,-100,4,2,1,35,0,0
119201,-100,4,2,1,40,0,0
119741,-100,4,2,1,55,0,0
121281,-100,4,2,1,50,0,0
136562,-100,4,2,1,50,0,0
140723,-200,4,2,1,50,0,0
142111,-200,4,2,1,22,0,0
142689,-200,4,2,1,40,0,0
142784,-83.3333333333333,4,2,0,32,0,0
143163,-83.3333333333333,4,2,0,37,0,0
143337,-83.3333333333333,4,2,0,40,0,0
143498,-100,4,2,2,60,0,1
165706,-133.333333333333,4,2,2,60,0,1
169522,-133.333333333333,4,2,2,40,0,1
169608,-133.333333333333,4,2,2,60,0,1
171244,-100,4,2,2,35,0,0

[Colours]
Combo1 : 0,128,255
Combo2 : 255,128,192
Combo3 : 78,78,78
Combo4 : 255,255,0
Combo5 : 240,80,80

[HitObjects]
312,100,620,1,2,0:0:0
356,220,967,21,0,0:0:0
256,300,1313,5,2,0:0:0
152,228,1660,5,0,0:0:0
184,108,2007,21,2,0:0:0
312,100,2354,53,0,0:0:0
312,100,2527,2,0,B|384:104|444:108,1,127.500004863739,2|4,0:0|0:0,0:0:0
256,192,2961,12,0,4608,0:0:0
200,284,4782,2,0,B|128:280|68:276,1,127.500004863739,4|2,0:0|0:0,0:0:0
44,172,5302,2,0,B|124:168,1,63.7500024318696
468,212,5822,2,0,B|388:216,1,63.7500024318696,0|8,0:0|0:0,0:0:0
329,329,6169,1,0,0:0:0
293,245,6342,1,2,0:0:0
257,165,6516,6,0,B|251:225|245:297,1,127.500004863739,0|0,0:0|0:0,0:0:0
144,348,7036,2,0,B|67:340,1,63.7500024318696,8|0,0:0|0:0,0:0:0
44,221,7383,5,0,0:0:0
44,221,7469,1,0,0:0:0
44,221,7556,2,0,B|110:220|177:230,1,127.500004863739,2|0,0:0|0:0,0:0:0
256,64,8076,2,0,B|262:-7,1,63.7500024318696,0|0,0:0|0:0,0:0:0
256,320,8597,2,0,B|250:391,1,63.7500024318696,0|8,0:0|0:0,0:0:0
226,131,8943,6,0,B|204:68,1,63.7500024318696,0|2,0:0|0:0,0:0:0
285,252,9290,2,0,B|308:316,1,63.7500024318696,8|0,0:0|0:0,0:0:0
195,221,9637,2,0,B|132:244,1,63.7500024318696,0|2,0:0|0:0,0:0:0
316,162,9984,2,0,B|380:140,1,63.7500024318696,8|10,0:0|0:0,0:0:0
395,134,10244,1,0,0:0:0
411,127,10331,6,0,B|449:182|442:253,1,127.500004863739,4|2,0:0|0:0,0:0:0
384,338,10851,2,0,B|331:293,1,63.7500024318696,8|0,0:0|0:0,0:0:0
137,62,11371,2,0,B|186:104,1,63.7500024318696,0|8,0:0|0:0,0:0:0
200,116,11631,1,0,0:0:0
216,126,11718,6,0,B|232:162|214:196,1,63.7500024318696,0|2,0:0|0:0,0:0:0
47,225,12065,2,0,B|70:193|108:191,1,63.7500024318696,8|0,0:0|0:0,0:0:0
201,330,12412,2,0,B|161:325|141:293,1,63.7500024318696,2|8,0:0|0:0,0:0:0
307,170,12759,2,0,B|346:174|366:206,1,63.7500024318696,2|0,0:0|0:0,0:0:0
446,304,13105,6,0,B|502:261|498:190,1,127.500004863739,4|2,0:0|0:0,0:0:0
322,40,13626,2,0,B|266:83|270:154,1,127.500004863739,8|2,0:0|0:0,0:0:0
224,249,14146,2,0,B|246:290|243:344,1,95.6250036478044,8|0,0:0|0:0,0:0:0
174,384,14493,6,0,B|106:398|48:360,1,127.500004863739,2|0,0:0|0:0,0:0:0
9,261,15013,2,0,B|30:195|92:163,1,127.500004863739,8|2,0:0|0:0,0:0:0
196,181,15533,2,0,B|236:221|238:276,1,95.6250036478044,8|0,0:0|0:0,0:0:0
243,341,15880,6,0,B|278:362|325:359,1,85,4|2,0:0|0:0,0:0:0
494,237,16574,2,0,B|459:216|412:219,1,85,0|2,0:0|0:0,0:0:0
349,182,17094,2,0,B|338:41,1,127.5,0|0,0:0|0:0,0:0:0
339,54,17787,2,0,B|291:54|273:107,1,85,0|2,0:0|0:0,0:0:0
268,173,18308,1,0,0:0:0
323,344,18654,6,0,B|371:344|389:291,1,85,0|0,0:0|0:0,0:0:0
376,224,19175,2,0,B|337:157|250:175,1,127.5,0|2,0:0|0:0,0:0:0
212,216,19868,2,0,B|173:282|232:349,1,127.5,0|0,0:0|0:0,0:0:0
400,136,20735,2,0,B|430:99|406:46,1,85,0|2,0:0|0:0,0:0:0
156,28,21429,6,0,B|58:43,1,85,4|2,0:0|0:0,0:0:0
32,284,22123,2,0,B|130:269,1,85,0|2,0:0|0:0,0:0:0
156,212,22643,2,0,B|220:240|216:320,1,127.5,0|2,0:0|0:0,0:0:0
216,314,23337,2,0,B|248:348|300:344,1,85,0|2,0:0|0:0,0:0:0
352,304,23857,1,2,0:0:0
436,100,24204,6,0,B|404:66|352:70,1,85,0|2,0:0|0:0,0:0:0
300,112,24724,2,0,B|316:208,1,85,0|2,0:0|0:0,0:0:0
176,352,25417,1,2,0:0:0
176,352,25591,2,0,B|130:355|99:322,1,85,0|2,0:0|0:0,0:0:0
92,232,26111,1,0,0:0:0
168,184,26285,2,0,B|213:180|244:213,2,85,0|2|4,0:0|0:0|0:0,0:0:0
168,184,27325,6,0,B|156:100,1,85,0|8,0:0|0:0,0:0:0
312,32,28019,1,2,0:0:0
328,116,28192,1,0,0:0:0
344,200,28365,2,0,B|356:284,2,85,0|2|8,0:0|0:0|0:0,0:0:0
344,200,29406,6,0,B|288:196,1,42.5,2|0,0:0|0:0,0:0:0
216,192,29753,2,0,B|128:184,2,85,4|2|8,0:0|0:0|0:0,0:0:0
300,376,30793,1,2,0:0:0
224,340,30967,1,0,0:0:0
296,296,31140,2,0,B|384:288,2,85,2|2|8,0:0|0:0|0:0,0:0:0
296,296,32180,6,0,B|304:244,1,42.5,2|0,0:0|0:0,0:0:0
316,168,32527,2,0,B|400:160,1,85,4|2,0:0|0:0,0:0:0
288,32,33221,2,0,B|204:40,1,85,8|2,0:0|0:0,0:0:0
204,40,33741,2,0,B|184:82|192:134,1,85,2|0,0:0|0:0,0:0:0
252,180,34261,1,2,0:0:0
252,180,34608,2,0,B|208:232|124:216,1,127.5,8|2,0:0|0:0,0:0:0
52,236,35302,6,0,B|36:196|52:152,1,85,4|2,0:0|0:0,0:0:0
160,52,35822,2,0,B|176:92|160:136,1,85,8|0,0:0|0:0,0:0:0
232,208,36342,1,2,0:0:0
316,144,36516,5,0,0:0:0
316,144,36689,2,0,B|356:132|412:136,1,85,4|2,0:0|0:0,0:0:0
468,212,37036,1,2,0:0:0
456,312,37209,2,0,B|376:340|284:328,1,170,2|2,0:0|0:0,0:0:0
220,252,37730,1,0,0:0:0
248,72,37903,5,0,0:0:0
248,72,37990,1,8,0:0:0
248,72,38076,2,0,B|288:60|344:64,1,85,4|0,0:0|0:0,0:0:0
428,100,38423,1,8,0:0:0
352,184,38597,2,0,B|332:224|340:280,1,85,2|0,0:0|0:0,0:0:0
152,216,38943,1,2,0:0:0
152,216,39117,2,0,B|172:176|164:120,1,85,8|2,0:0|0:0,0:0:0
152,116,39377,1,0,0:0:0
136,104,39464,6,0,B|91:106|46:141,1,85,4|2,0:0|0:0,0:0:0
32,296,39811,2,0,B|56:333|109:354,1,85,8|2,0:0|0:0,0:0:0
260,280,40157,2,0,B|280:240|276:176|276:176|312:192|312:236,1,170,0|8,0:0|0:0,0:0:0
320,352,40678,5,0,0:0:0
320,352,40764,1,0,0:0:0
320,352,40851,2,0,B|276:380|224:368,1,85,2|2,0:0|0:0,0:0:0
432,276,41198,1,8,0:0:0
432,276,41371,2,0,B|478:300|493:351,1,85,2|0,0:0|0:0,0:0:0
312,224,41718,1,2,0:0:0
312,224,41891,2,0,B|309:171|346:132,1,85,8|2,0:0|0:0,0:0:0
356,136,42152,1,0,0:0:0
376,128,42238,6,0,B|336:104|280:120,1,85,4|2,0:0|0:0,0:0:0
220,296,42585,2,0,B|260:320|316:304,1,85,8|2,0:0|0:0,0:0:0
376,128,42932,2,0,B|341:109|294:116|294:116|252:125|208:108,1,170,0|8,0:0|0:0,0:0:0
120,40,43452,1,2,0:0:0
40,116,43626,6,0,B|0:200|60:296,1,170,0|8,0:0|0:0,0:0:0
152,324,44146,1,0,0:0:0
244,264,44319,2,0,B|284:180|224:84,1,170,0|8,0:0|0:0,0:0:0
120,40,44839,1,2,0:0:0
40,116,45013,6,0,B|64:152|128:144,1,85,0|2,0:0|0:0,0:0:0
264,208,45360,2,0,B|220:210|195:270,1,85,8|2,0:0|0:0,0:0:0
68,336,45706,2,0,B|87:297|48:245,1,85,0|2,0:0|0:0,0:0:0
280,36,46053,6,0,B|260:74|299:126,1,85,8|2,0:0|0:0,0:0:0
312,136,46313,1,0,0:0:0
340,148,46400,2,0,B|400:172|456:132|456:132|420:188,1,170,4|8,0:0|0:0,0:0:0
356,352,46920,2,0,B|396:336|452:348,1,85,2|0,0:0|0:0,0:0:0
312,168,47267,2,0,B|272:184|216:172,1,85,2|8,0:0|0:0,0:0:0
168,72,47614,1,0,0:0:0
184,48,47701,1,0,0:0:0
200,24,47787,6,0,B|240:8|296:20,1,85,4|2,0:0|0:0,0:0:0
372,84,48134,1,8,0:0:0
264,256,48308,1,4,0:0:0
260,132,48481,5,0,0:0:0
264,256,48654,1,8,0:0:0
272,380,48828,2,0,B|128:384,1,127.5,8|2,0:0|0:0,0:0:0
68,364,49175,6,0,B|56:324|76:272,1,85,4|2,0:0|0:0,0:0:0
160,212,49522,1,8,0:0:0
100,120,49695,2,0,B|12:136,1,85,2|0,0:0|0:0,0:0:0
128,264,50042,1,2,0:0:0
128,264,50215,2,0,B|216:248,1,85,8|2,0:0|0:0,0:0:0
240,244,50475,1,0,0:0:0
268,240,50562,6,0,B|284:200|276:156,1,85,4|2,0:0|0:0,0:0:0
488,264,50909,2,0,B|472:304|480:348,1,85,8|2,0:0|0:0,0:0:0
392,140,51256,2,0,B|368:324,1,170,0|8,0:0|0:0,0:0:0
256,352,51776,1,0,0:0:0
140,292,51949,6,0,B|152:204,1,85,2|2,0:0|0:0,0:0:0
52,60,52296,1,8,0:0:0
52,60,52469,2,0,B|122:114,1,85,2|0,0:0|0:0,0:0:0
296,100,52816,1,2,0:0:0
296,100,52990,2,0,B|213:133,1,85,8|2,0:0|0:0,0:0:0
188,144,53250,1,0,0:0:0
160,156,53337,6,0,B|144:200|148:244,1,85,4|0,0:0|0:0,0:0:0
339,364,53683,2,0,B|355:320|351:276,1,85,0|0,0:0|0:0,0:0:0
248,340,54030,5,0,1:0:0
466,260,54204,1,0,0:0:0
273,221,54377,1,0,1:0:0
373,190,54550,1,0,0:0:0
181,184,54724,6,0,B|131:105|181:22,1,170,4|8,0:0|0:0,0:0:0
374,30,55244,2,0,B|423:108|373:191,1,170,4|2,0:0|0:0,0:0:0
274,254,55764,1,8,0:0:0
184,116,56111,6,0,B|272:88|360:128,1,170,4|8,0:0|0:0,0:0:0
342,336,56631,2,0,B|254:364|166:324,1,170,4|8,0:0|0:0,0:0:0
133,253,57152,1,8,0:0:0
215,233,57325,1,0,0:0:0
294,217,57498,6,0,B|300:155|306:82,1,127.5,4|2,0:0|0:0,0:0:0
321,76,58105,1,0,0:0:0
337,62,58192,2,0,B|388:54,1,42.5,8|0,0:0|0:0,0:0:0
213,199,58886,2,0,B|70:219,1,127.5,0|0,0:0|0:0,0:0:0
33,150,59579,2,2,B|0:128,11,33.9999989624024
52,163,60273,6,0,B|16:222|28:288,1,127.5,4|2,0:0|0:0,0:0:0
80,344,60620,2,0,B|174:346,1,85,8|0,0:0|0:0,0:0:0
312,249,60967,2,0,B|486:253,1,170,0|8,0:0|0:0,0:0:0
484,150,61487,5,2,0:0:0
484,150,61574,1,0,0:0:0
484,150,61660,2,0,B|508:112|497:64,1,85,0|2,0:0|0:0,0:0:0
330,136,62007,2,0,B|306:174|317:222,1,85,8|0,0:0|0:0,0:0:0
350,347,62354,2,0,B|180:343,1,170,2|8,0:0|0:0,0:0:0
111,267,62874,1,2,0:0:0
90,251,62961,1,0,0:0:0
69,235,63048,6,0,B|44:169|84:107,1,127.5,2|2,0:0|0:0,0:0:0
138,64,63394,2,0,B|222:66,1,85,8|0,0:0|0:0,0:0:0
107,180,63741,2,0,B|23:178,1,85,0|2,0:0|0:0,0:0:0
101,314,64088,2,0,B|185:316,1,85,8|2,0:0|0:0,0:0:0
350,347,64435,6,0,B|428:283|389:189,1,170,0|8,0:0|0:0,0:0:0
229,123,64955,1,2,0:0:0
229,123,65042,1,8,0:0:0
228,123,65128,2,0,B|258:159|306:165,1,85,0|0,0:0|0:0,0:0:0
443,59,65475,2,0,B|396:66|367:105,1,85,8|2,0:0|0:0,0:0:0
212,267,65822,6,0,B|170:326|93:313,1,127.5,4|0,0:0|0:0,0:0:0
39,357,66169,2,0,B|-3:326|5:271,1,85,8|2,0:0|0:0,0:0:0
84,165,66516,2,0,B|131:143|174:179,1,85,0|0,0:0|0:0,0:0:0
392,319,66863,2,0,B|344:340|301:304,1,85,8|2,0:0|0:0,0:0:0
301,284,67123,1,0,0:0:0
292,255,67209,6,0,B|308:163,1,85,0|2,0:0|0:0,0:0:0
488,250,67556,2,0,B|472:342,1,85,8|2,0:0|0:0,0:0:0
368,111,67903,6,0,B|352:19,1,85,2|0,0:0|0:0,0:0:0
187,242,68250,2,0,B|203:334,1,85,8|0,0:0|0:0,0:0:0
201,325,68510,1,8,0:0:0
201,325,68597,6,0,B|160:360|112:348,1,85,4|0,0:0|0:0,0:0:0
12,280,68943,1,8,0:0:0
192,160,69117,1,2,0:0:0
192,160,69204,1,0,0:0:0
192,160,69290,2,0,B|210:206|183:250,1,85,2|8,0:0|0:0,0:0:0
104,96,69637,1,0,0:0:0
188,242,69811,6,0,B|174:290|150:310|150:310|204:304|252:312,1,170,4|2,0:0|0:0,0:0:0
486,375,70331,2,0,B|446:381|390:379,1,85,8|2,0:0|0:0,0:0:0
335,304,70678,1,2,0:0:0
422,225,70851,1,2,0:0:0
426,208,70938,1,0,0:0:0
431,191,71024,1,8,0:0:0
435,174,71111,1,8,0:0:0
440,157,71198,1,0,0:0:0
444,140,71285,1,2,0:0:0
477,100,71371,6,0,B|338:105,1,127.5,4|2,0:0|0:0,0:0:0
282,71,71718,2,0,B|268:113|266:154,1,85,8|0,0:0|0:0,0:0:0
391,305,72065,2,0,B|361:271|327:249,1,85,2|0,0:0|0:0,0:0:0
129,276,72412,2,10,B|172:267|208:248,1,85,8|2,0:0|0:0,0:0:0
237,228,72672,1,0,0:0:0
256,199,72759,6,0,B|270:157|272:116,1,85,0|2,0:0|0:0,0:0:0
65,27,73105,2,0,B|51:69|49:110,1,85,8|0,0:0|0:0,0:0:0
59,211,73452,2,0,B|84:257|150:278|209:248,1,170,2|8,0:0|0:0,0:0:0
275,349,73972,5,2,0:0:0
275,349,74059,1,0,0:0:0
275,349,74146,2,0,B|349:324|408:364,1,127.5,4|2,0:0|0:0,0:0:0
469,335,74493,2,0,B|490:298|497:246,1,85,8|0,0:0|0:0,0:0:0
384,63,74839,2,0,B|363:100|357:143,1,85,0|2,0:0|0:0,0:0:0
495,255,75186,2,0,B|454:271|412:271,1,85,8|2,0:0|0:0,0:0:0
385,258,75446,1,8,0:0:0
358,244,75533,6,0,B|278:202|194:243,1,170,0|8,0:0|0:0,0:0:0
26,174,76053,1,2,0:0:0
26,174,76140,1,0,0:0:0
26,174,76227,2,0,B|47:214|104:210,1,85,0|8,0:0|0:0,0:0:0
307,71,76574,2,0,B|286:31|229:35,1,85,8|2,0:0|0:0,0:0:0
132,284,76920,6,0,B|166:346|244:336,1,127.5,4|0,0:0|0:0,0:0:0
302,299,77267,2,0,B|310:202,1,85,8|2,0:0|0:0,0:0:0
236,34,77614,2,0,B|228:130,1,85,2|2,0:0|0:0,0:0:0
342,365,77961,6,0,B|352:221,1,127.5,8|0,0:0|0:0,0:0:0
397,180,78308,2,0,B|457:150|529:189,1,127.5,4|2,0:0|0:0,0:0:0
456,274,78654,2,0,B|412:290|369:277,1,85,8|2,0:0|0:0,0:0:0
250,117,79001,2,0,B|294:101|337:114,1,85,0|2,0:0|0:0,0:0:0
225,333,79348,2,0,B|181:349|138:336,1,85,8|2,0:0|0:0,0:0:0
115,321,79608,1,8,0:0:0
90,303,79695,6,0,B|101:218,1,85,4|0,0:0|0:0,0:0:0
208,106,80042,2,0,B|197:191,1,85,8|0,0:0|0:0,0:0:0
320,324,80389,2,0,B|331:239,1,85,8|0,0:0|0:0,0:0:0
438,127,80735,2,0,B|427:212,1,85,8|0,0:0|0:0,0:0:0
246,354,81082,6,0,B|270:163,1,170,4|8,0:0|0:0,0:0:0
269,46,81602,1,2,0:0:0
269,46,81689,1,0,0:0:0
269,45,81776,2,0,B|231:45|174:53,1,85
219,255,82123,2,0,B|257:255|314:247,1,85,8|0,0:0|0:0,0:0:0
325,228,82383,1,0,0:0:0
346,204,82469,6,0,B|379:192|438:213|434:291,1,127.500004863739,4|0,0:0|0:0,0:0:0
402,348,82990,2,0,B|377:368|337:365,1,63.7500024318696,8|2,0:0|0:0,0:0:0
96,296,83510,1,8,0:0:0
129,219,83683,2,0,B|154:199|194:202,1,63.7500024318696,2|2,0:0|0:0,0:0:0
269,241,84030,5,0,0:0:0
269,241,84204,1,2,0:0:0
350,90,84550,1,8,0:0:0
350,90,84724,1,0,0:0:0
350,90,84897,2,0,B|304:70|252:75,1,95.6250036478044,8|0,0:0|0:0,0:0:0
248,36,85244,6,0,B|108:45,2,127.500004863739,4|2|2,0:0|0:0|0:0,0:0:0
254,146,86285,2,0,B|274:201|238:267|258:321,1,170,4|0,0:0|0:0,0:0:0
256,192,87152,12,4,88019,0:0:0
264,312,99117,5,4,0:0:0
348,164,99464,1,2,0:0:0
200,80,99811,2,0,B|100:68,2,85,0|0|2,0:0|0:0|0:0,0:0:0
200,80,100504,6,0,B|188:124|204:168,1,85,2|0,0:0|0:0,0:0:0
316,280,100851,2,0,B|328:236|312:192,1,85,2|0,0:0|0:0,0:0:0
356,124,101198,1,2,0:0:0
356,124,101545,5,2,0:0:0
253,203,101718,1,0,0:0:0
122,158,101891,2,0,B|32:163,1,85,0|0,0:0|0:0,0:0:0
148,310,102238,2,0,B|58:315,1,85,2|0,0:0|0:0,0:0:0
232,278,102585,6,0,B|194:198|228:102,1,170,0|2,0:0|0:0,0:0:0
303,80,103105,1,0,0:0:0
384,104,103279,2,0,B|422:184|388:280,1,170,2|2,0:0|0:0,0:0:0
317,312,103799,1,8,0:0:0
191,214,103972,6,0,B|232:205|280:210,1,85,0|8,0:0|0:0,0:0:0
401,352,104319,2,0,B|334:371|258:357,1,127.5,8|0,0:0|0:0,0:0:0
249,352,104666,5,4,0:0:0
370,258,105013,1,2,0:0:0
496,351,105360,2,0,B|514:260,2,85,0|0|2,0:0|0:0|0:0,0:0:0
496,351,106053,6,0,B|406:341,1,85,2|0,0:0|0:0,0:0:0
368,237,106400,2,0,B|278:227,1,85,2|0,0:0|0:0,0:0:0
283,227,106747,2,0,B|287:180|269:140,1,85,2|0,0:0|0:0,0:0:0
161,284,107094,2,0,B|157:331|175:371,1,85,2|0,0:0|0:0,0:0:0
72,315,107441,6,0,B|86:223|64:145,1,170,0|2,0:0|0:0,0:0:0
149,89,107961,1,0,0:0:0
240,133,108134,2,0,B|226:225|248:303,1,170,0|2,0:0|0:0,0:0:0
247,301,108654,6,0,B|384:292,1,127.500004863739,8|0,0:0|0:0,0:0:0
459,286,109175,2,0,B|498:315|494:361,1,85,0|2,0:0|0:0,0:0:0
392,222,109522,2,0,B|397:173|439:154,1,85,8|2,0:0|0:0,0:0:0
371,309,109868,2,0,B|303:331|248:302,1,127.5,12|0,0:0|0:0,0:0:0
173,309,110215,5,6,0:0:0
336,147,110562,1,2,0:0:0
433,353,110909,1,2,0:0:0
350,331,111082,2,0,B|339:239,1,85,0|2,0:0|0:0,0:0:0
234,99,111429,6,0,B|242:190|253:278,1,170,8|0,0:0|0:0,0:0:0
422,39,111949,2,0,B|381:28|334:30,1,85,2|0,0:0|0:0,0:0:0
387,219,112296,2,0,B|428:230|475:228,1,85,2|8,0:0|0:0,0:0:0
272,84,112643,6,0,B|228:82|187:93,1,85,2|8,0:0|0:0,0:0:0
220,241,112990,2,0,B|312:254|391:217,1,170,4|2,0:0|0:0,0:0:0
398,119,113510,1,0,0:0:0
185,136,113683,6,0,B|171:177|181:224,1,85,2|0,0:0|0:0,0:0:0
332,297,114030,2,0,B|346:256|336:209,1,85,2|8,0:0|0:0,0:0:0
384,144,114377,1,2,0:0:0
116,273,114724,1,2,0:0:0
139,354,114897,6,0,B|181:374|222:365,1,85,8|0,0:0|0:0,0:0:0
138,192,115244,1,8,0:0:0
138,192,115331,1,0,0:0:0
138,192,115417,2,0,B|96:172|55:181,1,85,8|10,0:0|0:0,0:0:0
35,203,115678,1,0,0:0:0
16,225,115764,6,0,B|9:133|3:44,1,170,4|2,0:0|0:0,0:0:0
79,14,116285,1,0,0:0:0
155,49,116458,2,0,B|162:141|168:230,1,170,2|2,0:0|0:0,0:0:0
157,342,116978,6,0,B|212:370|282:354,1,127.5,8|2,0:0|0:0,0:0:0
348,321,117325,2,0,B|354:230,1,85,0|2,0:0|0:0,0:0:0
430,193,117672,1,0,0:0:0
501,249,117845,2,0,B|495:340,1,85,2|0,0:0|0:0,0:0:0
434,111,118192,2,0,B|515:70,1,85,8|0,0:0|0:0,0:0:0
354,236,118539,2,0,B|296:172|296:172|276:217|288:256,1,170,4|0,0:0|0:0,0:0:0
168,203,119059,6,0,B|135:235|85:236,1,85,2|0,0:0|1:0,0:0:0
186,329,119406,2,0,B|230:341|256:383,1,85,0|0,0:0|1:0,0:0:0
287,253,119753,1,0,1:0:0
287,253,119839,1,0,0:0:0
287,253,119926,2,0,B|275:208|298:165,1,85,4|0,1:2|0:0,0:0:0
452,118,120273,5,2,0:2:0
411,43,120446,2,0,B|226:33,1,170,2|0,0:2|0:0,0:0:0
174,88,120967,1,2,0:0:0
244,300,121140,5,0,0:2:0
244,300,121227,1,0,1:0:0
244,300,121313,2,0,B|198:311|160:294,1,85,4|0,0:0|0:0,0:0:0
56,260,121660,1,8,0:0:0
104,168,121834,2,0,B|150:157|188:174,1,85,2|0,0:0|0:0,0:0:0
375,74,122180,1,2,0:0:0
375,74,122354,2,0,B|329:85|291:68,1,85,8|2,0:0|0:0,0:0:0
273,57,122614,1,0,0:0:0
255,44,122701,6,0,B|264:134,1,85,4|2,0:0|0:0,0:0:0
452,308,123048,2,0,B|443:218,1,85,8|2,0:0|0:0,0:0:0
263,128,123394,2,0,B|444:150,1,170,0|8,0:0|0:0,0:0:0
448,348,123915,5,2,0:0:0
448,348,124001,1,0,0:0:0
448,348,124088,2,0,B|410:368|364:360,1,85,2|0,0:0|0:0,0:0:0
301,279,124435,1,8,0:0:0
162,166,124608,2,0,B|200:146|246:154,1,85,2|0,0:0|0:0,0:0:0
180,329,124955,2,0,B|142:349|96:341,1,85,2|8,0:0|0:0,0:0:0
162,166,125302,5,2,0:0:0
162,166,125389,1,0,0:0:0
162,166,125475,2,0,B|169:81,1,85,4|2,0:0|0:0,0:0:0
343,81,125822,2,0,B|350:166,1,85,8|2,0:0|0:0,0:0:0
256,320,126169,2,0,B|256:128,1,170,2|8,0:0|0:0,0:0:0
168,81,126689,5,2,0:0:0
141,258,126863,2,0,B|182:275|232:248,1,85,4|2,0:0|0:0,0:0:0
366,349,127209,2,0,B|325:332|275:359,1,85,8|2,0:0|0:0,0:0:0
317,164,127556,2,0,B|385:232|484:200,1,170,0|8,0:0|0:0,0:0:0
500,104,128076,1,2,0:0:0
415,46,128250,6,0,B|328:62,1,85,0|2,0:0|0:0,0:0:0
354,249,128597,2,0,B|383:165,1,85,8|2,0:0|0:0,0:0:0
209,102,128943,2,0,B|266:169,1,85,0|2,0:0|0:0,0:0:0
205,327,129290,2,0,B|118:343,1,85,8|2,0:0|0:0,0:0:0
97,334,129550,1,0,0:0:0
72,325,129637,6,0,B|101:241,1,85,0|2,0:0|0:0,0:0:0
54,72,129984,2,0,B|111:139,1,85,8|2,0:0|0:0,0:0:0
282,178,130331,2,0,B|195:194,1,85,2|2,0:0|0:0,0:0:0
248,370,130678,2,0,B|335:354,1,85,8|2,0:0|0:0,0:0:0
351,332,130938,1,0,0:0:0
370,309,131024,6,0,B|412:321|431:366,1,85,4|2,0:0|0:0,0:0:0
439,168,131371,2,0,B|428:125|457:86,1,85,8|4,0:0|0:0,0:0:0
282,178,131718,5,0,0:0:0
370,309,131891,1,0,0:0:0
438,168,132065,2,0,B|295:156,1,127.5,8|2,0:0|0:0,0:0:0
249,200,132412,6,0,B|227:162|235:114,1,85,4|2,0:0|0:0,0:0:0
306,45,132759,1,8,0:0:0
497,211,132932,2,0,B|475:249|429:266,1,85,2|0,0:0|0:0,0:0:0
385,0,133279,1,2,0:0:0
385,0,133452,2,0,B|428:0|466:30,1,85,8|2,0:0|0:0,0:0:0
471,52,133712,1,0,0:0:0
477,76,133799,6,0,B|455:114|462:158,1,85,4|2,0:0|0:0,0:0:0
307,258,134146,2,0,B|329:220|321:175,1,85,8|2,0:0|0:0,0:0:0
443,340,134493,2,0,B|350:328,1,85,0|2,0:0|0:0,0:0:0
321,175,134839,2,0,B|237:167,1,85,8|0,0:0|0:0,0:0:0
210,164,135100,1,0,0:0:0
184,161,135186,6,0,B|174:116|198:72,1,85,4|2,0:0|0:0,0:0:0
219,248,135533,1,8,0:0:0
155,312,135706,2,0,B|121:343|70:344,1,85,2|2,0:0|0:0,0:0:0
307,258,136053,1,2,0:0:0
307,258,136227,2,0,B|350:271|377:314,1,85,8|2,0:0|0:0,0:0:0
388,339,136487,1,0,0:0:0
405,367,136574,6,0,B|423:273,1,85,4|0,1:1|0:0,0:0:0
294,38,136920,2,0,B|276:132,1,85,0|0,1:0|0:0,0:0:0
363,191,137267,5,0,1:0:0
197,232,137441,1,0,1:0:0
363,191,137614,1,0,1:0:0
197,232,137787,1,0,0:0:0
278,122,137961,6,0,B|197:87|109:117,1,170,4|8,0:0|0:0,0:0:0
54,210,138481,1,2,0:0:0
54,210,138828,1,2,0:0:0
54,210,138915,1,0,0:0:0
54,210,139001,2,2,B|81:246|79:292,1,85,8|0,0:0|0:0,0:0:0
56,315,139261,1,0,1:0:0
34,341,139348,6,0,B|115:376|203:346,1,170,4|8,0:0|0:0,0:0:0
289,214,139868,1,2,0:0:0
289,214,140215,1,2,0:0:0
289,214,140302,1,0,0:0:0
289,214,140389,2,0,B|275:125,1,85,8|0,0:0|0:0,0:0:0
293,100,140649,1,0,0:0:0
309,70,140735,6,0,B|358:58|401:81,1,85,4|2,0:0|0:0,0:0:0
443,145,141256,1,0,0:0:0
391,212,141429,2,0,B|407:251,1,28.3333333333333,2|0,0:0|1:0,0:0:0
316,240,141660,2,0,B|320:282,1,28.3333333333333,0|0,0:0|1:0,0:0:0
239,239,141891,2,0,B|227:275,1,28.3333333333333,0|0,0:0|1:0,0:0:0
208,284,142123,6,0,B|125:297|81:234,1,141.666666666667,4|0,0:0|0:0,0:0:0
117,199,142816,2,2,B|155:188,11,33.9999989624024
49,161,143510,6,0,B|6:220|41:291,1,127.5,4|2,0:0|0:0,0:0:0
80,347,143857,2,0,B|113:372|175:355,1,85,8|2,0:0|0:0,0:0:0
342,125,144204,2,0,B|287:92|211:114,1,127.5,0|2,0:0|0:0,0:0:0
218,111,144550,2,0,B|233:195,1,85,8|2,0:0|0:0,0:0:0
239,228,144811,1,0,0:0:0
245,261,144897,6,0,B|287:284|345:268,1,85,2|2,0:0|0:0,0:0:0
470,133,145244,2,0,B|380:152,1,85,8|0,0:0|0:0,0:0:0
296,349,145591,2,0,B|384:392|465:331,1,170,2|8,0:0|0:0,0:0:0
502,204,146111,1,2,0:0:0
486,169,146198,1,0,0:0:0
470,133,146285,6,0,B|411:97|342:123,1,127.5,0|2,0:0|0:0,0:0:0
306,188,146631,2,0,B|347:208|403:186,1,85,8|2,0:0|0:0,0:0:0
292,39,146978,2,0,B|256:21|196:45,1,85,0|2,0:0|0:0,0:0:0
112,189,147325,2,0,B|148:207|208:183,1,85,8|2,0:0|0:0,0:0:0
210,162,147585,1,8,0:0:0
227,137,147672,6,0,B|280:200|244:307,1,170,0|8,0:0|0:0,0:0:0
73,312,148192,1,2,0:0:0
73,312,148279,1,0,0:0:0
73,312,148365,2,0,B|102:279|151:276,1,85,0|2,0:0|0:0,0:0:0
422,342,148712,2,0,B|393:375|344:378,1,85,8|2,0:0|0:0,0:0:0
311,152,149059,6,0,B|378:128|438:169,1,127.5,4|2,0:0|0:0,0:0:0
479,226,149406,2,0,B|512:198|506:144,1,85,8|2,0:0|0:0,0:0:0
386,30,149753,2,0,B|345:15|301:47,1,85,8|2,0:0|0:0,0:0:0
325,255,150100,5,10,0:0:0
506,149,150273,1,2,0:0:0
386,30,150446,2,0,B|372:168,1,127.5,4|2,0:0|0:0,0:0:0
310,207,150793,2,0,B|269:178|287:119,1,85,8|2,0:0|0:0,0:0:0
462,161,151140,2,0,B|457:211|400:230,1,85,4|2,0:0|0:0,0:0:0
82,94,151487,2,0,B|86:43|146:30,1,85,8|2,0:0|0:0,0:0:0
158,34,151747,1,8,0:0:0
184,36,151834,6,0,B|323:42,1,127.5,4|2,0:0|0:0,0:0:0
364,95,152180,2,0,B|380:184,1,85,8|2,0:0|0:0,0:0:0
266,313,152527,2,0,B|251:219,1,85,8|2,0:0|0:0,0:0:0
358,357,152874,1,0,0:0:0
266,313,153048,6,0,B|253:228|253:228|220:269|180:275,1,170,4|2,0:0|0:0,0:0:0
77,143,153568,2,0,B|123:142|155:175,1,85,8|2,0:0|0:0,0:0:0
137,353,153915,2,0,B|91:354|59:321,1,85,8|2,0:0|0:0,0:0:0
53,280,154175,1,2,0:0:0
80,270,154261,1,8,0:0:0
108,262,154348,1,8,0:0:0
136,254,154435,1,2,0:0:0
164,246,154522,1,10,0:0:0
202,214,154608,6,0,B|262:254|236:336,1,127.5,4|2,0:0|0:0,0:0:0
287,379,154955,2,0,B|329:363|377:371,1,85,8|2,0:0|0:0,0:0:0
502,217,155302,2,0,B|440:250|365:217,1,127.5,4|0,0:0|0:0,0:0:0
325,172,155649,2,0,B|297:135|305:89,1,85,8|2,0:0|0:0,0:0:0
327,66,155909,1,0,0:0:0
353,44,155996,6,0,B|446:47,1,85,2|2,0:0|0:0,0:0:0
303,233,156342,2,0,B|259:150,1,85,8|2,0:0|0:0,0:0:0
508,169,156689,2,0,B|419:319,1,170,4|8,0:0|0:0,0:0:0
61,358,157209,5,2,0:0:0
61,358,157296,1,0,0:0:0
61,358,157383,2,0,B|122:331|189:352,1,127.5,2|2,0:0|0:0,0:0:0
245,303,157730,2,0,B|291:224,1,85,8|2,0:0|0:0,0:0:0
85,132,158076,2,0,B|130:211,1,85,0|2,0:0|0:0,0:0:0
302,66,158423,2,0,B|210:65,1,85,8|2,0:0|0:0,0:0:0
215,138,158683,1,8,0:0:0
215,138,158770,6,0,B|342:137,1,127.5,4|2,0:0|0:0,0:0:0
386,79,159117,2,0,B|422:104|416:153,1,85,8|2,0:0|0:0,0:0:0
369,322,159464,2,0,B|344:358|295:352,1,85,8|2,0:0|0:0,0:0:0
126,305,159811,2,0,B|90:280|96:231,1,85,8|2,0:0|0:0,0:0:0
143,61,160157,2,0,B|194:9|266:27,1,127.5,4|2,0:0|0:0,0:0:0
328,85,160504,6,0,B|345:-1,1,85,8|2,0:0|0:0,0:0:0
440,175,160851,2,0,B|505:232,1,85,8|2,0:0|0:0,0:0:0
309,227,161198,2,0,B|183:257,1,127.5,8|0,0:0|0:0,0:0:0
171,343,161545,2,0,B|100:324|96:251,1,127.5,4|2,0:0|0:0,0:0:0
133,180,161891,6,0,B|48:163,1,85,8|2,0:0|0:0,0:0:0
267,279,162238,2,0,B|294:361,1,85,8|2,0:0|0:0,0:0:0
287,114,162585,2,0,B|377:9,1,127.5,8|2,0:0|0:0,0:0:0
450,14,162932,6,0,B|464:103,1,85,4|0,0:0|0:0,0:0:0
367,270,163279,2,0,B|353:181,1,85,8|0,0:0|0:0,0:0:0
145,114,163626,2,0,B|159:203,1,85,4|0,0:0|0:0,0:0:0
62,370,163972,2,0,B|48:281,1,85,8|0,0:0|0:0,0:0:0
249,128,164319,6,0,B|263:261,1,127.5,4|0,0:0|0:0,0:0:0
249,330,164666,1,2,0:0:0
426,377,164839,1,2,0:0:0
426,377,164926,1,0,0:0:0
425,378,165013,2,0,B|384:358|339:368,1,85,2|2,0:0|0:0,0:0:0
95,259,165360,2,0,B|136:279|181:269,1,85,8|10,0:0|0:0,0:0:0
207,252,165620,1,0,0:0:0
237,236,165706,6,0,B|370:242,1,127.500004863739,4|2,0:0|0:0,0:0:0
466,114,166227,1,8,0:0:0
466,114,166400,2,0,B|438:92|395:94,1,63.7500024318696,0|2,0:0|0:0,0:0:0
335,121,166747,2,0,B|300:164|315:216,1,95.6250036478044,4|2,1:2|0:0,0:0:0
319,284,167094,6,0,B|393:276,1,63.7500024318696,2|0,0:0|0:0,0:0:0
193,334,167441,2,0,B|55:346,2,127.500004863739,2|8|2,0:0|0:0|0:0,0:0:0
231,299,168221,5,0,0:0:0
241,279,168308,1,2,0:0:0
250,259,168394,1,0,0:0:0
258,238,168481,2,4,B|254:196|266:157|261:99,2,127.500004863739,4|2|2,0:0|0:0|0:0,0:0:0
256,376,169522,1,4,0:0:0
256,192,169608,12,0,172643,0:0:0
