osu file format v11

[General]
AudioFilename: luminous.mp3
AudioLeadIn: 2037
PreviewTime: 59564
Countdown: 0
SampleSet: Soft
StackLeniency: 0.7
Mode: 0
LetterboxInBreaks: 1

[Editor]
DistanceSpacing: 1
BeatDivisor: 4
GridSize: 4

[Metadata]
Title:Luminous
TitleUnicode:Luminous
Artist:ClariS
ArtistUnicode:ClariS
Creator:Mei_coN
Version:Normal
Source:Puella Magi Madoka Magica the Movie
Tags:mahou shoujo pokie athena tennos jogfi2002
BeatmapID:188863
BeatmapSetID:60911

[Difficulty]
HPDrainRate:3
CircleSize:3
OverallDifficulty:3
ApproachRate:4
SliderMultiplier:0.999999999999999
SliderTickRate:1

[Events]
//Background and Video events
0,0,"bg1.jpg"
//Break Periods
2,88219,97797
//Storyboard Layer 0 (Background)
//Storyboard Layer 1 (Fail)
//Storyboard Layer 2 (Pass)
//Storyboard Layer 3 (Foreground)
//Storyboard Sound Samples
//Background Colour Transformations
3,100,163,162,255

[TimingPoints]
-767,346.820809248555,4,2,1,40,1,0
600,-100,4,2,1,20,0,0
4782,-100,4,2,2,50,0,1
13105,-100,4,2,2,50,0,0
13432,-100,4,2,2,40,0,0
13779,-100,4,2,2,30,0,0
14126,-100,4,2,2,20,0,0
14473,-100,4,2,2,15,0,0
15860,-100,4,2,0,35,0,0
25918,-100,4,2,0,40,0,0
26265,-100,4,2,0,45,0,0
26611,-100,4,2,0,50,0,0
26958,-100,4,2,0,55,0,0
27305,-100,4,2,0,35,0,0
36669,-100,4,2,0,40,0,0
38056,-100,4,2,0,50,0,0
38403,-100,4,2,1,50,0,0
60273,-100,4,2,2,60,0,1
88019,-100,4,2,2,60,0,0
99097,-100,4,2,2,40,0,0
108808,-100,4,2,2,30,0,0
108981,-100,4,2,2,35,0,0
109155,-100,4,2,2,40,0,0
109328,-100,4,2,2,45,0,0
109502,-100,4,2,2,50,0,0
109675,-100,4,2,2,55,0,0
109848,-100,4,2,2,60,0,0
110022,-100,4,2,2,65,0,0
110195,-100,4,2,1,40,0,0
118866,-100,4,2,1,45,0,0
119213,-100,4,2,1,50,0,0
119559,-100,4,2,1,55,0,0
119906,-100,4,2,1,60,0,0
120253,-100,4,2,1,40,0,0
121293,-100,4,2,1,50,0,0
143510,-100,4,2,2,60,0,1
171256,-100,4,2,2,20,0,0

[Colours]
Combo1 : 0,128,255
Combo2 : 255,128,192
Combo3 : 78,78,78
Combo4 : 255,255,0
Combo5 : 240,80,80

[HitObjects]
156,96,620,2,0,B|212:84|264:104,1,99.9999999999999,2|0,0:0|0:0,0:0:0
344,56,1313,2,0,B|356:112|336:164,1,99.9999999999999,2|0,0:0|0:0,0:0:0
244,188,2007,2,0,B|232:244|252:296,1,99.9999999999999,2|0,0:0|0:0,0:0:0
260,336,2527,1,2,0:0:0
256,192,2874,12,0,4435,0:0:0
252,188,4782,6,0,B|200:204|136:188,1,99.9999999999999,12|8,0:0|0:0,0:0:0
68,244,5475,2,0,B|52:192|68:128,1,99.9999999999999,8|8,0:0|0:0,0:0:0
88,48,6169,1,8,0:0:0
188,48,6516,1,8,0:0:0
148,140,6863,2,0,B|200:156|264:136,1,99.9999999999999,8|8,0:0|0:0,0:0:0
336,96,7556,6,0,B|348:142|332:194,1,99.9999999999999,8|8,0:0|0:0,0:0:0
376,284,8250,2,0,B|324:300|260:280,1,99.9999999999999,8|8,0:0|0:0,0:0:0
188,240,8943,2,0,B|175:286|191:338,2,99.9999999999999,8|8|8,0:0|0:0|0:0,0:0:0
256,168,9984,1,8,0:0:0
316,248,10331,6,0,B|364:204|368:152|352:108|308:68|268:56|192:92,1,300,12|8,0:0|0:0,0:0:0
256,168,11718,2,0,B|208:212|204:264|220:308|264:348|304:360|372:328,1,300,8|8,0:0|0:0,0:0:0
256,192,13105,12,2,15186,0:0:0
216,128,15880,6,0,B|280:144|324:124,1,99.9999999999999,6|0,0:0|0:0,0:0:0
400,80,16574,2,0,B|416:114|400:178,1,99.9999999999999,2|0,0:0|0:0,0:0:0
360,208,17094,2,0,B|340:260|364:308,1,99.9999999999999,2|0,0:0|0:0,0:0:0
376,352,17614,1,2,0:0:0
176,348,18308,5,0,0:0:0
128,328,18481,1,0,0:0:0
104,284,18654,2,0,B|88:228|128:176,1,99.9999999999999,2|0,0:0|0:0,0:0:0
88,148,19175,2,0,B|96:64|192:56,1,150,2|0,0:0|0:0,0:0:0
236,40,19868,6,0,B|312:56|344:136,1,150,2|0,0:0|0:0,0:0:0
264,196,20735,1,0,0:0:0
352,244,21082,1,2,0:0:0
408,328,21429,6,0,B|372:368|312:372,1,99.9999999999999,2|0,0:0|0:0,0:0:0
220,352,22123,2,0,B|164:344|116:300,1,99.9999999999999,2|0,0:0|0:0,0:0:0
116,264,22643,2,0,B|108:212|64:180,1,99.9999999999999,2|0,0:0|0:0,0:0:0
20,160,23163,1,2,0:0:0
196,68,23857,5,0,0:0:0
244,60,24030,1,0,0:0:0
288,84,24204,2,0,B|344:96|372:152,1,99.9999999999999,2|0,0:0|0:0,0:0:0
388,188,24724,2,0,B|408:248|384:288,1,99.9999999999999,2|0,0:0|0:0,0:0:0
360,328,25244,1,2,0:0:0
260,340,25591,6,0,B|236:288|256:236,1,99.9999999999999,2|0,0:0|0:0,0:0:0
260,144,26285,2,0,B|276:88|252:40,1,99.9999999999999,2|0,0:0|0:0,0:0:0
164,88,26978,5,6,0:0:0
76,36,27325,1,0,0:0:0
72,136,27672,2,0,B|56:184|68:236,1,99.9999999999999,2|0,0:0|0:0,0:0:0
116,240,28192,2,0,B|140:284|192:308,1,99.9999999999999,2|0,0:0|0:0,0:0:0
236,320,28712,1,2,0:0:0
388,192,29406,5,0,0:0:0
344,168,29579,1,0,0:0:0
296,176,29753,2,0,B|244:152|176:160,1,99.9999999999999,2|0,0:0|0:0,0:0:0
152,176,30273,2,0,B|104:132|96:96,1,99.9999999999999,2|0,0:0|0:0,0:0:0
184,44,30967,1,2,0:0:0
424,112,31834,5,0,0:0:0
392,208,32180,1,0,0:0:0
324,136,32527,2,0,B|272:112|208:124,1,99.9999999999999,2|2,0:0|0:0,0:0:0
128,132,33221,1,0,0:0:0
48,192,33568,1,0,0:0:0
120,264,33915,6,0,B|168:292|240:276,1,99.9999999999999,2|2,0:0|0:0,0:0:0
316,268,34608,1,0,0:0:0
396,208,34955,1,0,0:0:0
436,116,35302,6,0,B|380:104|324:124,1,99.9999999999999,2|0,0:0|0:0,0:0:0
272,44,35996,2,0,B|216:32|160:52,1,99.9999999999999,2|0,0:0|0:0,0:0:0
212,140,36689,2,0,B|148:160|116:124|56:152,2,150,2|0|2,0:0|0:0|0:0,0:0:0
308,164,38076,6,0,B|268:260,1,99.9999999999999,4|8,0:0|0:0,0:0:0
172,236,38770,2,0,B|72:236,1,99.9999999999999,0|8,0:0|0:0,0:0:0
28,328,39464,1,0,0:0:0
28,328,39811,1,8,0:0:0
128,328,40157,1,0,0:0:0
128,328,40504,1,8,0:0:0
228,348,40851,6,0,B|240:288|200:252,1,99.9999999999999,0|8,0:0|0:0,0:0:0
116,204,41545,2,0,B|148:152|220:164,1,99.9999999999999,0|8,0:0|0:0,0:0:0
288,112,42238,2,0,B|252:64|184:64,2,99.9999999999999,0|8|0,0:0|0:0|0:0,0:0:0
288,212,43279,1,8,0:0:0
368,272,43626,6,0,B|392:216|372:152,1,99.9999999999999,0|8,0:0|0:0,0:0:0
288,212,44319,2,0,B|268:156|292:92,1,99.9999999999999,0|8,0:0|0:0,0:0:0
348,36,45013,1,0,0:0:0
348,36,45360,2,0,B|396:12|456:44,2,99.9999999999999,8|0|8,0:0|0:0|0:0,0:0:0
288,116,46400,6,0,B|228:128|172:104,1,99.9999999999999,0|8,0:0|0:0,0:0:0
140,100,46920,1,0,0:0:0
40,88,47267,2,0,P|32:124|32:156,1,50,0|8,0:0|0:0,0:0:0
68,232,47787,2,0,B|120:244|184:228,1,99.9999999999999,0|8,0:0|0:0,0:0:0
260,192,48481,5,0,0:0:0
304,284,48828,1,8,0:0:0
216,332,49175,2,0,B|116:332,1,99.9999999999999,4|8,0:0|0:0,0:0:0
72,308,49695,2,0,B|52:256|72:192,1,99.9999999999999
104,116,50389,2,0,P|112:88|128:64,1,50,8|0,0:0|0:0,0:0:0
272,204,51256,5,0,0:0:0
228,112,51602,1,8,0:0:0
316,64,51949,2,0,B|416:64,1,99.9999999999999,0|8,0:0|0:0,0:0:0
460,88,52469,2,0,B|480:140|460:204,1,99.9999999999999
472,288,53163,2,0,P|464:316|448:336,1,50,8|0,0:0|0:0,0:0:0
256,292,54030,5,0,0:0:0
256,192,54377,1,8,0:0:0
160,228,54724,2,0,B|104:216|56:236,1,99.9999999999999,4|8,0:0|0:0,0:0:0
16,252,55244,1,4,0:0:0
256,316,56111,6,0,B|320:332|364:316,1,99.9999999999999,4|8,0:0|0:0,0:0:0
400,296,56631,1,4,0:0:0
292,192,57152,5,0,0:0:0
256,192,57498,12,0,59579,0:0:0
368,256,60273,6,0,B|380:200|352:152,1,99.9999999999999,4|8,0:0|0:0,0:0:0
268,208,60967,2,0,B|212:224|164:196,1,99.9999999999999,0|8,0:0|0:0,0:0:0
132,168,61487,1,0,0:0:0
132,68,61834,1,4,0:0:0
268,132,62354,6,0,B|284:188|260:232,1,99.9999999999999,0|8,0:0|0:0,0:0:0
180,288,63048,2,0,B|220:328|272:328,1,99.9999999999999,0|8,0:0|0:0,0:0:0
316,312,63568,2,0,B|376:292|432:304,1,99.9999999999999
456,276,64088,1,8,0:0:0
480,232,64261,2,0,B|492:184|456:132,1,99.9999999999999,0|4,0:0|0:0,0:0:0
312,104,65128,5,0,0:0:0
232,44,65475,1,8,0:0:0
204,140,65822,2,0,B|152:176|92:148,1,99.9999999999999,4|8,0:0|0:0,0:0:0
28,96,66516,2,0,B|-8:148|20:208,1,99.9999999999999,0|8,0:0|0:0,0:0:0
88,256,67209,2,0,B|76:328|104:364,2,99.9999999999999,0|8|0,0:0|0:0|0:0,0:0:0
180,300,68250,1,8,0:0:0
276,328,68597,6,0,B|328:308|352:264,1,99.9999999999999,4|0,0:0|0:0,0:0:0
340,216,69117,2,0,B|344:156|408:140,1,99.9999999999999,4|0,0:0|0:0,0:0:0
496,116,69811,1,4,0:0:0
248,128,70678,6,0,B|212:84|156:72,1,99.9999999999999
152,172,71371,6,0,B|112:224|132:280,1,99.9999999999999,4|8,0:0|0:0,0:0:0
228,248,72065,2,0,B|248:296|308:320,1,99.9999999999999,0|8,0:0|0:0,0:0:0
348,324,72585,1,0,0:0:0
448,308,72932,1,4,0:0:0
348,196,73452,6,0,B|400:188|428:141,2,99.9999999999999,0|8|0,0:0|0:0|0:0,0:0:0
256,152,74493,1,8,0:0:0
244,200,74666,2,0,B|176:220|136:192,1,99.9999999999999
100,180,75186,1,8,0:0:0
60,212,75360,2,0,B|32:252|40:308,1,99.9999999999999,0|4,0:0|0:0,0:0:0
188,324,76227,5,0,0:0:0
284,348,76574,1,8,0:0:0
380,320,76920,2,0,B|424:288|428:224,1,99.9999999999999,4|0,0:0|0:0,0:0:0
404,196,77441,2,0,B|384:144|400:96,1,99.9999999999999,4|0,0:0|0:0,0:0:0
412,48,77961,1,8,0:0:0
316,80,78308,6,0,B|256:108|200:88,1,99.9999999999999,4|0,0:0|0:0,0:0:0
176,72,78828,2,0,B|112:68|68:88,1,99.9999999999999,4|0,0:0|0:0,0:0:0
36,112,79348,1,8,0:0:0
104,188,79695,6,0,B|88:248|124:304,1,99.9999999999999,0|8,0:0|0:0,0:0:0
176,364,80389,2,0,B|236:384|292:360,1,99.9999999999999,8|8,0:0|0:0,0:0:0
308,332,80909,1,0,0:0:0
356,336,81082,2,0,B|408:336|444:288,1,99.9999999999999,4|8,0:0|0:0,0:0:0
424,244,81602,2,0,B|380:216|324:220,1,99.9999999999999,4|0,0:0|0:0,0:0:0
208,128,82469,6,0,B|268:112|316:144|376:112,2,150,4|8|4,0:0|0:0|0:0,0:0:0
148,208,83857,1,0,0:0:0
204,292,84204,1,0,0:0:0
308,292,84550,1,8,0:0:0
364,208,84897,1,0,0:0:0
256,192,85244,12,4,88019,0:0:0
200,256,99117,6,0,B|256:272|300:256,1,99.9999999999999,6|2,0:0|0:0,0:0:0
384,308,99811,2,0,B|400:244|376:200,1,99.9999999999999,2|2,0:0|0:0,0:0:0
348,116,100504,1,2,0:0:0
348,116,100851,1,2,0:0:0
272,52,101198,2,0,B|244:104|260:152,1,99.9999999999999,2|2,0:0|0:0,0:0:0
168,188,101891,5,2,0:0:0
132,96,102238,1,2,0:0:0
48,40,102585,2,0,B|28:100|52:156,1,99.9999999999999,2|2,0:0|0:0,0:0:0
76,236,103279,2,0,B|16:240|-24:208,2,99.9999999999999,2|2|2,0:0|0:0|0:0,0:0:0
156,292,104319,1,2,0:0:0
244,340,104666,6,0,B|264:284|240:240,1,99.9999999999999,2|2,0:0|0:0,0:0:0
204,148,105360,2,0,B|252:124|308:144,1,99.9999999999999,2|2,0:0|0:0,0:0:0
348,232,106053,2,0,B|412:248|460:228,2,99.9999999999999,2|2|2,0:0|0:0|0:0,0:0:0
256,192,107094,1,2,0:0:0
156,176,107441,6,0,B|168:116|208:92,1,99.9999999999999,2|2,0:0|0:0,0:0:0
308,92,108134,2,0,B|347:116|359:176,1,99.9999999999999,2|2,0:0|0:0,0:0:0
307,260,108828,5,2,0:0:0
207,260,109175,1,2,0:0:0
207,360,109522,1,2,0:0:0
307,360,109868,1,2,0:0:0
396,312,110215,6,0,B|416:252|392:208,1,99.9999999999999,6|2,0:0|0:0,0:0:0
404,116,110909,2,0,B|336:112|304:172,1,99.9999999999999,2|2,0:0|0:0,0:0:0
256,232,111602,1,2,0:0:0
256,232,111949,1,2,0:0:0
196,152,112296,1,2,0:0:0
196,152,112643,1,2,0:0:0
104,108,112990,6,0,B|88:172|116:220,1,99.9999999999999,2|2,0:0|0:0,0:0:0
168,288,113683,2,0,B|104:304|64:288,2,99.9999999999999,2|2|2,0:0|0:0|0:0,0:0:0
256,240,114724,1,2,0:0:0
336,180,115071,5,2,0:0:0
420,232,115417,1,2,0:0:0
420,132,115764,2,0,B|448:80|420:32,1,99.9999999999999,2|2,0:0|0:0,0:0:0
328,72,116458,2,0,B|280:52|216:80,1,99.9999999999999,2|2,0:0|0:0,0:0:0
144,124,117152,2,0,B|124:60|148:4,2,99.9999999999999,2|2|2,0:0|0:0|0:0,0:0:0
180,216,118192,1,2,0:0:0
260,156,118539,6,0,B|312:172|372:164,1,99.9999999999999,2|2,0:0|0:0,0:0:0
404,144,119059,1,0,0:0:0
448,172,119232,2,0,B|460:228|440:284,1,99.9999999999999,2|2,0:0|0:0,0:0:0
356,320,119926,2,0,B|292:300|260:336|200:308,2,150,2|0|2,0:0|0:0|0:0,0:0:0
364,220,121313,6,0,B|292:148,1,99.9999999999999,4|8,0:0|0:0,0:0:0
244,236,122007,2,0,B|144:208,1,99.9999999999999,0|8,0:0|0:0,0:0:0
48,224,122701,2,0,B|48:324,2,99.9999999999999,0|8|0,0:0|0:0|0:0,0:0:0
108,144,123741,1,8,0:0:0
64,52,124088,6,0,B|116:28|176:60,1,99.9999999999999,0|8,0:0|0:0,0:0:0
236,120,124782,2,0,B|284:144|348:128,1,99.9999999999999,0|8,0:0|0:0,0:0:0
392,52,125475,1,0,0:0:0
484,88,125822,1,8,0:0:0
484,188,126169,1,0,0:0:0
388,216,126516,1,8,0:0:0
332,300,126863,6,0,B|280:324|220:312,1,99.9999999999999,0|8,0:0|0:0,0:0:0
184,316,127383,1,0,0:0:0
140,292,127556,2,0,B|88:256|80:212,1,99.9999999999999,0|8,0:0|0:0,0:0:0
24,132,128250,6,0,B|76:96|128:100,1,99.9999999999999,0|8,0:0|0:0,0:0:0
160,124,128770,2,0,B|216:140|268:104,1,99.9999999999999,0|0,0:0|0:0,0:0:0
292,76,129290,1,8,0:0:0
392,84,129637,2,0,B|416:144|400:200,1,99.9999999999999,0|8,0:0|0:0,0:0:0
372,220,130157,2,0,B|356:300|392:336,2,99.9999999999999,0|8|8,0:0|0:0|0:0,0:0:0
140,312,131718,6,0,B|124:256|156:212,1,99.9999999999999,0|8,0:0|0:0,0:0:0
244,260,132412,2,0,B|260:204|232:160,1,99.9999999999999,4|8,0:0|0:0,0:0:0
208,120,132932,2,0,B|151:105|104:120,2,99.9999999999999,0|8|8,0:0|0:0|0:0,0:0:0
448,48,134493,6,0,B|464:104|432:148,1,99.9999999999999,0|8,0:0|0:0,0:0:0
344,100,135186,2,0,B|328:156|356:200,1,99.9999999999999,0|8,0:0|0:0,0:0:0
380,240,135706,2,0,B|436:254|484:240,2,99.9999999999999,0|8|8,0:0|0:0|0:0,0:0:0
136,192,137267,5,0,0:0:0
196,272,137614,1,8,0:0:0
236,180,137961,2,0,B|280:160|336:168,1,99.9999999999999,4|0,0:0|0:0,0:0:0
368,204,138481,2,0,B|420:216|476:208,1,99.9999999999999,4|0,0:0|0:0,0:0:0
508,180,139001,1,8,0:0:0
500,80,139348,6,0,B|436:60|384:80,1,99.9999999999999,4|0,0:0|0:0,0:0:0
352,88,139868,2,0,B|304:104|248:76,1,99.9999999999999,4|0,0:0|0:0,0:0:0
208,56,140389,1,8,0:0:0
256,192,140735,12,0,142816,0:0:0
116,120,143510,6,0,B|104:180|124:224,1,99.9999999999999,4|8,0:0|0:0,0:0:0
164,308,144204,1,0,0:0:0
236,240,144550,1,8,0:0:0
284,228,144724,2,0,B|336:212|384:232,1,99.9999999999999,0|4,0:0|0:0,0:0:0
444,96,145591,6,0,B|408:44|344:44,1,99.9999999999999,0|8,0:0|0:0,0:0:0
260,32,146285,1,0,0:0:0
296,124,146631,1,8,0:0:0
256,152,146805,2,0,B|208:176|156:156,1,99.9999999999999
112,140,147325,1,8,0:0:0
68,160,147498,2,0,B|48:220|72:264,1,99.9999999999999,0|4,0:0|0:0,0:0:0
204,324,148365,5,0,0:0:0
256,240,148712,1,8,0:0:0
308,324,149059,2,0,B|360:336|404:312,1,99.9999999999999,4|8,0:0|0:0,0:0:0
448,288,149579,1,0,0:0:0
464,240,149753,2,0,B|492:188|480:120,1,99.9999999999999,0|8,0:0|0:0,0:0:0
408,76,150446,6,0,B|368:108|296:80,1,99.9999999999999,0|8,0:0|0:0,0:0:0
268,64,150967,1,0,0:0:0
220,52,151140,2,0,B|168:40|120:56,1,99.9999999999999,0|8,0:0|0:0,0:0:0
104,156,151834,6,0,B|88:212|104:256,1,99.9999999999999,4|0,0:0|0:0,0:0:0
128,296,152354,2,0,B|176:320|232:308,1,99.9999999999999,4|0,0:0|0:0,0:0:0
324,292,153048,1,4,0:0:0
256,56,153915,6,0,B|240:120|264:168,1,99.9999999999999,0|0,0:0|0:0,0:0:0
356,136,154608,6,0,B|376:192|360:236,1,99.9999999999999,4|8,0:0|0:0,0:0:0
420,316,155302,2,0,B|372:336|308:324,1,99.9999999999999,0|8,0:0|0:0,0:0:0
276,304,155822,1,0,0:0:0
184,344,156169,1,4,0:0:0
72,244,156689,6,0,B|60:176|100:128,1,99.9999999999999,0|8,0:0|0:0,0:0:0
84,48,157383,2,0,B|152:52|176:116,1,99.9999999999999,0|8,0:0|0:0,0:0:0
196,136,157903,2,0,B|244:164|300:144,1,99.9999999999999
340,128,158423,1,8,0:0:0
388,136,158597,2,0,B|444:152|468:196,1,99.9999999999999,0|4,0:0|0:0,0:0:0
364,304,159464,5,0,0:0:0
316,216,159811,1,8,0:0:0
268,304,160157,2,0,B|192:308|144:276,1,99.9999999999999,4|0,0:0|0:0,0:0:0
124,268,160678,1,4,0:0:0
56,192,161024,1,4,0:0:0
204,168,161545,6,0,B|232:204|300:216,1,99.9999999999999,4|0,0:0|0:0,0:0:0
340,216,162065,1,4,0:0:0
432,176,162412,1,4,0:0:0
312,84,162932,6,0,B|356:64|420:72,2,99.9999999999999,0|8|8,0:0|0:0|0:0,0:0:0
256,164,163972,1,8,0:0:0
208,76,164319,2,0,B|156:84|120:136,1,99.9999999999999,4|0,0:0|0:0,0:0:0
76,132,164839,2,0,B|76:184|48:252,1,99.9999999999999,4|0,0:0|0:0,0:0:0
208,256,165706,6,0,B|268:272|316:240|376:272,2,150,4|8|4,0:0|0:0|0:0,0:0:0
148,176,167094,1,0,0:0:0
204,92,167441,1,0,0:0:0
308,92,167787,1,8,0:0:0
364,176,168134,1,0,0:0:0
256,192,168481,12,4,171256,0:0:0
