osu file format v11

[General]
AudioFilename: luminous.mp3
AudioLeadIn: 1963
PreviewTime: 59564
Countdown: 0
SampleSet: Soft
StackLeniency: 0.7
Mode: 0
LetterboxInBreaks: 1

[Editor]
DistanceSpacing: 1.2
BeatDivisor: 4
GridSize: 4

[Metadata]
Title:Luminous
TitleUnicode:Luminous
Artist:ClariS
ArtistUnicode:ClariS
Creator:Mei_coN
Version:Insane
Source:Puella Magi Madoka Magica the Movie
Tags:mahou shoujo pokie athena tennos jogfi2002
BeatmapID:188889
BeatmapSetID:60911

[Difficulty]
HPDrainRate:7
CircleSize:4
OverallDifficulty:7
ApproachRate:8
SliderMultiplier:1.7
SliderTickRate:1

[Events]
//Background and Video events
0,0,"bg1.jpg"
//Break Periods
2,88218,98352
//Storyboard Layer 0 (Background)
//Storyboard Layer 1 (Fail)
//Storyboard Layer 2 (Pass)
//Storyboard Layer 3 (Foreground)
//Storyboard Sound Samples
//Background Colour Transformations
3,100,163,162,255

[TimingPoints]
-767,346.820809248555,4,2,1,40,1,0
600,-100,4,2,1,20,0,0
4782,-100,4,2,2,50,0,1
13105,-100,4,2,2,50,0,0
13432,-100,4,2,2,40,0,0
13779,-100,4,2,2,30,0,0
14126,-100,4,2,2,20,0,0
14493,-100,4,2,2,10,0,0
14993,-100,4,2,2,40,0,0
15513,-100,4,2,2,30,0,0
15880,-200,4,2,0,35,0,0
25918,-200,4,2,0,40,0,0
26265,-200,4,2,0,45,0,0
26611,-200,4,2,0,50,0,0
26958,-200,4,2,0,55,0,0
27305,-200,4,2,0,35,0,0
36669,-100,4,2,0,40,0,0
38076,-100,4,2,0,50,0,0
38403,-100,4,2,1,50,0,0
59579,-200,4,2,0,40,0,0
60273,-100,4,2,2,60,0,1
85244,-133.333333333333,4,2,0,40,0,1
86285,-133.333333333333,4,2,0,20,0,1
88019,-133.333333333333,4,2,0,40,0,0
99097,-100,4,2,2,40,0,0
108808,-100,4,2,2,30,0,0
108981,-100,4,2,2,35,0,0
109155,-100,4,2,2,40,0,0
109328,-100,4,2,2,45,0,0
109502,-100,4,2,2,50,0,0
109675,-100,4,2,2,55,0,0
109848,-100,4,2,2,60,0,0
110022,-100,4,2,2,65,0,0
110195,-100,4,2,1,40,0,0
118866,-100,4,2,1,45,0,0
119213,-100,4,2,1,50,0,0
119559,-100,4,2,1,55,0,0
119906,-100,4,2,1,60,0,0
120253,-100,4,2,1,40,0,0
120446,-200,4,2,1,40,0,0
121293,-100,4,2,1,50,0,0
142816,-200,4,2,0,40,0,0
143510,-100,4,2,2,60,0,1
171256,-100,4,2,2,35,0,0

[Colours]
Combo1 : 0,128,255
Combo2 : 255,128,192
Combo3 : 78,78,78
Combo4 : 255,255,0
Combo5 : 240,80,80

[HitObjects]
192,284,620,1,2,0:0:0
256,72,967,5,0,0:0:0
320,284,1313,5,2,0:0:0
144,152,1660,5,0,0:0:0
368,152,2007,5,2,0:0:0
256,192,2354,5,0,0:0:0
256,192,2527,1,2,0:0:0
256,192,2874,12,0,4435,0:0:0
376,80,4782,6,0,B|380:128|348:160,1,85,12|0,0:0|0:0,0:0:0
272,92,5128,2,0,B|220:80|176:96,1,85,8|0,0:0|0:0,0:0:0
96,144,5475,1,8,0:0:0
96,144,5649,1,0,0:0:0
128,240,5822,1,8,0:0:0
128,240,5996,1,8,0:0:0
104,340,6169,6,0,B|148:348|196:320,1,85,8|0,0:0|0:0,0:0:0
412,220,6516,2,0,B|368:212|320:240,1,85,8|0,0:0|0:0,0:0:0
264,292,6863,2,0,B|272:340|320:364,2,85,8|8|8,0:0|0:0|0:0,0:0:0
256,192,7383,1,0,0:0:0
256,192,7469,1,0,0:0:0
256,192,7556,6,0,B|204:212|168:176|88:200,1,170,8|8,0:0|0:0,0:0:0
140,112,8076,2,0,B|192:92|228:128|308:104,1,170,8|8,0:0|0:0,0:0:0
392,44,8597,2,0,B|416:84|400:144,1,85,8|8,0:0|0:0,0:0:0
320,210,8943,5,8,0:0:0
192,334,9117,1,0,0:0:0
346,271,9290,1,8,0:0:0
166,271,9464,1,0,0:0:0
321,334,9637,5,8,0:0:0
192,210,9811,1,0,0:0:0
256,354,9984,1,8,0:0:0
256,184,10157,1,0,0:0:0
324,108,10331,6,0,B|284:28|148:36,1,170,8|8,0:0|0:0,0:0:0
160,136,10851,2,0,B|116:192|-20:184,1,170,8|8,0:0|0:0,0:0:0
3,184,11371,1,8,0:0:0
3,184,11545,1,0,0:0:0
192,268,11718,6,0,B|232:348|368:340,1,170,8|8,0:0|0:0,0:0:0
340,240,12238,2,0,B|380:160|516:168,1,170,8|8,0:0|0:0,0:0:0
483,167,12759,1,8,0:0:0
483,167,12932,1,0,0:0:0
256,192,13105,12,4,14493,0:0:0
256,100,15013,5,0,0:0:0
312,244,15360,1,0,0:0:0
256,288,15533,1,8,0:0:0
200,244,15706,1,0,0:0:0
140,304,15880,6,0,B|112:268|124:212,1,85,6|0,0:0|0:0,0:0:0
60,164,16400,1,0,0:0:0
136,124,16574,2,0,B|180:140|224:116,1,85,2|0,0:0|0:0,0:0:0
288,168,17094,2,0,B|304:112|288:76,1,85,2|0,0:0|0:0,0:0:0
292,84,17614,1,2,0:0:0
460,104,17961,6,0,B|492:144,1,42.5,2|0,0:0|0:0,0:0:0
456,216,18308,2,0,B|429:182,1,42.5,2|0,0:0|0:0,0:0:0
372,120,18654,2,0,B|340:160|356:216,1,85,2|0,0:0|0:0,0:0:0
384,280,19175,2,0,B|336:296|296:260,1,85,2|0,0:0|0:0,0:0:0
256,196,19695,1,2,0:0:0
256,196,19868,1,0,0:0:0
223,271,20042,6,0,B|188:248,1,42.5,2|0,0:0|0:0,0:0:0
108,280,20389,2,0,B|72:256,1,42.5,2|0,0:0|0:0,0:0:0
128,192,20735,1,0,0:0:0
128,192,21082,1,2,0:0:0
52,40,21429,6,0,B|76:84|119:86,1,85,2|0,0:0|0:0,0:0:0
204,92,21949,1,0,0:0:0
280,52,22123,2,0,B|296:92|276:140,1,85,2|0,0:0|0:0,0:0:0
376,288,22643,2,0,B|360:248|374:204,1,85,2|0,0:0|0:0,0:0:0
384,120,23163,1,2,0:0:0
384,120,23337,1,0,0:0:0
312,160,23510,6,0,B|280:192,1,42.5,2|0,0:0|0:0,0:0:0
92,264,23857,2,0,B|122:233,1,42.5,2|0,0:0|0:0,0:0:0
176,172,24204,2,0,B|132:153|120:109,1,85,2|0,0:0|0:0,0:0:0
224,248,24724,2,0,B|267:264|279:308,1,85,2|0,0:0|0:0,0:0:0
472,288,25417,5,0,0:0:0
472,288,25591,2,0,B|448:252,1,42.5,2|0,0:0|0:0,0:0:0
456,88,25938,2,0,B|479:123,1,42.5,2|0,0:0|0:0,0:0:0
412,176,26285,1,2,0:0:0
332,204,26458,1,0,0:0:0
252,176,26631,1,2,0:0:0
172,204,26805,1,0,0:0:0
92,180,26978,1,6,0:0:0
180,324,27325,5,2,0:0:0
348,243,27672,2,0,B|360:280|352:328,1,85,2|0,0:0|0:0,0:0:0
276,288,28192,2,0,B|260:236|280:192,1,85,2|0,0:0|0:0,0:0:0
336,144,28712,1,2,0:0:0
336,144,28886,1,0,0:0:0
384,72,29059,2,0,B|336:56,1,42.5,2|0,0:0|0:0,0:0:0
128,48,29406,2,0,B|168:62,1,42.5,2|0,0:0|0:0,0:0:0
252,104,29753,6,0,B|272:64|256:16,1,85,2|0,0:0|0:0,0:0:0
172,152,30273,2,0,B|152:196|172:236,1,85,2|0,0:0|0:0,0:0:0
328,300,30967,1,0,0:0:0
352,212,31140,2,0,B|400:172,1,42.5,2|0,0:0|0:0,0:0:0
248,272,31487,2,0,B|204:308,1,42.5,2|0,0:0|0:0,0:0:0
128,304,31834,5,2,0:0:0
108,292,32180,1,2,0:0:0
88,276,32527,2,0,B|64:228|88:180,1,85,2|0,0:0|0:0,0:0:0
24,140,33048,2,0,B|56:108|102:114,1,85,2|0,0:0|0:0,0:0:0
101,113,33568,1,2,0:0:0
164,172,33741,1,0,0:0:0
164,172,33915,6,0,B|210:178|242:146,1,85,2|0,0:0|0:0,0:0:0
308,92,34435,2,0,B|332:132|320:180,1,85,2|0,0:0|0:0,0:0:0
321,173,34955,1,2,0:0:0
300,256,35128,1,0,0:0:0
300,256,35302,6,0,B|260:288|208:288,1,85,2|0,0:0|0:0,0:0:0
360,120,35822,2,0,B|392:88|438:94,1,85,2|0,0:0|0:0,0:0:0
472,176,36342,1,2,0:0:0
472,176,36516,1,0,0:0:0
388,232,36689,6,0,B|304:272,1,85,2|0,0:0|0:0,0:0:0
208,256,37036,1,0,0:0:0
112,220,37209,2,0,P|112:288|200:348,2,170
92,200,37990,1,0,0:0:0
72,176,38076,6,0,B|96:80,1,85,4|0,0:0|0:0,0:0:0
168,160,38423,2,0,B|272:160,1,85,8|0,0:0|0:0,0:0:0
320,84,38770,1,0,0:0:0
412,128,38943,1,0,0:0:0
412,128,39030,1,0,0:0:0
412,128,39117,2,0,B|428:192|388:232,1,85,8|0,0:0|0:0,0:0:0
448,304,39464,6,0,B|336:304,1,85
76,264,39811,2,0,B|180:264,1,85,8|0,0:0|0:0,0:0:0
256,304,40157,2,0,B|276:260|248:196,1,85
256,120,40504,1,8,0:0:0
256,120,40591,1,0,0:0:0
256,120,40678,1,0,0:0:0
328,192,40851,6,0,B|380:212|416:176|496:200,1,170,0|8,0:0|0:0,0:0:0
188,192,41371,2,0,B|136:172|100:208|20:184,1,170
56,280,41891,1,8,0:0:0
20,184,42065,1,0,0:0:0
72,96,42238,6,0,B|111:83|164:100,1,85
252,60,42585,2,0,B|270:102|244:156,1,85,8|0,0:0|0:0,0:0:0
184,220,42932,1,0,0:0:0
328,164,43105,1,0,0:0:0
172,116,43279,1,8,0:0:0
340,268,43452,1,0,0:0:0
260,332,43626,6,0,B|208:312|172:348|92:324,1,170,0|8,0:0|0:0,0:0:0
24,248,44146,1,0,0:0:0
92,172,44319,2,0,B|144:192|180:156|260:180,1,170,0|8,0:0|0:0,0:0:0
336,248,44839,1,0,0:0:0
432,212,45013,2,0,B|450:255|432:296,2,85,0|0|8,0:0|0:0|0:0,0:0:0
348,156,45533,2,0,B|316:24|316:24|256:44|256:44,1,170
188,68,46053,5,8,0:0:0
188,68,46140,1,0,0:0:0
188,68,46227,1,0,0:0:0
108,132,46400,2,0,B|76:88|92:40,2,85,0|0|8,0:0|0:0|0:0,0:0:0
76,228,46920,2,0,B|128:248|164:212|244:236,1,170
180,316,47441,5,8,0:0:0
232,136,47614,1,0,0:0:0
272,308,47787,1,0,0:0:0
312,192,47961,1,0,0:0:0
312,192,48048,1,0,0:0:0
312,192,48134,2,0,B|408:192,1,85,8|0,0:0|0:0,0:0:0
440,284,48481,1,8,0:0:0
480,192,48654,1,0,0:0:0
436,100,48828,1,8,0:0:0
420,92,48915,1,0,0:0:0
404,84,49001,1,0,0:0:0
388,76,49088,1,0,0:0:0
372,68,49175,6,0,B|288:24,1,85,4|0,0:0|0:0,0:0:0
216,92,49522,2,0,B|120:92,1,85,8|0,0:0|0:0,0:0:0
52,156,49868,2,0,B|28:108|44:48,2,85,0|0|8,0:0|0:0|0:0,0:0:0
148,196,50389,1,0,0:0:0
248,196,50562,2,0,B|300:216|336:180|416:204,1,170,0|8,0:0|0:0,0:0:0
476,288,51082,1,0,0:0:0
380,328,51256,6,0,B|364:280|376:240,1,85
288,48,51602,2,0,B|308:92|292:136,1,85,8|0,0:0|0:0,0:0:0
396,144,51949,1,0,0:0:0
272,228,52123,1,0,0:0:0
272,228,52209,1,0,0:0:0
272,228,52296,2,0,B|272:312,1,85,8|0,0:0|0:0,0:0:0
172,328,52643,5,0,0:0:0
136,232,52816,1,0,0:0:0
172,328,52990,1,8,0:0:0
136,232,53163,1,0,0:0:0
44,280,53337,2,0,B|12:232|40:180,1,85
8,100,53683,2,0,B|52:88|104:108,1,85,8|0,0:0|0:0,0:0:0
176,160,54030,6,0,B|200:120|180:48,2,85,0|0|8,0:0|0:0|0:0,0:0:0
168,296,54550,1,0,0:0:0
248,232,54724,2,0,B|328:208|416:240,1,170,4|0,0:0|0:0,0:0:0
504,288,55244,1,4,0:0:0
404,112,55591,6,0,B|416:64|392:16,2,85,0|8|0,0:0|0:0|0:0,0:0:0
312,72,56111,2,0,B|232:48|144:72,1,170,4|0,0:0|0:0,0:0:0
52,116,56631,1,4,0:0:0
256,200,56978,6,0,B|240:240|272:272|256:312,2,85,0|4|0,0:0|0:0|0:0,0:0:0
256,192,57498,12,0,58886,0:0:0
188,72,59579,6,0,B|224:40|288:40|328:76,1,148.75
364,104,60273,6,0,B|388:160|364:208,1,85,4|0,0:0|0:0,0:0:0
200,344,60620,2,0,B|177:317|193:261,1,85,8|0,0:0|0:0,0:0:0
256,184,60967,2,0,B|296:212|288:272,2,85,0|0|8,0:0|0:0|0:0,0:0:0
192,264,61487,2,0,B|140:236|88:264|24:220,1,170
20,120,62007,1,8,0:0:0
20,120,62094,1,0,0:0:0
20,120,62180,1,0,0:0:0
124,116,62354,6,0,B|168:132|228:112,1,85
392,60,62701,2,0,B|352:48|308:60,1,85,8|0,0:0|0:0,0:0:0
292,160,63048,1,0,0:0:0
212,220,63221,1,0,0:0:0
212,220,63308,1,0,0:0:0
212,220,63394,2,0,B|196:276|220:324,1,85,8|0,0:0|0:0,0:0:0
312,276,63741,2,0,B|325:322|312:360,2,85,0|0|8,0:0|0:0|0:0,0:0:0
412,304,64261,2,0,B|420:245|376:206|395:131,1,170
472,68,64782,1,8,0:0:0
472,68,64868,1,0,0:0:0
472,68,64955,1,0,0:0:0
372,44,65128,6,0,B|324:24|264:52,1,85
188,36,65475,2,0,B|132:56|124:116,1,85,8|0,0:0|0:0,0:0:0
188,164,65822,2,0,B|148:212|64:196|48:136,2,170,4|8|0,0:0|0:0|0:0,0:0:0
256,244,66689,1,0,0:0:0
316,164,66863,1,8,0:0:0
316,164,66949,1,0,0:0:0
316,164,67036,1,0,0:0:0
256,244,67209,6,0,B|296:292|380:276|396:216,2,170,0|8|0,0:0|0:0|0:0,0:0:0
316,164,68076,1,0,0:0:0
188,164,68250,1,8,0:0:0
188,164,68337,1,0,0:0:0
188,164,68423,1,0,0:0:0
204,264,68597,2,0,B|152:284|116:248|36:272,1,170,4|0,0:0|0:0,0:0:0
304,264,69117,2,0,B|384:288|420:252|472:272,1,170,4|0,0:0|0:0,0:0:0
256,332,69811,5,4,0:0:0
411,261,69984,2,0,B|371:245|328:260,1,85,0|0,0:0|0:0,0:0:0
100,256,70331,2,0,B|140:272|183:257,1,85,8|0,0:0|0:0,0:0:0
256,188,70678,1,8,0:0:0
256,188,70851,1,0,0:0:0
220,92,71024,1,8,0:0:0
220,92,71111,1,0,0:0:0
220,92,71198,1,0,0:0:0
220,92,71285,1,0,0:0:0
220,92,71371,6,0,B|136:140,1,85,4|0,0:0|0:0,0:0:0
60,80,71718,1,8,0:0:0
108,296,71891,1,0,0:0:0
84,192,72065,2,0,B|36:192|-4:192,2,85,0|0|8,0:0|0:0|0:0,0:0:0
180,228,72585,2,0,B|260:256|348:228,1,170
432,192,73105,1,8,0:0:0
432,192,73192,1,0,0:0:0
432,192,73279,1,0,0:0:0
480,280,73452,6,0,B|428:300|372:276,1,85
144,332,73799,2,0,B|192:348|240:332,1,85,8|0,0:0|0:0,0:0:0
304,268,74146,1,0,0:0:0
256,180,74319,1,0,0:0:0
256,180,74406,1,0,0:0:0
256,180,74493,2,0,B|240:124|264:76,1,85,8|0,0:0|0:0,0:0:0
356,124,74839,2,0,B|364:76|344:36,2,85,0|0|8,0:0|0:0|0:0,0:0:0
256,96,75360,2,0,B|176:72|140:108|88:88,1,170
36,176,75880,2,0,B|-12:148,2,42.5,8|0|0,0:0|0:0|0:0,0:0:0
60,268,76227,5,0,0:0:0
224,236,76400,1,0,0:0:0
104,352,76574,1,8,0:0:0
128,188,76747,1,0,0:0:0
204,340,76920,2,0,B|284:372|388:324,1,170,4|0,0:0|0:0,0:0:0
472,344,77441,2,0,B|484:248|440:172,1,170,4|0,0:0|0:0,0:0:0
384,96,77961,1,8,0:0:0
384,96,78048,1,0,0:0:0
384,96,78134,1,0,0:0:0
348,192,78308,6,0,B|268:160|172:192,1,170,4|0,0:0|0:0,0:0:0
120,272,78828,2,0,B|72:200|108:96,1,170,4|0,0:0|0:0,0:0:0
140,12,79348,1,8,0:0:0
140,12,79435,1,0,0:0:0
140,12,79522,1,0,0:0:0
384,96,79695,6,0,B|340:116|288:92,1,85,4|0,0:0|0:0,0:0:0
224,32,80042,2,0,B|188:64|200:132,1,85,8|0,0:0|0:0,0:0:0
256,192,80389,1,8,0:0:0
200,360,80562,1,0,0:0:0
200,360,80649,1,0,0:0:0
200,360,80735,2,0,B|228:316|224:272,1,85,8|0,0:0|0:0,0:0:0
180,188,81082,6,0,B|100:164|64:200|12:180,1,170,4|0,0:0|0:0,0:0:0
324,188,81602,2,0,B|404:164|440:200|492:180,1,170,4|0,0:0|0:0,0:0:0
432,96,82123,2,0,B|384:84|344:96,1,85,8|0,0:0|0:0,0:0:0
256,144,82469,6,0,B|176:96|96:144|0:80,2,255,4|8|4,0:0|0:0|0:0,0:0:0
428,304,83857,1,0,0:0:0
376,20,84204,5,4,0:0:0
92,76,84550,5,0,0:0:0
140,348,84897,5,0,0:0:0
296,64,85244,6,0,B|328:8|400:8|464:64|464:144|440:216|400:272|320:272|256:360|256:360|184:272|104:272|64:216|48:144|44:56|112:-4|188:-4|220:76|220:76,1,1020.00003890991,4|4,0:0|0:0,0:0:0
144,56,99117,22,0,B|120:100|120:152,1,85,6|0,0:0|0:0,0:0:0
28,180,99464,2,0,B|56:232|120:228,1,85,2|0,0:0|0:0,0:0:0
192,192,99811,1,2,0:0:0
192,192,99984,1,0,0:0:0
256,272,100157,1,2,0:0:0
256,272,100331,1,0,0:0:0
348,232,100504,6,0,B|364:272|348:320,1,85,2|0,0:0|0:0,0:0:0
256,272,100851,2,0,B|240:224|264:184,1,85,2|0,0:0|0:0,0:0:0
352,140,101198,2,0,B|400:124|456:148,2,85,2|0|2,0:0|0:0|0:0,0:0:0
256,100,101718,1,0,0:0:0
168,148,101891,6,0,B|152:192|176:240,1,85,2|0,0:0|0:0,0:0:0
340,230,102238,2,0,B|360:192|344:148,1,85,2|0,0:0|0:0,0:0:0
104,224,102585,2,0,B|124:276|188:300,1,85,2|0,0:0|0:0,0:0:0
408,160,102932,2,0,B|388:108|324:84,1,85,2|0,0:0|0:0,0:0:0
256,68,103279,5,2,0:0:0
184,192,103452,1,0,0:0:0
164,48,103626,1,2,0:0:0
264,152,103799,1,0,0:0:0
124,128,103972,6,0,B|80:100|20:116,1,85,2|0,0:0|0:0,0:0:0
64,212,104319,1,2,0:0:0
72,228,104406,1,0,0:0:0
80,244,104493,1,0,0:0:0
88,260,104579,1,0,0:0:0
96,276,104666,6,0,B|136:356,1,85,6|0,0:0|0:0,0:0:0
204,276,105013,2,0,B|320:276,1,85,2|0,0:0|0:0,0:0:0
352,356,105360,1,2,0:0:0
408,272,105533,1,0,0:0:0
408,272,105620,1,0,0:0:0
408,272,105706,2,0,B|396:208|344:184,1,85,2|0,0:0|0:0,0:0:0
268,188,106053,6,0,B|248:140|272:88,1,85,2|0,0:0|0:0,0:0:0
452,24,106400,2,0,B|478:56|470:104,1,85,2|0,0:0|0:0,0:0:0
380,152,106747,2,0,B|408:192|452:200,2,85,2|0|2,0:0|0:0|0:0,0:0:0
360,52,107267,1,0,0:0:0
264,104,107441,6,0,B|176:128|96:88,1,170,2|2,0:0|0:0,0:0:0
16,28,107961,2,0,B|-8:116|32:196,1,170,2|2,0:0|0:0,0:0:0
36,296,108481,2,0,B|-20:352,2,42.5,2|0|0,0:0|0:0|0:0,0:0:0
132,256,108828,5,2,0:0:0
68,208,109001,1,0,0:0:0
212,260,109175,1,2,0:0:0
132,328,109348,1,0,0:0:0
132,160,109522,5,2,0:0:0
212,336,109695,1,0,0:0:0
64,288,109868,1,2,0:0:0
192,200,110042,1,0,0:0:0
276,260,110215,6,0,B|328:280|392:248,1,85,6|0,0:0|0:0,0:0:0
436,328,110562,2,0,B|460:280|452:240,1,85,2|0,0:0|0:0,0:0:0
384,172,110909,1,2,0:0:0
384,172,111082,1,0,0:0:0
456,100,111256,1,2,0:0:0
376,40,111429,6,0,B|285:25|213:73,1,170,2|2,0:0|0:0,0:0:0
120,32,111949,2,0,B|104:80|136:128,1,85,2|0,0:0|0:0,0:0:0
48,316,112296,2,0,B|32:268|64:220,1,85,2|0,0:0|0:0,0:0:0
152,204,112643,1,2,0:0:0
152,204,112730,1,0,0:0:0
152,204,112816,1,0,0:0:0
208,288,112990,6,0,B|285:330|376:288,1,170,2|2,0:0|0:0,0:0:0
456,212,113510,2,0,B|378:169|292:209,1,170,2|2,0:0|0:0,0:0:0
208,288,114030,1,2,0:0:0
208,288,114117,1,0,0:0:0
208,288,114204,1,0,0:0:0
108,268,114377,6,0,B|32:216,1,85,2|0,0:0|0:0,0:0:0
128,172,114724,2,0,B|84:96,1,85,2|0,0:0|0:0,0:0:0
188,112,115071,2,0,B|188:27,1,85,2|0,0:0|0:0,0:0:0
268,92,115417,2,0,B|317:23,1,85,2|0,0:0|0:0,0:0:0
356,20,115678,1,0,0:0:0
392,28,115764,6,0,B|416:108|380:144|400:196,1,170,2|2,0:0|0:0,0:0:0
392,300,116285,1,0,0:0:0
292,328,116458,2,0,B|272:276|308:240|284:160,1,170,2|2,0:0|0:0,0:0:0
256,60,116978,1,0,0:0:0
156,36,117152,6,0,B|108:12|52:44,1,85,2|0,0:0|0:0,0:0:0
112,128,117498,2,0,B|56:140|36:192,1,85,2|0,0:0|0:0,0:0:0
124,236,117845,2,0,B|92:276|100:324,2,85,2|0|2,0:0|0:0|0:0,0:0:0
216,192,118365,1,0,0:0:0
208,292,118539,6,0,B|296:320|392:292,1,170,2|2,0:0|0:0,0:0:0
476,280,119059,1,0,0:0:0
408,204,119232,1,2,0:0:0
376,296,119406,1,0,0:0:0
492,196,119579,5,2,0:0:0
324,220,119753,1,0,0:0:0
440,344,119926,2,0,B|420:248,1,85,2|0,0:0|0:0,0:0:0
420,244,120186,1,0,0:0:0
416,228,120273,1,8,0:0:0
392,140,120446,6,0,B|368:96|320:88,1,85,8|0,0:0|0:0,0:0:0
256,140,120967,1,2,0:0:0
240,140,121053,1,0,0:0:0
224,140,121140,1,0,0:0:0
208,140,121227,1,0,0:0:0
192,140,121313,6,0,B|140:176|56:228,1,127.5,4|0,0:0|0:0,0:0:0
52,236,121660,1,8,0:0:0
112,316,121834,1,0,0:0:0
112,316,122007,2,0,B|156:332|204:316,1,85
288,360,122354,2,0,B|308:320|280:256,1,85,8|0,0:0|0:0,0:0:0
256,180,122701,5,0,0:0:0
164,228,122874,1,0,0:0:0
164,228,122961,1,0,0:0:0
164,228,123048,2,0,B|140:172|172:116,1,85,8|0,0:0|0:0,0:0:0
232,76,123394,2,0,B|200:44|140:48,2,85,0|0|8,0:0|0:0|0:0,0:0:0
336,108,123915,1,0,0:0:0
408,36,124088,6,0,B|448:100|432:188,1,127.5
440,204,124435,1,8,0:0:0
492,292,124608,1,0,0:0:0
492,292,124782,2,0,B|444:316|388:292,1,85
316,340,125128,1,8,0:0:0
328,240,125302,1,0,0:0:0
232,276,125475,6,0,B|156:280|112:320,1,127.5
80,356,125822,2,0,B|36:340|16:296,1,85,8|0,0:0|0:0,0:0:0
0,200,126169,1,0,0:0:0
168,164,126342,1,0,0:0:0
40,192,126516,1,8,0:0:0
208,156,126689,1,0,0:0:0
96,140,126863,6,0,B|108:44|216:24,1,170,0|8,0:0|0:0,0:0:0
256,116,127383,1,0,0:0:0
306,26,127556,2,0,B|404:44|416:140,1,170,0|8,0:0|0:0,0:0:0
408,240,128076,1,0,0:0:0
360,332,128250,2,0,B|312:304|312:244,1,85
313,264,128510,1,0,0:0:0
313,264,128597,1,8,0:0:0
256,180,128770,1,0,0:0:0
180,116,128943,2,0,B|200:72|172:28,2,85,0|0|8,0:0|0:0|0:0,0:0:0
80,92,129464,5,0,0:0:0
12,168,129637,2,0,B|52:200|112:180,1,85
92,288,129984,1,8,0:0:0
176,228,130157,2,0,B|208:360|208:360|260:316|260:352,1,170
324,288,130678,1,8,0:0:0
324,288,130851,1,0,0:0:0
396,96,131198,5,0,0:0:0
360,168,131371,1,8,0:0:0
472,96,131545,1,0,0:0:0
352,40,131718,1,8,0:0:0
436,160,131891,1,0,0:0:0
320,104,132065,5,8,0:0:0
304,104,132152,1,0,0:0:0
288,104,132238,1,0,0:0:0
272,104,132325,1,0,0:0:0
256,104,132412,2,0,B|128:104,1,127.5,4|0,0:0|0:0,0:0:0
84,104,132759,1,8,0:0:0
84,104,132932,1,0,0:0:0
36,192,133105,2,0,B|84:212|124:192,1,85
212,148,133452,2,0,B|228:192|212:248,1,85,8|0,0:0|0:0,0:0:0
128,280,133799,6,0,B|168:336|248:336,1,127.5
280,328,134146,1,8,0:0:0
280,328,134319,1,0,0:0:0
292,136,134493,1,0,0:0:0
268,228,134666,1,0,0:0:0
268,228,134753,1,0,0:0:0
268,228,134839,2,0,B|324:232|376:272,1,85,8|0,0:0|0:0,0:0:0
432,312,135186,6,0,B|472:216|384:160,1,170,0|8,0:0|0:0,0:0:0
292,136,135706,2,0,B|212:112|176:148|124:128,1,170
48,56,136227,1,8,0:0:0
48,56,136313,1,0,0:0:0
48,56,136400,1,0,0:0:0
48,160,136574,6,0,B|0:256,1,85
112,244,136920,2,0,B|96:340,1,85,8|0,0:0|0:0,0:0:0
200,320,137267,1,0,0:0:0
336,236,137441,1,0,0:0:0
176,236,137614,1,8,0:0:0
312,320,137787,1,0,0:0:0
256,176,137961,6,0,B|328:120|432:128,1,170,4|0,0:0|0:0,0:0:0
415,127,138481,1,4,0:0:0
396,332,138828,2,0,B|444:348|484:316,2,85,0|8|0,0:0|0:0|0:0,0:0:0
312,272,139348,6,0,B|240:328|136:320,1,170,4|0,0:0|0:0,0:0:0
152,320,139868,1,4,0:0:0
108,120,140215,2,0,B|52:120|12:172,2,85,0|8|0,0:0|0:0|0:0,0:0:0
128,220,140735,6,0,B|192:236|248:188,1,127.5,0|0,0:0|0:0,0:0:0
288,160,141082,2,0,B|352:152|416:176,1,127.5,8|0,0:0|0:0,0:0:0
428,224,141429,2,0,B|468:272,2,56.6666666666667,0|0|0,0:0|0:0|0:0,0:0:0
412,288,141776,2,0,B|418:344,2,56.6666666666667,8|0|0,0:0|0:0|0:0,0:0:0
356,324,142123,1,0,0:0:0
160,268,142816,6,0,B|128:196|160:116,1,148.75
144,72,143510,6,0,B|192:56|256:76,1,85,4|0,0:0|0:0,0:0:0
320,24,143857,2,0,B|328:76|316:108,1,85,8|0,0:0|0:0,0:0:0
256,192,144204,1,0,0:0:0
168,244,144377,1,0,0:0:0
256,296,144550,1,8,0:0:0
256,192,144724,2,0,B|336:216|372:180|424:200,1,170
444,300,145244,2,0,B|508:324,2,42.5,8|0|0,0:0|0:0|0:0,0:0:0
424,200,145591,6,0,B|440:152|420:104,1,85
344,52,145938,2,0,B|328:92|348:156,1,85,8|0,0:0|0:0,0:0:0
256,192,146285,2,0,B|208:216|160:184,1,85
116,108,146631,1,8,0:0:0
116,108,146805,1,0,0:0:0
216,100,146978,2,0,B|240:44|192:-4,2,85,0|0|8,0:0|0:0|0:0,0:0:0
116,108,147498,2,0,B|68:188|120:276,1,170
204,320,148019,2,0,B|176:368,2,42.5,8|0|0,0:0|0:0|0:0,0:0:0
284,256,148365,5,0,0:0:0
210,224,148539,1,0,0:0:0
351,210,148712,1,8,0:0:0
200,148,148886,1,0,0:0:0
276,176,149059,6,0,B|299:117|360:76,1,127.5,4|0,0:0|0:0,0:0:0
396,48,149406,2,0,B|448:104|468:168,1,127.5,8|0,0:0|0:0,0:0:0
480,204,149753,1,0,0:0:0
380,192,149926,1,0,0:0:0
380,192,150013,1,0,0:0:0
380,192,150100,2,0,B|348:280,1,85,8|0,0:0|0:0,0:0:0
268,216,150446,6,0,B|244:274|184:316,1,127.5
148,344,150793,2,0,B|96:288|76:224,1,127.5,8|0,0:0|0:0,0:0:0
64,188,151140,1,0,0:0:0
164,200,151313,1,0,0:0:0
164,200,151400,1,0,0:0:0
164,200,151487,2,0,B|196:112,1,85,8|0,0:0|0:0,0:0:0
140,32,151834,6,0,B|192:12|228:48|308:24,1,170,4|0,0:0|0:0,0:0:0
496,100,152354,2,0,B|444:120|408:84|328:108,1,170,4|0,0:0|0:0,0:0:0
256,180,152874,2,0,B|256:268,1,85,0|4,0:0|0:0,0:0:0
148,92,153394,2,0,B|148:44|196:12,2,85,0|8|0,0:0|0:0|0:0,0:0:0
156,196,153915,5,12,0:0:0
126,225,154001,1,0,0:0:0
114,266,154088,1,0,0:0:0
122,307,154175,1,0,0:0:0
148,340,154261,1,8,0:0:0
187,356,154348,1,0,0:0:0
228,348,154435,1,0,0:0:0
262,323,154522,1,0,0:0:0
300,300,154608,6,0,B|364:276|428:308,1,127.5,4|0,0:0|0:0,0:0:0
464,320,154955,1,8,0:0:0
464,320,155128,1,0,0:0:0
460,216,155302,2,0,B|460:160|500:136,2,85,0|0|8,0:0|0:0|0:0,0:0:0
364,176,155822,2,0,B|276:144|172:184,1,170
108,228,156342,1,8,0:0:0
108,228,156429,1,0,0:0:0
108,228,156516,1,0,0:0:0
160,316,156689,6,0,B|208:276|208:220,1,85
296,292,157036,2,0,B|312:268|297:209,1,85,8|0,0:0|0:0,0:0:0
244,120,157383,5,0,0:0:0
84,64,157556,1,0,0:0:0
108,228,157730,1,8,0:0:0
152,144,157903,1,0,0:0:0
152,144,158076,2,0,B|104:128|56:156,2,85,0|0|8,0:0|0:0|0:0,0:0:0
220,220,158597,2,0,B|308:252|392:220,1,170
440,136,159117,2,0,B|472:168,2,42.5,8|0|0,0:0|0:0|0:0,0:0:0
368,64,159464,5,0,0:0:0
207,102,159637,1,0,0:0:0
360,164,159811,1,8,0:0:0
273,25,159984,1,0,0:0:0
261,190,160157,2,0,P|264:280|204:360,1,170,4|0,0:0|0:0,0:0:0
172,256,160678,2,0,B|96:300|0:256,1,170,4|0,0:0|0:0,0:0:0
12,156,161198,1,8,0:0:0
16,140,161285,1,0,0:0:0
28,128,161371,1,0,0:0:0
44,120,161458,1,0,0:0:0
60,116,161545,6,0,B|156:140|217:78,1,170,4|0,0:0|0:0,0:0:0
316,48,162065,2,0,B|348:144|316:224,1,170,4|0,0:0|0:0,0:0:0
228,260,162585,1,8,0:0:0
232,276,162672,1,0,0:0:0
244,288,162759,1,0,0:0:0
260,296,162845,1,0,0:0:0
276,300,162932,6,0,B|324:324|388:280,1,85,4|0,0:0|0:0,0:0:0
444,244,163279,2,0,B|468:292|444:356,1,85,8|0,0:0|0:0,0:0:0
356,200,163626,2,0,B|368:144|340:84,2,85,8|0|8,0:0|0:0|0:0,0:0:0
256,192,164146,1,0,0:0:0
128,264,164319,2,0,B|100:176|124:96,1,170,4|8,0:0|0:0,0:0:0
388,96,164839,2,0,B|412:176|384:264,1,170,4|0,0:0|0:0,0:0:0
256,348,165360,1,8,0:0:0
256,248,165533,1,0,0:0:0
256,148,165706,6,0,B|336:100|416:148|512:84,2,255,4|8|4,0:0|0:0|0:0,0:0:0
84,304,167094,1,0,0:0:0
136,20,167441,5,4,0:0:0
420,76,167787,5,0,0:0:0
372,348,168134,5,0,0:0:0
256,192,168394,12,0,169175,0:0:0
256,192,169348,12,4,171256,0:0:0
