osu file format v14

[General]
AudioFilename: Luminouuuus.mp3
AudioLeadIn: 0
PreviewTime: 180746
Countdown: 0
SampleSet: Normal
StackLeniency: 0.7
Mode: 1
LetterboxInBreaks: 0
WidescreenStoryboard: 0

[Editor]
Bookmarks: 5948,7336,7422,7509,9416,10110,10197,11324,11497,11671,11844,12018,12538,12625,12711,14792,15486,17220,17740,18260,18607,19994,20515,21208,22769,23289,23636,23809,23983,24156,25197,25370,25544,26064,26411,26519,26541,26562,26584,26606,26627,26649,26671,26692,26714,26736,26757,26779,26801,26823,26844,26866,26888,26909,26931,26953,26974,26996,27278,27625,27906,27928,27950,27971,27993,28015,28036,28058,28080,28101,28123,28145,28166,28188,28210,28231,28253,28275,28296,28318,28340,28362,28665,29012,29359,29705,30052,30399,30746,31093,31440,31786,32133,32480,32827,33174,33520,33867,34214,34561,34908,35255,35601,36122,36295,36468,36642,37162,37509,38029,39416,39590,39763,39937,40630,40717,40804,42191,42364,42538,42711,43058,43231,43513,43535,43557,43578,43600,43622,43643,43665,44966,46179,46266,46353,47740,48087,48260,48781,48954,49127,53289,53463,53636,53940,53961,53983,54005,54026,54113,54135,54156,54178,54200,54286,54308,54330,54351,54373,54460,54481,54503,54525,54546,54633,54655,54677,54698,54720,55197,56064,56584,57451,57971,58145,58318,58492,58838,59359,59532,60226,60573,60919,61440,61786,62307,62653,63000,63347,63694,63867,64041,64214,64301,64388,64734,64908,65255,65428,65601,65775,66122,66468,66729,66967,66989,67010,67075,67162,67509,67791,67812,67834,67856,67877,67899,67921,68203,68549,68896,69070,69416,69763,70283,70457,70630,70804,70890,70977,71064,71324,71671,72018,72191,72364,72538,72711,73058,73231,73578,73752,74099,74445,74792,74966,75139,75486,75833,76006,76353,76526,76700,76786,76873,78260,79474,79561,79648,80970,80992,81013,81035,81057,81078,81100,81555,82422,82942,83116,83463,84156,84503,84850,85197,86237,90746,91440,91613,91700,91786,91873,91938,91960,91981,92046,92133,92220,92285,92307,92328,92393,92480,92567,92653,92740,92827,92914,92979,93000,93022,93087,93152,93174,93195,93260,93325,93347,93434,93499,93520,93542,95775,95948,96122,96295,98289,98376,98896,98983,99070,99416,99763,100110,100457,100804,101151,101497,101844,102191,102538,102885,103231,103578,103752,103925,104272,104445,104619,106526,106873,107046,107220,107393,107740,107914,108087,108260,108434,108607,108954,109127,109301,109474,109648,109821,111382,112249,112422,112596,114156,115023,115370,115544,115630,115717,116064,116411,116757,116931,117451,117798,118145,118492,119879,120399,120746,121266,126772,126794,126815,126837,126859,130804,131671,132018,132364,137198,137220,137242,137372,137393,137415,137545,137567,137718,137740,137762,137892,137914,137935,141382,141497,141613,141729,141844,141960,142075,142769,143463,143506,143549,143571,143593,143614,143636,143658,143679,143701,143723,143744,143766,143788,143809,143853,143896,143940,143983,144026,144070,144156,144200,144243,144286,144330,144373,144416,144503,144546,144590,144633,144655,144677,144720,144763,144807,144828,144850,144872,144893,144937,144980,145023,145045,145067,145110,145132,145153,145175,145197,145218,145240,145283,145327,145370,146237,146281,146324,146346,146367,146389,146411,146432,146454,146497,146584,146627,146757,146801,146844,146866,146888,146909,146931,146974,147018,147104,147148,147191,147234,147278,147321,147408,147451,147473,147494,147538,147581,147625,147668,147711,147798,147841,147885,147906,147928,147950,147971,147993,150052,150161,150182,150204,150226,150247,150269,150291,150312,150399,160110,161432,161454,161476,161497,161519,161541,161562,162711,162798,162885,164272,164792,180573,180659,180746,181613,182307,182653,182827,183174,183347,183694,184041,184214,184561,184734,184908,185081,185428,185601,185645,185688,185731,185775,185818,185862,185905,185948,185992,186013,186035,186057,186078,186100,186122,186143,186165,186208,186252,186295,186317,186338,186360,186382,186425,186468,186815,186989,187054,187075,187097,187336,216945,216967,216989,217010,217032,218354,218376,218398,218419,219720,219742,219763,219785,219807,220414,220435,220457,220479,220500,220522,221107,221129,221151,221172,221194,221216,221801,221823,221844,221866,222018,222191,222278,222364,222451,222538,223752,223838,223925,224966,225052,225139,225226,225247,225269,225291,225312,225334,225356,225377,226635,226656,226678,226700,226721,226743,226765,227740,227827,227914,228434,228607,228954,229127,230688,230775,230862,231208,231382,231555,231729,231902
DistanceSpacing: 1.3
BeatDivisor: 4
GridSize: 32
TimelineZoom: 1.8

[Metadata]
Title:Luminous
TitleUnicode:ルミナス
Artist:ClariS
ArtistUnicode:ClariS
Creator:JUDYDANNY
Version:Oni
Source:劇場版 魔法少女まどか☆マギカ [前編] 始まりの物語
Tags:Taiko movie Gekijouban Puella Magi Madoka Magica [Zenhen] Hajimari no Monogatari Clara Alice
BeatmapID:1146212
BeatmapSetID:540539

[Difficulty]
HPDrainRate:6
CircleSize:5
OverallDifficulty:5
ApproachRate:5
SliderMultiplier:1.4
SliderTickRate:2

[Events]
//Background and Video events
0,0,"bg3.jpg",0,120
//Break Periods
//Storyboard Layer 0 (Background)
//Storyboard Layer 1 (Fail)
//Storyboard Layer 2 (Pass)
//Storyboard Layer 3 (Foreground)
//Storyboard Sound Samples

[TimingPoints]
573,346.820809248555,4,1,0,60,1,0
4648,-100,4,1,0,85,0,0
16006,-100,4,1,0,60,0,0
27018,-100,4,1,0,68,0,0
38203,-100,4,1,0,75,0,0
49301,-100,4,1,0,80,0,0
59185,-100,4,1,0,60,0,0
59445,-100,4,1,0,95,0,0
60226,-100,4,1,0,95,0,1
86237,-100,4,1,0,50,0,0
87885,-100,4,1,0,85,0,0
96468,-100,4,1,0,75,0,0
98896,-100,4,1,0,68,0,0
121266,-100,4,1,0,75,0,0
132364,-100,4,1,0,80,0,0
142075,-100,4,1,0,50,0,0
142682,-100,4,1,0,95,0,0
143463,-100,4,1,0,95,0,1
169474,-100,4,1,0,50,0,0
179445,-100,4,1,0,75,0,0
180486,-100,4,1,0,83,0,0
180919,-100,4,1,0,90,0,1
203116,-100,4,1,0,70,0,1
204850,-111.111111111111,4,1,0,70,0,1
205544,-125,4,1,0,70,0,1
205890,-125,4,1,0,50,0,0
210919,-125,4,1,0,75,0,0
211786,-111.111111111111,4,1,0,75,0,0
213520,-105.263157894737,4,1,0,80,0,0
214214,-105.263157894737,4,1,0,95,0,1
214388,-100,4,1,0,95,0,1
233809,-100,4,1,0,85,0,1
236064,-100,4,1,0,80,0,0
238145,-100,4,1,0,60,0,0
239185,-100,4,1,0,40,0,0

[HitObjects]
256,192,2827,12,0,4041,0:0:0:0:
224,128,4388,5,0,0:0:0:0:
224,128,4561,1,0,0:0:0:0:
160,64,4734,5,4,0:0:0:0:
160,64,5081,1,0,0:0:0:0:
160,64,5255,1,2,0:0:0:0:
160,64,5428,1,0,0:0:0:0:
160,64,5775,1,2,0:0:0:0:
160,64,5948,1,2,0:0:0:0:
160,64,6122,1,0,0:0:0:0:
160,64,6468,1,2,0:0:0:0:
160,64,6815,1,0,0:0:0:0:
160,64,6989,1,0,0:0:0:0:
160,64,7162,1,2,0:0:0:0:
160,64,7336,1,0,0:0:0:0:
160,64,7422,1,0,0:0:0:0:
160,64,7509,1,0,0:0:0:0:
160,64,7856,1,0,0:0:0:0:
160,64,8029,1,2,0:0:0:0:
160,64,8203,1,0,0:0:0:0:
160,64,8549,1,2,0:0:0:0:
160,64,8723,1,2,0:0:0:0:
160,64,8896,1,0,0:0:0:0:
160,64,9243,1,8,0:0:0:0:
128,0,9416,1,0,0:0:0:0:
128,0,9503,1,0,0:0:0:0:
160,0,9590,1,0,0:0:0:0:
160,64,9763,1,2,0:0:0:0:
160,64,9937,1,0,0:0:0:0:
160,64,10110,1,2,0:0:0:0:
160,64,10197,1,2,0:0:0:0:
160,64,10283,1,0,0:0:0:0:
160,64,10630,1,0,0:0:0:0:
160,64,10804,1,2,0:0:0:0:
160,64,10977,1,0,0:0:0:0:
160,64,11324,1,2,0:0:0:0:
160,64,11497,1,2,0:0:0:0:
160,64,11584,1,2,0:0:0:0:
160,64,11671,1,0,0:0:0:0:
160,64,11844,1,2,0:0:0:0:
160,64,12018,1,0,0:0:0:0:
160,64,12364,1,2,0:0:0:0:
160,64,12538,1,0,0:0:0:0:
160,64,12711,1,0,0:0:0:0:
160,64,12798,1,0,0:0:0:0:
128,96,12885,1,0,0:0:0:0:
128,96,12971,1,0,0:0:0:0:
128,96,13058,1,2,0:0:0:0:
160,64,13405,1,0,0:0:0:0:
160,64,13578,1,2,0:0:0:0:
160,64,13925,1,2,0:0:0:0:
160,64,14099,1,0,0:0:0:0:
160,64,14445,1,0,0:0:0:0:
160,32,14966,1,2,0:0:0:0:
160,32,15312,1,0,0:0:0:0:
160,32,15486,1,2,0:0:0:0:
160,96,15833,5,4,0:0:0:0:
160,96,16179,1,2,0:0:0:0:
160,96,16526,1,2,0:0:0:0:
160,96,16873,1,2,0:0:0:0:
160,96,17046,1,0,0:0:0:0:
160,96,17567,1,0,0:0:0:0:
160,96,18260,1,2,0:0:0:0:
160,96,18434,1,2,0:0:0:0:
160,96,18607,1,0,0:0:0:0:
160,96,18954,1,2,0:0:0:0:
160,96,19127,1,2,0:0:0:0:
160,96,19648,1,2,0:0:0:0:
160,96,19821,1,2,0:0:0:0:
160,96,20688,5,0,0:0:0:0:
160,96,21035,5,2,0:0:0:0:
160,96,21382,5,4,0:0:0:0:
160,96,21729,1,2,0:0:0:0:
160,96,22075,1,2,0:0:0:0:
160,96,22422,1,2,0:0:0:0:
160,96,22596,1,0,0:0:0:0:
160,96,23116,1,0,0:0:0:0:
160,32,23289,1,2,0:0:0:0:
160,0,23636,1,0,0:0:0:0:
160,0,23809,1,2,0:0:0:0:
160,0,23983,1,0,0:0:0:0:
160,0,24156,1,2,0:0:0:0:
160,96,24503,1,0,0:0:0:0:
160,32,24677,1,2,0:0:0:0:
160,0,25023,5,2,0:0:0:0:
160,0,25197,5,0,0:0:0:0:
160,96,25370,5,0,0:0:0:0:
160,96,25544,5,2,0:0:0:0:
160,96,26064,5,2,0:0:0:0:
160,96,26237,5,0,0:0:0:0:
160,96,26584,5,2,0:0:0:0:
160,96,26931,5,4,0:0:0:0:
160,96,27278,1,2,0:0:0:0:
160,96,27625,1,2,0:0:0:0:
160,96,27971,1,2,0:0:0:0:
160,96,28145,1,2,0:0:0:0:
160,96,28318,1,0,0:0:0:0:
160,96,28665,1,2,0:0:0:0:
160,96,28838,1,0,0:0:0:0:
160,96,29012,1,2,0:0:0:0:
160,96,29359,1,0,0:0:0:0:
160,96,29532,1,2,0:0:0:0:
160,96,29705,1,0,0:0:0:0:
160,96,30052,1,2,0:0:0:0:
160,96,30226,1,2,0:0:0:0:
160,96,30573,5,2,0:0:0:0:
160,96,30746,5,0,0:0:0:0:
160,96,30919,5,0,0:0:0:0:
160,96,31093,5,2,0:0:0:0:
160,96,31613,5,2,0:0:0:0:
160,96,31786,5,0,0:0:0:0:
160,96,32133,5,2,0:0:0:0:
160,96,32480,5,4,0:0:0:0:
160,96,32827,1,2,0:0:0:0:
160,96,33174,1,2,0:0:0:0:
160,96,33520,1,2,0:0:0:0:
160,96,33694,1,2,0:0:0:0:
160,96,33867,1,0,0:0:0:0:
160,96,34214,1,2,0:0:0:0:
160,96,34561,1,0,0:0:0:0:
160,96,34908,1,2,0:0:0:0:
160,96,35255,1,4,0:0:0:0:
160,96,35775,1,2,0:0:0:0:
160,96,36122,1,0,0:0:0:0:
160,96,36295,1,2,0:0:0:0:
160,96,36468,1,0,0:0:0:0:
160,96,36642,1,2,0:0:0:0:
160,96,36815,1,0,0:0:0:0:
160,96,36902,1,0,0:0:0:0:
160,96,36989,1,2,0:0:0:0:
160,96,37162,1,6,0:0:0:0:
160,96,37509,1,6,0:0:0:0:
160,96,37856,1,2,0:0:0:0:
160,96,37942,1,2,0:0:0:0:
160,96,38029,1,0,0:0:0:0:
160,96,38376,1,2,0:0:0:0:
160,96,38549,1,0,0:0:0:0:
160,96,38896,1,0,0:0:0:0:
160,96,39070,1,2,0:0:0:0:
160,0,39243,1,0,0:0:0:0:
160,96,39416,1,0,0:0:0:0:
160,96,39590,1,2,0:0:0:0:
160,32,39677,1,2,0:0:0:0:
160,96,39763,1,2,0:0:0:0:
160,96,39937,1,0,0:0:0:0:
160,96,40283,1,0,0:0:0:0:
160,96,40457,1,2,0:0:0:0:
160,0,40630,1,0,0:0:0:0:
160,96,40804,1,0,0:0:0:0:
160,96,41151,1,2,0:0:0:0:
160,96,41324,1,0,0:0:0:0:
160,96,41671,1,0,0:0:0:0:
160,96,41844,1,2,0:0:0:0:
160,0,42018,1,0,0:0:0:0:
160,96,42191,1,0,0:0:0:0:
160,96,42364,1,2,0:0:0:0:
160,32,42451,1,2,0:0:0:0:
160,96,42538,1,0,0:0:0:0:
160,96,42711,1,0,0:0:0:0:
160,96,42885,1,2,0:0:0:0:
160,96,43058,1,0,0:0:0:0:
160,64,43145,1,0,0:0:0:0:
160,96,43231,1,2,0:0:0:0:
160,96,43405,1,2,0:0:0:0:
160,96,43578,1,0,0:0:0:0:
160,96,43925,1,2,0:0:0:0:
160,96,44099,1,0,0:0:0:0:
160,64,44185,1,0,0:0:0:0:
160,96,44272,1,0,0:0:0:0:
160,32,44445,1,0,0:0:0:0:
160,96,44619,1,2,0:0:0:0:
160,96,44792,1,2,0:0:0:0:
160,96,44966,1,0,0:0:0:0:
160,96,45312,1,2,0:0:0:0:
160,96,45486,1,0,0:0:0:0:
160,96,45833,1,0,0:0:0:0:
160,96,46006,1,2,0:0:0:0:
160,96,46179,1,0,0:0:0:0:
160,96,46353,1,0,0:0:0:0:
160,96,46700,1,2,0:0:0:0:
160,96,46873,1,0,0:0:0:0:
160,96,47220,1,0,0:0:0:0:
160,96,47393,1,2,0:0:0:0:
160,96,47567,1,0,0:0:0:0:
160,96,47740,1,2,0:0:0:0:
160,96,47914,1,0,0:0:0:0:
160,64,48000,1,0,0:0:0:0:
160,96,48087,1,8,0:0:0:0:
160,96,48260,1,6,0:0:0:0:
160,96,48607,1,6,0:0:0:0:
160,96,48954,1,2,0:0:0:0:
160,96,49041,1,2,0:0:0:0:
160,96,49127,1,0,0:0:0:0:
160,96,49474,1,2,0:0:0:0:
160,96,49648,1,0,0:0:0:0:
160,96,49994,1,0,0:0:0:0:
160,96,50168,1,2,0:0:0:0:
160,0,50341,1,0,0:0:0:0:
160,96,50515,1,0,0:0:0:0:
160,96,50688,1,2,0:0:0:0:
160,64,50775,1,2,0:0:0:0:
160,96,50862,1,2,0:0:0:0:
160,96,51035,1,0,0:0:0:0:
160,96,51382,1,0,0:0:0:0:
160,96,51555,1,2,0:0:0:0:
160,96,51902,1,0,0:0:0:0:
160,96,52249,1,2,0:0:0:0:
160,96,52422,1,0,0:0:0:0:
160,96,52769,1,0,0:0:0:0:
160,96,52942,1,2,0:0:0:0:
160,96,53116,1,0,0:0:0:0:
160,96,53289,1,2,0:0:0:0:
160,64,53376,1,2,0:0:0:0:
160,96,53463,1,0,0:0:0:0:
160,64,53549,1,0,0:0:0:0:
160,96,53636,1,2,0:0:0:0:
160,0,53809,1,0,0:0:0:0:
160,96,53983,1,2,0:0:0:0:
160,96,54156,1,0,0:0:0:0:
160,64,54243,1,0,0:0:0:0:
160,96,54330,1,2,0:0:0:0:
160,96,54503,1,2,0:0:0:0:
160,96,54677,1,4,0:0:0:0:
160,96,55023,1,2,0:0:0:0:
160,96,55197,1,4,0:0:0:0:
160,96,55544,1,0,0:0:0:0:
160,96,55717,1,2,0:0:0:0:
160,96,55890,1,0,0:0:0:0:
160,96,56064,1,6,0:0:0:0:
160,96,56411,1,0,0:0:0:0:
160,96,56584,1,6,0:0:0:0:
160,32,56931,1,0,0:0:0:0:
160,32,57104,1,2,0:0:0:0:
160,96,57278,1,2,0:0:0:0:
160,96,57451,1,4,0:0:0:0:
160,96,57971,1,0,0:0:0:0:
160,96,58145,1,2,0:0:0:0:
160,96,58318,1,0,0:0:0:0:
160,96,58492,1,2,0:0:0:0:
160,96,58838,1,0,0:0:0:0:
160,96,59359,1,0,0:0:0:0:
160,96,59532,1,6,0:0:0:0:
160,32,60226,5,4,0:0:0:0:
160,32,60573,1,2,0:0:0:0:
160,32,60746,1,0,0:0:0:0:
160,32,60919,1,0,0:0:0:0:
160,32,61006,1,0,0:0:0:0:
160,32,61093,1,0,0:0:0:0:
160,32,61266,1,2,0:0:0:0:
160,32,61440,1,0,0:0:0:0:
160,32,61526,1,0,0:0:0:0:
160,32,61613,1,0,0:0:0:0:
160,32,61786,1,2,0:0:0:0:
160,32,61873,1,2,0:0:0:0:
160,32,61960,1,2,0:0:0:0:
160,32,62133,1,0,0:0:0:0:
160,32,62307,1,2,0:0:0:0:
160,32,62393,1,2,0:0:0:0:
160,32,62480,1,0,0:0:0:0:
160,32,62653,1,2,0:0:0:0:
160,32,63000,1,0,0:0:0:0:
160,32,63347,1,2,0:0:0:0:
160,32,63520,1,0,0:0:0:0:
160,32,63607,1,0,0:0:0:0:
160,32,63694,1,0,0:0:0:0:
160,32,63867,1,0,0:0:0:0:
160,32,64041,1,2,0:0:0:0:
160,32,64214,1,10,0:0:0:0:
160,32,64301,1,2,0:0:0:0:
160,32,64388,1,0,0:0:0:0:
160,32,64561,1,0,0:0:0:0:
160,32,64648,1,0,0:0:0:0:
160,32,64734,1,2,0:0:0:0:
160,32,64908,1,0,0:0:0:0:
160,32,65081,1,2,0:0:0:0:
160,32,65255,1,0,0:0:0:0:
160,32,65341,1,0,0:0:0:0:
160,32,65428,1,2,0:0:0:0:
160,32,65601,1,2,0:0:0:0:
160,32,65775,1,4,0:0:0:0:
224,192,66122,1,2,0:0:0:0:
192,96,66295,1,0,0:0:0:0:
160,32,66468,1,0,0:0:0:0:
160,32,66642,1,0,0:0:0:0:
160,32,66729,1,0,0:0:0:0:
192,96,66815,1,2,0:0:0:0:
160,64,66989,1,0,0:0:0:0:
160,64,67162,1,0,0:0:0:0:
160,64,67509,1,2,0:0:0:0:
160,64,67682,1,0,0:0:0:0:
160,64,67856,1,2,0:0:0:0:
160,64,67942,1,2,0:0:0:0:
160,64,68029,1,0,0:0:0:0:
160,64,68203,1,2,0:0:0:0:
160,64,68376,1,0,0:0:0:0:
160,64,68549,1,6,0:0:0:0:
160,64,68896,1,2,0:0:0:0:
160,64,69070,1,0,0:0:0:0:
160,64,69156,1,0,0:0:0:0:
160,64,69243,1,2,0:0:0:0:
160,64,69416,1,0,0:0:0:0:
160,64,69763,1,6,0:0:0:0:
160,64,70110,1,2,0:0:0:0:
128,32,70197,1,2,0:0:0:0:
160,64,70283,1,0,0:0:0:0:
160,64,70457,1,0,0:0:0:0:
160,64,70630,1,2,0:0:0:0:
160,64,70804,1,0,0:0:0:0:
160,64,70890,1,0,0:0:0:0:
160,64,70977,1,2,0:0:0:0:
160,64,71064,1,2,0:0:0:0:
160,64,71151,1,2,0:0:0:0:
160,64,71324,1,4,0:0:0:0:
128,32,71671,1,2,0:0:0:0:
128,32,71844,1,0,0:0:0:0:
128,32,72018,1,0,0:0:0:0:
128,32,72104,1,0,0:0:0:0:
128,32,72191,1,0,0:0:0:0:
128,32,72364,1,2,0:0:0:0:
128,32,72538,1,0,0:0:0:0:
160,32,72625,1,0,0:0:0:0:
128,32,72711,1,2,0:0:0:0:
192,96,72885,1,2,0:0:0:0:
160,64,72971,1,2,0:0:0:0:
160,64,73058,1,0,0:0:0:0:
160,64,73231,1,0,0:0:0:0:
160,64,73405,1,2,0:0:0:0:
160,64,73492,1,2,0:0:0:0:
160,64,73578,1,0,0:0:0:0:
160,32,73665,1,0,0:0:0:0:
160,64,73752,1,2,0:0:0:0:
160,32,73925,1,2,0:0:0:0:
160,64,74099,1,0,0:0:0:0:
160,64,74445,1,2,0:0:0:0:
160,64,74619,1,0,0:0:0:0:
160,64,74705,1,0,0:0:0:0:
160,64,74792,1,0,0:0:0:0:
160,64,74966,1,0,0:0:0:0:
160,64,75139,1,2,0:0:0:0:
160,64,75312,1,0,0:0:0:0:
160,64,75399,1,2,0:0:0:0:
160,64,75486,1,0,0:0:0:0:
160,64,75659,1,0,0:0:0:0:
160,64,75746,1,0,0:0:0:0:
160,64,75833,1,2,0:0:0:0:
160,64,76006,1,0,0:0:0:0:
160,64,76179,1,2,0:0:0:0:
160,64,76353,1,0,0:0:0:0:
160,64,76440,1,0,0:0:0:0:
160,64,76526,1,2,0:0:0:0:
160,64,76700,1,2,0:0:0:0:
160,64,76873,1,4,0:0:0:0:
160,64,77220,1,2,0:0:0:0:
160,64,77393,1,2,0:0:0:0:
160,64,77480,1,2,0:0:0:0:
160,64,77567,1,0,0:0:0:0:
160,64,77740,1,0,0:0:0:0:
160,64,77914,1,2,0:0:0:0:
160,64,78260,1,4,0:0:0:0:
160,64,78607,1,2,0:0:0:0:
160,64,78781,1,0,0:0:0:0:
160,64,78867,1,0,0:0:0:0:
160,64,78954,1,0,0:0:0:0:
160,64,79127,1,0,0:0:0:0:
160,64,79301,1,2,0:0:0:0:
160,32,79474,1,2,0:0:0:0:
160,64,79648,1,4,0:0:0:0:
160,64,79994,1,2,0:0:0:0:
160,64,80168,1,0,0:0:0:0:
160,64,80255,1,0,0:0:0:0:
160,64,80341,1,2,0:0:0:0:
160,64,80515,1,2,0:0:0:0:
160,64,80688,1,0,0:0:0:0:
160,32,80862,1,0,0:0:0:0:
160,64,81035,1,2,0:0:0:0:
160,64,81382,1,0,0:0:0:0:
160,64,81555,1,6,0:0:0:0:
160,64,81902,1,0,0:0:0:0:
160,64,82075,1,2,0:0:0:0:
160,64,82249,1,2,0:0:0:0:
160,64,82422,1,4,0:0:0:0:
160,64,82942,1,0,0:0:0:0:
160,64,83116,1,2,0:0:0:0:
160,64,83463,1,4,0:0:0:0:
160,64,84156,1,2,0:0:0:0:
160,64,84503,1,2,0:0:0:0:
160,64,84677,1,2,0:0:0:0:
160,64,84850,1,0,0:0:0:0:
160,64,85197,1,6,0:0:0:0:
160,64,85717,1,2,0:0:0:0:
160,64,85890,1,0,0:0:0:0:
256,192,86237,12,0,87278,0:0:0:0:
160,64,87971,5,4,0:0:0:0:
160,64,88318,1,0,0:0:0:0:
160,64,88492,1,2,0:0:0:0:
160,64,88665,1,0,0:0:0:0:
160,64,89012,1,2,0:0:0:0:
160,64,89185,1,2,0:0:0:0:
160,64,89359,1,0,0:0:0:0:
160,64,89705,1,2,0:0:0:0:
160,64,90052,1,0,0:0:0:0:
160,64,90226,1,0,0:0:0:0:
160,64,90399,1,2,0:0:0:0:
160,64,90573,1,2,0:0:0:0:
160,64,90659,1,2,0:0:0:0:
160,64,90746,1,0,0:0:0:0:
160,64,91093,1,0,0:0:0:0:
160,64,91266,1,2,0:0:0:0:
160,32,91440,1,0,0:0:0:0:
160,32,91613,1,0,0:0:0:0:
160,32,91700,1,0,0:0:0:0:
160,32,91786,1,8,0:0:0:0:
160,32,91960,1,8,0:0:0:0:
160,32,92133,1,0,0:0:0:0:
160,32,92307,1,8,0:0:0:0:
160,0,92393,1,8,0:0:0:0:
160,32,92480,1,0,0:0:0:0:
160,32,92653,1,8,0:0:0:0:
160,32,92827,1,0,0:0:0:0:
160,32,92914,1,0,0:0:0:0:
160,32,93000,1,8,0:0:0:0:
160,32,93087,1,8,0:0:0:0:
160,32,93174,1,0,0:0:0:0:
160,32,93347,1,8,0:0:0:0:
160,32,93434,1,8,0:0:0:0:
160,64,93520,1,0,0:0:0:0:
160,64,93867,1,0,0:0:0:0:
160,64,94041,1,2,0:0:0:0:
160,64,94214,1,0,0:0:0:0:
160,64,94561,1,2,0:0:0:0:
160,64,94734,1,2,0:0:0:0:
160,64,94821,1,2,0:0:0:0:
160,64,94908,1,0,0:0:0:0:
160,64,95081,1,2,0:0:0:0:
160,64,95255,1,0,0:0:0:0:
160,64,95601,1,2,0:0:0:0:
160,64,95775,1,0,0:0:0:0:
160,64,95948,1,2,0:0:0:0:
160,64,96035,1,2,0:0:0:0:
160,64,96122,1,2,0:0:0:0:
160,64,96208,1,2,0:0:0:0:
160,64,96295,1,0,0:0:0:0:
160,64,96642,1,0,0:0:0:0:
160,64,96815,1,2,0:0:0:0:
160,64,97162,1,2,0:0:0:0:
160,64,97336,1,0,0:0:0:0:
160,32,97682,1,0,0:0:0:0:
160,64,98376,1,2,0:0:0:0:
160,64,98549,1,0,0:0:0:0:
160,64,98896,1,0,0:0:0:0:
160,64,98983,1,0,0:0:0:0:
160,64,99070,1,0,0:0:0:0:
160,64,99416,1,0,0:0:0:0:
160,64,99763,1,2,0:0:0:0:
160,64,100110,1,0,0:0:0:0:
160,64,100283,1,2,0:0:0:0:
160,64,100457,1,0,0:0:0:0:
160,64,100804,1,2,0:0:0:0:
160,64,100977,1,2,0:0:0:0:
160,64,101151,1,0,0:0:0:0:
160,64,101497,1,2,0:0:0:0:
160,64,101844,1,0,0:0:0:0:
160,64,102191,1,0,0:0:0:0:
160,32,102364,1,2,0:0:0:0:
160,64,102538,1,0,0:0:0:0:
160,32,102885,1,2,0:0:0:0:
192,96,103058,1,2,0:0:0:0:
160,32,103231,1,0,0:0:0:0:
160,32,103578,1,2,0:0:0:0:
160,32,103752,1,0,0:0:0:0:
160,32,103925,1,2,0:0:0:0:
160,32,104099,1,0,0:0:0:0:
160,32,104185,1,0,0:0:0:0:
160,32,104272,1,2,0:0:0:0:
160,32,104445,1,2,0:0:0:0:
160,32,104619,1,4,0:0:0:0:
160,32,104966,1,0,0:0:0:0:
160,32,105312,1,2,0:0:0:0:
160,32,105659,1,0,0:0:0:0:
160,32,105833,1,2,0:0:0:0:
160,32,106006,1,0,0:0:0:0:
160,32,106353,1,2,0:0:0:0:
160,32,106526,1,2,0:0:0:0:
160,32,106700,1,0,0:0:0:0:
160,32,107046,1,2,0:0:0:0:
160,32,107220,1,0,0:0:0:0:
160,32,107393,1,2,0:0:0:0:
160,32,107740,1,2,0:0:0:0:
160,32,108087,1,0,0:0:0:0:
160,32,108260,1,2,0:0:0:0:
160,32,108434,1,0,0:0:0:0:
160,32,108607,1,2,0:0:0:0:
160,32,109648,1,0,0:0:0:0:
160,32,109821,1,6,0:0:0:0:
160,32,110168,1,4,0:0:0:0:
160,32,110515,1,0,0:0:0:0:
160,32,110862,1,2,0:0:0:0:
160,32,111208,1,0,0:0:0:0:
160,32,111382,1,2,0:0:0:0:
160,32,111555,1,0,0:0:0:0:
160,32,111902,1,2,0:0:0:0:
160,32,112075,1,2,0:0:0:0:
160,32,112249,1,0,0:0:0:0:
224,32,112422,1,2,0:0:0:0:
192,0,112509,1,0,0:0:0:0:
160,32,112596,1,0,0:0:0:0:
256,32,112769,1,2,0:0:0:0:
192,32,112942,1,0,0:0:0:0:
192,32,113289,1,0,0:0:0:0:
192,32,113463,1,2,0:0:0:0:
192,32,113636,1,0,0:0:0:0:
192,32,113809,1,2,0:0:0:0:
192,32,114156,1,2,0:0:0:0:
192,32,114330,1,0,0:0:0:0:
192,32,114677,1,2,0:0:0:0:
192,32,114850,1,0,0:0:0:0:
192,32,115023,1,2,0:0:0:0:
192,32,115197,1,0,0:0:0:0:
192,32,115370,1,2,0:0:0:0:
192,32,115544,1,2,0:0:0:0:
192,32,115630,1,2,0:0:0:0:
192,32,115717,1,0,0:0:0:0:
192,32,116064,1,2,0:0:0:0:
192,32,116411,1,0,0:0:0:0:
192,32,116584,1,0,0:0:0:0:
192,32,116757,1,2,0:0:0:0:
192,32,116931,1,0,0:0:0:0:
192,32,117104,1,2,0:0:0:0:
192,32,117451,1,2,0:0:0:0:
192,32,117625,1,2,0:0:0:0:
192,32,117798,1,0,0:0:0:0:
192,32,117971,1,0,0:0:0:0:
192,32,118145,1,2,0:0:0:0:
192,32,118492,1,4,0:0:0:0:
192,32,118838,1,0,0:0:0:0:
192,32,119012,1,0,0:0:0:0:
192,32,119185,1,2,0:0:0:0:
192,32,119359,1,0,0:0:0:0:
192,32,119532,1,2,0:0:0:0:
192,32,119705,1,2,0:0:0:0:
192,32,119879,1,0,0:0:0:0:
192,32,120052,1,0,0:0:0:0:
192,32,120139,1,0,0:0:0:0:
192,32,120226,1,2,0:0:0:0:
192,32,120399,1,6,0:0:0:0:
192,32,120746,1,6,0:0:0:0:
192,32,120919,1,2,0:0:0:0:
160,32,121006,1,2,0:0:0:0:
96,0,121093,1,2,0:0:0:0:
192,32,121179,1,2,0:0:0:0:
192,32,121266,1,0,0:0:0:0:
192,32,121613,1,2,0:0:0:0:
192,32,121786,1,0,0:0:0:0:
192,32,122133,1,0,0:0:0:0:
192,32,122307,1,2,0:0:0:0:
192,32,122480,1,0,0:0:0:0:
192,32,122653,1,0,0:0:0:0:
192,32,122827,1,2,0:0:0:0:
192,32,122914,1,2,0:0:0:0:
192,32,123000,1,2,0:0:0:0:
192,32,123174,1,0,0:0:0:0:
192,32,123520,1,0,0:0:0:0:
192,32,123694,1,2,0:0:0:0:
192,32,123867,1,0,0:0:0:0:
192,32,124041,1,0,0:0:0:0:
224,224,124388,1,2,0:0:0:0:
224,128,124561,1,0,0:0:0:0:
192,96,124908,1,0,0:0:0:0:
192,96,125081,1,2,0:0:0:0:
192,96,125255,1,0,0:0:0:0:
192,96,125428,1,0,0:0:0:0:
192,96,125601,1,2,0:0:0:0:
192,96,125688,1,2,0:0:0:0:
192,96,125775,1,0,0:0:0:0:
192,96,125948,1,0,0:0:0:0:
192,96,126122,1,2,0:0:0:0:
192,96,126295,1,0,0:0:0:0:
192,64,126382,1,0,0:0:0:0:
192,96,126468,1,2,0:0:0:0:
192,96,126642,1,2,0:0:0:0:
192,96,126815,1,4,0:0:0:0:
192,96,127162,1,2,0:0:0:0:
192,96,127336,1,0,0:0:0:0:
192,96,127422,1,0,0:0:0:0:
192,96,127509,1,0,0:0:0:0:
192,96,127682,1,0,0:0:0:0:
192,96,127856,1,2,0:0:0:0:
192,96,128029,1,2,0:0:0:0:
192,96,128203,1,0,0:0:0:0:
192,96,128549,1,2,0:0:0:0:
192,96,128723,1,0,0:0:0:0:
192,96,129070,1,0,0:0:0:0:
192,96,129243,1,2,0:0:0:0:
192,96,129416,1,0,0:0:0:0:
192,96,129590,1,0,0:0:0:0:
192,96,129937,1,2,0:0:0:0:
192,96,130110,1,0,0:0:0:0:
192,96,130283,1,2,0:0:0:0:
192,96,130457,1,0,0:0:0:0:
192,96,130544,1,0,0:0:0:0:
192,96,130630,1,2,0:0:0:0:
192,96,130804,1,4,0:0:0:0:
192,96,131151,1,0,0:0:0:0:
192,96,131324,1,2,0:0:0:0:
192,96,131497,1,0,0:0:0:0:
192,96,131584,1,0,0:0:0:0:
192,64,131671,1,2,0:0:0:0:
192,96,131844,1,2,0:0:0:0:
192,0,132018,1,2,0:0:0:0:
192,64,132104,1,2,0:0:0:0:
192,96,132191,1,2,0:0:0:0:
192,96,132278,1,2,0:0:0:0:
192,96,132364,1,0,0:0:0:0:
192,96,132711,1,2,0:0:0:0:
192,96,132885,1,0,0:0:0:0:
192,96,133231,1,0,0:0:0:0:
192,96,133405,1,2,0:0:0:0:
192,96,133578,1,0,0:0:0:0:
192,96,133752,1,0,0:0:0:0:
192,96,133925,1,2,0:0:0:0:
192,96,134012,1,2,0:0:0:0:
192,96,134099,1,2,0:0:0:0:
192,96,134272,1,0,0:0:0:0:
192,96,134619,1,0,0:0:0:0:
192,96,134792,1,2,0:0:0:0:
192,96,134966,1,0,0:0:0:0:
192,96,135139,1,0,0:0:0:0:
192,96,135486,1,2,0:0:0:0:
192,96,135659,1,0,0:0:0:0:
192,96,136006,1,0,0:0:0:0:
192,96,136179,1,2,0:0:0:0:
192,96,136353,1,0,0:0:0:0:
192,96,136526,1,2,0:0:0:0:
192,96,136613,1,2,0:0:0:0:
192,96,136700,1,0,0:0:0:0:
192,96,136786,1,0,0:0:0:0:
192,96,136873,1,2,0:0:0:0:
192,96,137046,1,2,0:0:0:0:
192,96,137220,1,0,0:0:0:0:
192,96,137393,1,0,0:0:0:0:
192,96,137480,1,0,0:0:0:0:
192,96,137567,1,2,0:0:0:0:
192,96,137740,1,2,0:0:0:0:
192,96,137914,1,4,0:0:0:0:
192,96,138260,1,2,0:0:0:0:
192,96,138434,1,4,0:0:0:0:
192,96,138781,1,0,0:0:0:0:
192,96,138954,1,2,0:0:0:0:
192,96,139127,1,0,0:0:0:0:
192,96,139301,1,6,0:0:0:0:
192,96,139648,1,0,0:0:0:0:
192,96,139821,1,6,0:0:0:0:
192,96,140168,1,0,0:0:0:0:
192,96,140341,1,2,0:0:0:0:
192,96,140515,1,2,0:0:0:0:
192,96,140688,1,4,0:0:0:0:
192,96,141208,1,0,0:0:0:0:
192,0,141382,1,2,0:0:0:0:
192,64,141497,1,2,0:0:0:0:
192,64,141613,1,2,0:0:0:0:
192,64,141729,1,0,0:0:0:0:
192,64,142075,1,2,0:0:0:0:
192,32,142596,1,0,0:0:0:0:
192,32,142769,1,6,0:0:0:0:
192,32,143463,1,4,0:0:0:0:
192,32,143809,1,2,0:0:0:0:
192,32,143983,1,0,0:0:0:0:
192,32,144156,1,0,0:0:0:0:
192,32,144243,1,0,0:0:0:0:
192,32,144330,1,0,0:0:0:0:
192,32,144503,1,2,0:0:0:0:
192,32,144677,1,0,0:0:0:0:
192,32,144763,1,0,0:0:0:0:
192,32,144850,1,0,0:0:0:0:
192,32,144937,1,0,0:0:0:0:
192,32,145023,1,2,0:0:0:0:
192,32,145197,1,2,0:0:0:0:
192,32,145370,1,0,0:0:0:0:
192,32,145544,1,2,0:0:0:0:
192,32,145630,1,2,0:0:0:0:
192,32,145717,1,0,0:0:0:0:
192,32,145890,1,2,0:0:0:0:
192,32,146237,1,0,0:0:0:0:
192,32,146584,1,2,0:0:0:0:
192,32,146757,1,0,0:0:0:0:
192,32,146844,1,0,0:0:0:0:
192,32,146931,1,0,0:0:0:0:
192,32,147018,1,0,0:0:0:0:
192,32,147104,1,2,0:0:0:0:
192,32,147278,1,2,0:0:0:0:
160,0,147451,1,2,0:0:0:0:
192,32,147538,1,2,0:0:0:0:
192,32,147625,1,0,0:0:0:0:
192,32,147798,1,0,0:0:0:0:
160,0,147885,1,0,0:0:0:0:
192,32,147971,1,2,0:0:0:0:
192,32,148145,1,0,0:0:0:0:
192,32,148318,1,2,0:0:0:0:
192,32,148492,1,0,0:0:0:0:
192,32,148578,1,0,0:0:0:0:
192,32,148665,1,2,0:0:0:0:
192,32,148838,1,2,0:0:0:0:
192,32,149012,1,4,0:0:0:0:
192,32,149359,1,2,0:0:0:0:
192,32,149532,1,0,0:0:0:0:
192,32,149705,1,0,0:0:0:0:
192,32,149879,1,0,0:0:0:0:
192,32,149966,1,0,0:0:0:0:
192,32,150052,1,2,0:0:0:0:
192,32,150226,1,2,0:0:0:0:
192,32,150399,1,0,0:0:0:0:
192,32,150746,1,2,0:0:0:0:
192,32,150919,1,0,0:0:0:0:
192,32,151093,1,2,0:0:0:0:
192,32,151179,1,2,0:0:0:0:
192,32,151266,1,0,0:0:0:0:
192,32,151440,1,2,0:0:0:0:
192,32,151613,1,0,0:0:0:0:
192,32,151786,1,6,0:0:0:0:
192,32,152133,1,2,0:0:0:0:
192,32,152307,1,0,0:0:0:0:
192,32,152393,1,0,0:0:0:0:
192,32,152480,1,2,0:0:0:0:
192,32,152653,1,0,0:0:0:0:
192,32,153000,1,6,0:0:0:0:
192,32,153347,1,2,0:0:0:0:
192,32,153434,1,2,0:0:0:0:
192,32,153520,1,0,0:0:0:0:
192,32,153694,1,0,0:0:0:0:
192,32,153867,1,2,0:0:0:0:
192,32,153954,1,2,0:0:0:0:
192,32,154041,1,0,0:0:0:0:
192,32,154127,1,0,0:0:0:0:
192,32,154214,1,2,0:0:0:0:
192,32,154388,1,2,0:0:0:0:
192,32,154561,1,4,0:0:0:0:
192,32,154908,1,2,0:0:0:0:
192,32,155081,1,0,0:0:0:0:
192,32,155255,1,0,0:0:0:0:
192,32,155341,1,0,0:0:0:0:
224,64,155428,1,0,0:0:0:0:
128,32,155601,1,2,0:0:0:0:
224,64,155775,1,0,0:0:0:0:
192,32,155862,1,0,0:0:0:0:
192,32,155948,1,2,0:0:0:0:
192,32,156122,1,2,0:0:0:0:
192,32,156208,1,2,0:0:0:0:
192,32,156295,1,0,0:0:0:0:
192,32,156468,1,0,0:0:0:0:
192,32,156642,1,2,0:0:0:0:
192,32,156815,1,0,0:0:0:0:
192,32,156902,1,0,0:0:0:0:
192,32,156989,1,2,0:0:0:0:
192,32,157075,1,2,0:0:0:0:
192,32,157162,1,2,0:0:0:0:
192,32,157336,1,0,0:0:0:0:
192,32,157682,1,2,0:0:0:0:
192,32,157856,1,0,0:0:0:0:
192,32,157942,1,0,0:0:0:0:
192,32,158029,1,0,0:0:0:0:
192,32,158203,1,0,0:0:0:0:
192,32,158376,1,2,0:0:0:0:
192,32,158549,1,0,0:0:0:0:
192,32,158636,1,2,0:0:0:0:
192,32,158723,1,0,0:0:0:0:
192,32,158896,1,0,0:0:0:0:
192,32,158983,1,0,0:0:0:0:
192,32,159070,1,2,0:0:0:0:
192,32,159243,1,0,0:0:0:0:
192,32,159416,1,2,0:0:0:0:
192,32,159590,1,0,0:0:0:0:
192,32,159677,1,0,0:0:0:0:
192,32,159763,1,2,0:0:0:0:
192,32,159937,1,2,0:0:0:0:
192,32,160110,1,4,0:0:0:0:
192,32,160457,1,2,0:0:0:0:
192,32,160630,1,2,0:0:0:0:
192,32,160717,1,2,0:0:0:0:
192,32,160804,1,0,0:0:0:0:
192,32,160977,1,0,0:0:0:0:
192,32,161151,1,2,0:0:0:0:
192,32,161497,1,4,0:0:0:0:
192,32,161844,1,2,0:0:0:0:
192,32,162018,1,0,0:0:0:0:
192,32,162104,1,0,0:0:0:0:
192,32,162191,1,0,0:0:0:0:
192,32,162364,1,0,0:0:0:0:
192,32,162538,1,2,0:0:0:0:
192,32,162711,1,2,0:0:0:0:
192,32,162885,1,4,0:0:0:0:
192,32,163231,1,2,0:0:0:0:
192,32,163405,1,0,0:0:0:0:
192,32,163492,1,0,0:0:0:0:
192,32,163578,1,2,0:0:0:0:
192,32,163752,1,2,0:0:0:0:
192,32,163925,1,0,0:0:0:0:
192,32,164099,1,0,0:0:0:0:
192,32,164272,1,2,0:0:0:0:
192,32,164619,1,0,0:0:0:0:
192,32,164792,1,6,0:0:0:0:
192,32,165139,1,0,0:0:0:0:
192,32,165312,1,2,0:0:0:0:
192,32,165486,1,2,0:0:0:0:
192,32,165659,1,4,0:0:0:0:
192,32,166179,1,0,0:0:0:0:
192,32,166353,1,2,0:0:0:0:
192,32,166700,1,4,0:0:0:0:
192,32,167393,1,2,0:0:0:0:
192,32,167740,1,2,0:0:0:0:
192,32,167914,1,2,0:0:0:0:
192,32,168087,1,0,0:0:0:0:
96,192,168434,1,6,0:0:0:0:
160,64,168954,1,2,0:0:0:0:
160,64,169127,1,0,0:0:0:0:
256,192,169474,12,0,172249,0:0:0:0:
160,64,172596,5,0,0:0:0:0:
160,64,175370,1,0,0:0:0:0:
160,64,178145,1,0,0:0:0:0:
160,64,178318,1,0,0:0:0:0:
160,64,178492,1,0,0:0:0:0:
160,64,178665,1,0,0:0:0:0:
160,64,178838,1,2,0:0:0:0:
160,64,179012,1,2,0:0:0:0:
160,64,179185,1,2,0:0:0:0:
160,64,179359,1,2,0:0:0:0:
160,64,179532,1,4,0:0:0:0:
160,64,179879,1,2,0:0:0:0:
160,64,180052,1,4,0:0:0:0:
160,64,180399,1,0,0:0:0:0:
160,64,180573,1,2,0:0:0:0:
160,64,180659,1,2,0:0:0:0:
160,64,180746,1,2,0:0:0:0:
160,64,180919,1,4,0:0:0:0:
160,64,181266,1,2,0:0:0:0:
160,64,181440,1,0,0:0:0:0:
160,64,181613,1,2,0:0:0:0:
160,64,181700,1,2,0:0:0:0:
160,64,181786,1,0,0:0:0:0:
160,64,181873,1,0,0:0:0:0:
160,64,181960,1,2,0:0:0:0:
160,64,182133,1,2,0:0:0:0:
160,64,182220,1,2,0:0:0:0:
160,64,182307,1,0,0:0:0:0:
160,64,182480,1,0,0:0:0:0:
160,64,182653,1,2,0:0:0:0:
160,64,182827,1,0,0:0:0:0:
160,64,182914,1,0,0:0:0:0:
160,64,183000,1,2,0:0:0:0:
160,64,183174,1,0,0:0:0:0:
160,64,183347,1,2,0:0:0:0:
96,64,183520,1,2,0:0:0:0:
128,64,183607,1,2,0:0:0:0:
160,64,183694,1,0,0:0:0:0:
160,64,184041,1,2,0:0:0:0:
160,64,184214,1,0,0:0:0:0:
160,64,184301,1,0,0:0:0:0:
160,64,184388,1,0,0:0:0:0:
160,64,184561,1,0,0:0:0:0:
160,64,184734,1,2,0:0:0:0:
160,64,184908,1,0,0:0:0:0:
160,64,185081,5,2,0:0:0:0:
160,32,185255,1,2,0:0:0:0:
160,32,185341,1,2,0:0:0:0:
160,64,185428,1,0,0:0:0:0:
160,64,185601,1,2,0:0:0:0:
160,64,185948,1,2,0:0:0:0:
160,64,186122,1,0,0:0:0:0:
160,0,186295,1,2,0:0:0:0:
160,64,186468,1,4,0:0:0:0:
192,224,186815,1,0,0:0:0:0:
160,160,186989,5,0,0:0:0:0:
160,128,187075,1,0,0:0:0:0:
160,96,187162,1,2,0:0:0:0:
160,96,187336,1,0,0:0:0:0:
160,96,187509,1,2,0:0:0:0:
160,96,187682,1,0,0:0:0:0:
160,64,187769,1,2,0:0:0:0:
160,32,187856,1,0,0:0:0:0:
160,96,188029,1,0,0:0:0:0:
160,96,188203,1,2,0:0:0:0:
160,96,188376,1,0,0:0:0:0:
160,96,188463,1,0,0:0:0:0:
160,96,188549,1,2,0:0:0:0:
160,96,188723,1,0,0:0:0:0:
160,96,188896,1,2,0:0:0:0:
160,96,188983,1,2,0:0:0:0:
160,96,189070,1,0,0:0:0:0:
160,96,189243,1,6,0:0:0:0:
160,96,189590,1,0,0:0:0:0:
160,96,189763,1,6,0:0:0:0:
160,0,190110,1,2,0:0:0:0:
160,96,190283,1,4,0:0:0:0:
160,96,190630,1,0,0:0:0:0:
160,96,190804,1,2,0:0:0:0:
160,64,190890,1,2,0:0:0:0:
160,96,190977,1,0,0:0:0:0:
160,96,191151,1,0,0:0:0:0:
160,96,191324,1,2,0:0:0:0:
160,96,191497,1,0,0:0:0:0:
160,96,191584,1,0,0:0:0:0:
160,96,191671,1,2,0:0:0:0:
160,96,191757,1,2,0:0:0:0:
160,96,191844,1,2,0:0:0:0:
160,96,191931,1,2,0:0:0:0:
160,96,192018,1,0,0:0:0:0:
160,96,192364,1,2,0:0:0:0:
160,96,192538,1,0,0:0:0:0:
160,96,192711,1,2,0:0:0:0:
160,96,192798,1,2,0:0:0:0:
160,96,192885,1,0,0:0:0:0:
160,96,192971,1,0,0:0:0:0:
160,96,193058,1,2,0:0:0:0:
160,96,193231,1,2,0:0:0:0:
160,96,193318,1,2,0:0:0:0:
160,96,193405,1,0,0:0:0:0:
160,96,193578,1,0,0:0:0:0:
160,96,193752,1,2,0:0:0:0:
160,96,193925,1,0,0:0:0:0:
160,96,194012,1,0,0:0:0:0:
160,96,194099,1,2,0:0:0:0:
160,96,194272,1,0,0:0:0:0:
160,96,194445,1,2,0:0:0:0:
160,96,194619,1,2,0:0:0:0:
160,64,194705,1,2,0:0:0:0:
160,96,194792,1,0,0:0:0:0:
160,96,195139,1,2,0:0:0:0:
160,96,195312,1,0,0:0:0:0:
160,96,195399,1,0,0:0:0:0:
160,96,195486,1,0,0:0:0:0:
160,96,195659,1,0,0:0:0:0:
160,96,195833,1,2,0:0:0:0:
160,96,196006,1,0,0:0:0:0:
160,96,196179,1,2,0:0:0:0:
160,32,196353,1,2,0:0:0:0:
160,32,196440,1,2,0:0:0:0:
160,96,196526,1,0,0:0:0:0:
160,96,196700,1,2,0:0:0:0:
160,96,197046,1,2,0:0:0:0:
160,96,197220,1,0,0:0:0:0:
160,96,197567,1,4,0:0:0:0:
160,96,197914,1,2,0:0:0:0:
160,96,198087,1,2,0:0:0:0:
160,96,198174,1,2,0:0:0:0:
160,96,198260,1,0,0:0:0:0:
160,96,198434,1,0,0:0:0:0:
160,96,198607,1,2,0:0:0:0:
160,96,198781,1,2,0:0:0:0:
160,96,198954,1,4,0:0:0:0:
160,96,199301,1,2,0:0:0:0:
160,96,199474,1,0,0:0:0:0:
160,96,199561,1,0,0:0:0:0:
160,96,199648,1,0,0:0:0:0:
160,96,199821,1,2,0:0:0:0:
160,96,199994,1,0,0:0:0:0:
160,96,200081,1,0,0:0:0:0:
160,96,200168,1,2,0:0:0:0:
160,96,200341,1,6,0:0:0:0:
160,96,200688,1,0,0:0:0:0:
160,96,200862,1,2,0:0:0:0:
160,96,201208,1,2,0:0:0:0:
160,96,201382,1,0,0:0:0:0:
160,96,201555,1,2,0:0:0:0:
160,96,201902,1,0,0:0:0:0:
160,96,202075,1,2,0:0:0:0:
160,96,202249,1,6,0:0:0:0:
160,96,202596,1,0,0:0:0:0:
160,96,202769,1,2,0:0:0:0:
160,96,202942,1,4,0:0:0:0:
160,96,203463,1,0,0:0:0:0:
160,96,203809,1,2,0:0:0:0:
160,96,203983,1,2,0:0:0:0:
160,96,204156,1,0,0:0:0:0:
160,96,204503,1,2,0:0:0:0:
160,288,205197,5,2,0:0:0:0:
192,96,205890,1,0,0:0:0:0:
192,96,207278,1,2,0:0:0:0:
192,32,207971,1,2,0:0:0:0:
192,96,208665,1,2,0:0:0:0:
192,96,210052,1,2,0:0:0:0:
192,32,210399,1,2,0:0:0:0:
192,32,210746,1,2,0:0:0:0:
192,96,211093,5,2,0:0:0:0:
192,96,211440,1,0,0:0:0:0:
192,96,212133,1,0,0:0:0:0:
192,96,212480,1,0,0:0:0:0:
192,96,212827,1,2,0:0:0:0:
192,96,213520,1,2,0:0:0:0:
192,96,213867,1,2,0:0:0:0:
192,96,214214,1,6,0:0:0:0:
352,128,214561,1,2,0:0:0:0:
288,128,214734,1,2,0:0:0:0:
256,128,214821,1,2,0:0:0:0:
192,96,214908,1,0,0:0:0:0:
288,96,215081,1,2,0:0:0:0:
128,96,215428,1,6,0:0:0:0:
160,64,215775,1,2,0:0:0:0:
160,64,215862,1,2,0:0:0:0:
160,64,215948,1,0,0:0:0:0:
160,64,216122,1,0,0:0:0:0:
160,64,216295,1,2,0:0:0:0:
160,64,216382,1,2,0:0:0:0:
160,64,216468,1,0,0:0:0:0:
160,64,216555,1,0,0:0:0:0:
160,64,216642,1,2,0:0:0:0:
160,64,216729,1,2,0:0:0:0:
160,64,216815,1,2,0:0:0:0:
160,64,216989,1,4,0:0:0:0:
160,64,217336,1,2,0:0:0:0:
160,64,217509,1,0,0:0:0:0:
160,64,217682,1,0,0:0:0:0:
160,64,217769,1,0,0:0:0:0:
160,64,217856,1,0,0:0:0:0:
160,64,218029,1,2,0:0:0:0:
160,64,218203,1,0,0:0:0:0:
160,64,218289,1,0,0:0:0:0:
160,64,218376,1,0,0:0:0:0:
160,64,218463,1,0,0:0:0:0:
160,64,218549,1,2,0:0:0:0:
160,64,218723,1,2,0:0:0:0:
160,64,218896,1,0,0:0:0:0:
160,64,219070,1,2,0:0:0:0:
160,64,219156,1,2,0:0:0:0:
160,64,219243,1,0,0:0:0:0:
160,64,219416,1,2,0:0:0:0:
160,64,219503,1,2,0:0:0:0:
160,64,219590,1,2,0:0:0:0:
160,64,219677,1,2,0:0:0:0:
160,64,219763,1,0,0:0:0:0:
160,64,219937,1,0,0:0:0:0:
160,64,220110,1,2,0:0:0:0:
160,64,220283,1,0,0:0:0:0:
160,64,220370,1,0,0:0:0:0:
160,64,220457,1,2,0:0:0:0:
160,64,220544,1,2,0:0:0:0:
160,64,220630,1,0,0:0:0:0:
160,64,220804,1,2,0:0:0:0:
160,64,220977,1,2,0:0:0:0:
160,64,221064,1,2,0:0:0:0:
160,64,221151,1,0,0:0:0:0:
160,64,221324,1,0,0:0:0:0:
160,64,221411,1,0,0:0:0:0:
160,64,221497,1,2,0:0:0:0:
160,64,221671,1,0,0:0:0:0:
160,64,221844,1,2,0:0:0:0:
160,64,222018,1,0,0:0:0:0:
160,64,222104,1,0,0:0:0:0:
160,64,222191,1,2,0:0:0:0:
192,64,222278,1,2,0:0:0:0:
160,64,222364,1,2,0:0:0:0:
160,64,222538,1,4,0:0:0:0:
160,64,222885,1,2,0:0:0:0:
160,64,223058,1,2,0:0:0:0:
160,64,223145,1,2,0:0:0:0:
160,64,223231,1,0,0:0:0:0:
160,64,223405,1,0,0:0:0:0:
160,64,223578,1,2,0:0:0:0:
160,64,223752,1,2,0:0:0:0:
160,64,223925,1,4,0:0:0:0:
160,64,224272,1,2,0:0:0:0:
160,64,224445,1,0,0:0:0:0:
160,64,224532,1,0,0:0:0:0:
160,64,224619,1,0,0:0:0:0:
160,64,224792,1,0,0:0:0:0:
160,64,224966,1,2,0:0:0:0:
160,32,225052,1,2,0:0:0:0:
160,64,225139,1,2,0:0:0:0:
160,64,225312,1,4,0:0:0:0:
160,64,225659,1,2,0:0:0:0:
160,64,225833,1,0,0:0:0:0:
160,64,226006,1,2,0:0:0:0:
160,64,226179,1,0,0:0:0:0:
128,32,226266,1,0,0:0:0:0:
160,64,226353,1,2,0:0:0:0:
160,64,226440,1,2,0:0:0:0:
160,64,226526,1,0,0:0:0:0:
160,64,226700,1,6,0:0:0:0:
160,64,227046,1,0,0:0:0:0:
160,64,227220,1,6,0:0:0:0:
160,64,227567,1,2,0:0:0:0:
160,64,227740,1,2,0:0:0:0:
160,32,227827,1,2,0:0:0:0:
160,64,227914,1,2,0:0:0:0:
160,64,228087,1,4,0:0:0:0:
160,64,228434,1,2,0:0:0:0:
160,64,228607,1,0,0:0:0:0:
160,64,228954,1,0,0:0:0:0:
160,64,229127,1,6,0:0:0:0:
160,64,229648,1,0,0:0:0:0:
160,64,229821,1,2,0:0:0:0:
160,64,230168,1,2,0:0:0:0:
160,64,230341,1,0,0:0:0:0:
160,64,230428,1,0,0:0:0:0:
160,64,230515,1,2,0:0:0:0:
160,64,230688,1,0,0:0:0:0:
160,64,230862,1,6,0:0:0:0:
160,32,231208,1,2,0:0:0:0:
160,64,231382,1,0,0:0:0:0:
160,32,231729,1,0,0:0:0:0:
160,64,231902,1,6,0:0:0:0:
160,64,232422,1,0,0:0:0:0:
160,64,232596,1,2,0:0:0:0:
160,64,232769,1,0,0:0:0:0:
160,64,232856,1,0,0:0:0:0:
160,64,232942,1,2,0:0:0:0:
160,64,233116,1,2,0:0:0:0:
160,64,233203,1,2,0:0:0:0:
160,64,233289,1,0,0:0:0:0:
160,64,233463,1,2,0:0:0:0:
160,64,233636,5,4,0:0:0:0:
160,64,233983,1,0,0:0:0:0:
160,64,234156,1,2,0:0:0:0:
160,64,234330,1,0,0:0:0:0:
160,64,234503,1,0,0:0:0:0:
160,64,234677,1,2,0:0:0:0:
160,64,234850,1,0,0:0:0:0:
160,64,235023,1,0,0:0:0:0:
160,64,235197,1,2,0:0:0:0:
160,64,235370,1,0,0:0:0:0:
160,64,235544,1,0,0:0:0:0:
160,64,235717,1,2,0:0:0:0:
160,64,235890,1,2,0:0:0:0:
160,64,236064,1,4,0:0:0:0:
160,64,236757,1,2,0:0:0:0:
160,64,237104,1,2,0:0:0:0:
160,32,237278,1,2,0:0:0:0:
192,0,237451,1,0,0:0:0:0:
160,64,237625,1,0,0:0:0:0:
192,32,237798,1,6,0:0:0:0:
160,32,238520,1,2,0:0:0:0:
256,192,239301,12,0,243058,0:0:0:0:
