osu file format v14

[General]
AudioFilename: Luminouuuus.mp3
AudioLeadIn: 0
PreviewTime: 180746
Countdown: 0
SampleSet: Normal
StackLeniency: 0.7
Mode: 1
LetterboxInBreaks: 0
WidescreenStoryboard: 0

[Editor]
Bookmarks: 2814,4561,4734,5255,5775,7336,7509,8029,8549,9763,9937,10110,10283,10804,11324,11497,11671,12364,13058,15473,15646,15820,16179,16526,16873,17046,17567,18260,18434,18607,18954,19127,19648,19821,20688,21035,21382,21729,22075,22422,22596,23116,23809,23983,24156,24503,24677,25023,25370,25544,26237,26584,26931,27278,27625,27971,28145,28318,28665,28838,29359,29532,29705,30052,30226,30573,30919,31093,31440,31613,38016,59866,60039,60213,60386,60560,98710,98883,99057,99230,99403,111382,112075,121253,143103,143276,143450,143623,143796,180560,180733,180906,181080,181253,197567,197914,198087,198434,198954,199301,199474,199821,205877
DistanceSpacing: 1.3
BeatDivisor: 2
GridSize: 32
TimelineZoom: 1.1

[Metadata]
Title:Luminous
TitleUnicode:ルミナス
Artist:ClariS
ArtistUnicode:ClariS
Creator:JUDYDANNY
Version:Futsuu
Source:劇場版 魔法少女まどか☆マギカ [前編] 始まりの物語
Tags:Taiko movie Gekijouban Puella Magi Madoka Magica [Zenhen] Hajimari no Monogatari Clara Alice
BeatmapID:1146209
BeatmapSetID:540539

[Difficulty]
HPDrainRate:6
CircleSize:5
OverallDifficulty:4
ApproachRate:5
SliderMultiplier:1.2
SliderTickRate:2

[Events]
//Background and Video events
0,0,"bg3.jpg",0,120
//Break Periods
//Storyboard Layer 0 (Background)
//Storyboard Layer 1 (Fail)
//Storyboard Layer 2 (Pass)
//Storyboard Layer 3 (Foreground)
//Storyboard Sound Samples

[TimingPoints]
573,346.820809248555,4,1,0,60,1,0
4648,-100,4,1,0,85,0,0
16006,-100,4,1,0,60,0,0
27018,-100,4,1,0,68,0,0
38203,-100,4,1,0,75,0,0
49301,-100,4,1,0,80,0,0
59185,-100,4,1,0,60,0,0
59445,-100,4,1,0,95,0,0
60226,-100,4,1,0,95,0,1
86237,-100,4,1,0,50,0,0
87885,-100,4,1,0,85,0,0
96468,-100,4,1,0,75,0,0
98896,-100,4,1,0,68,0,0
121266,-100,4,1,0,75,0,0
132364,-100,4,1,0,80,0,0
142075,-100,4,1,0,50,0,0
142682,-100,4,1,0,95,0,0
143463,-100,4,1,0,95,0,1
169474,-100,4,1,0,50,0,0
179445,-100,4,1,0,75,0,0
180486,-100,4,1,0,83,0,0
180919,-100,4,1,0,90,0,1
203116,-100,4,1,0,70,0,1
204850,-100,4,1,0,70,0,1
205544,-100,4,1,0,70,0,1
205890,-100,4,1,0,50,0,0
210919,-100,4,1,0,75,0,0
211786,-100,4,1,0,75,0,0
213520,-100,4,1,0,80,0,0
214214,-100,4,1,0,95,0,1
214388,-100,4,1,0,95,0,1
233809,-100,4,1,0,85,0,1
236064,-100,4,1,0,80,0,0
238145,-100,4,1,0,60,0,0
239185,-100,4,1,0,40,0,0

[HitObjects]
256,192,2827,12,0,4041,0:0:0:0:
160,64,4734,5,4,0:0:0:0:
160,64,5428,1,0,0:0:0:0:
160,64,5775,1,2,0:0:0:0:
160,64,6122,1,0,0:0:0:0:
160,64,6468,1,0,0:0:0:0:
160,64,6815,1,0,0:0:0:0:
192,32,6989,1,0,0:0:0:0:
160,64,7162,1,0,0:0:0:0:
160,64,7509,1,0,0:0:0:0:
160,64,8203,1,0,0:0:0:0:
160,64,8549,1,2,0:0:0:0:
160,64,8896,1,0,0:0:0:0:
160,64,9243,1,2,0:0:0:0:
160,64,9590,1,0,0:0:0:0:
192,32,9763,1,0,0:0:0:0:
192,32,9937,1,2,0:0:0:0:
160,64,10283,1,4,0:0:0:0:
160,64,10977,1,0,0:0:0:0:
160,64,11324,1,2,0:0:0:0:
160,64,11671,1,0,0:0:0:0:
160,64,11844,1,2,0:0:0:0:
160,64,12018,1,0,0:0:0:0:
160,64,12364,1,2,0:0:0:0:
160,64,12711,1,0,0:0:0:0:
160,64,13058,1,6,0:0:0:0:
160,64,13578,1,2,0:0:0:0:
160,64,14445,1,0,0:0:0:0:
160,64,14966,1,0,0:0:0:0:
160,64,15486,1,2,0:0:0:0:
160,96,15833,5,4,0:0:0:0:
160,32,17220,1,2,0:0:0:0:
160,32,17740,1,2,0:0:0:0:
160,32,18260,1,2,0:0:0:0:
160,96,18607,1,0,0:0:0:0:
192,0,19994,1,8,0:0:0:0:
192,32,20515,1,2,0:0:0:0:
74,105,20688,1,0,0:0:0:0:
160,96,21035,1,2,0:0:0:0:
160,96,21382,1,4,0:0:0:0:
160,64,22769,1,2,0:0:0:0:
174,47,23289,1,2,0:0:0:0:
174,47,23809,1,0,0:0:0:0:
160,0,24156,1,8,0:0:0:0:
160,0,25197,1,0,0:0:0:0:
160,0,25544,1,8,0:0:0:0:
160,0,26064,1,0,0:0:0:0:
160,0,26237,1,2,0:0:0:0:
224,32,26584,1,2,0:0:0:0:
160,96,26931,1,4,0:0:0:0:
160,96,27625,1,2,0:0:0:0:
160,96,28318,1,0,0:0:0:0:
160,32,28838,1,0,0:0:0:0:
160,32,29359,1,2,0:0:0:0:
160,96,29705,1,0,0:0:0:0:
160,96,30399,1,2,0:0:0:0:
192,32,31093,1,0,0:0:0:0:
192,32,31613,1,2,0:0:0:0:
64,192,32133,1,2,0:0:0:0:
160,96,32480,1,4,0:0:0:0:
160,96,33174,1,2,0:0:0:0:
160,96,33867,1,0,0:0:0:0:
160,96,34214,1,0,0:0:0:0:
160,96,34561,1,2,0:0:0:0:
160,96,34908,1,2,0:0:0:0:
128,224,35255,1,4,0:0:0:0:
192,32,35775,1,8,0:0:0:0:
160,160,36122,1,0,0:0:0:0:
128,224,36295,1,8,0:0:0:0:
192,64,36642,5,0,0:0:0:0:
160,96,37162,1,2,0:0:0:0:
160,96,37509,1,2,0:0:0:0:
160,96,38029,1,4,0:0:0:0:
160,96,38376,1,2,0:0:0:0:
192,32,39070,1,2,0:0:0:0:
160,96,39416,1,0,0:0:0:0:
160,96,39763,1,2,0:0:0:0:
160,64,39937,1,0,0:0:0:0:
160,64,40457,1,2,0:0:0:0:
160,96,40804,1,0,0:0:0:0:
160,96,41151,1,2,0:0:0:0:
160,32,41844,1,2,0:0:0:0:
160,96,42191,1,0,0:0:0:0:
160,96,42538,1,2,0:0:0:0:
160,96,42711,1,0,0:0:0:0:
160,96,43578,1,0,0:0:0:0:
160,96,43925,1,2,0:0:0:0:
160,32,44619,1,2,0:0:0:0:
160,96,44966,1,0,0:0:0:0:
160,96,45312,1,2,0:0:0:0:
160,96,45486,1,0,0:0:0:0:
160,32,46006,1,2,0:0:0:0:
160,96,46353,1,0,0:0:0:0:
160,96,46700,1,2,0:0:0:0:
160,96,46873,1,0,0:0:0:0:
160,96,47393,1,2,0:0:0:0:
160,32,47740,1,0,0:0:0:0:
160,96,48087,1,0,0:0:0:0:
160,96,48260,1,2,0:0:0:0:
160,96,48607,1,2,0:0:0:0:
160,96,49127,1,4,0:0:0:0:
192,32,49474,1,2,0:0:0:0:
160,96,50168,1,2,0:0:0:0:
160,96,50515,1,0,0:0:0:0:
160,96,50862,1,2,0:0:0:0:
160,96,51035,1,0,0:0:0:0:
192,32,51555,1,2,0:0:0:0:
160,96,51902,1,0,0:0:0:0:
160,96,52249,1,2,0:0:0:0:
192,32,52942,1,0,0:0:0:0:
160,96,53289,1,2,0:0:0:0:
160,0,53983,1,2,0:0:0:0:
160,64,54156,1,2,0:0:0:0:
160,96,54330,1,2,0:0:0:0:
160,96,54677,1,4,0:0:0:0:
160,96,55197,1,4,0:0:0:0:
160,96,56064,1,6,0:0:0:0:
160,96,56584,1,6,0:0:0:0:
416,352,57451,1,4,0:0:0:0:
384,352,58838,1,0,0:0:0:0:
160,96,59532,5,6,0:0:0:0:
160,32,60226,1,4,0:0:0:0:
160,32,60573,1,2,0:0:0:0:
160,32,60919,1,0,0:0:0:0:
224,32,61093,1,0,0:0:0:0:
160,32,61266,1,2,0:0:0:0:
160,32,61613,1,0,0:0:0:0:
160,32,61960,1,2,0:0:0:0:
160,32,62133,1,0,0:0:0:0:
96,32,62653,1,2,0:0:0:0:
160,32,63000,1,0,0:0:0:0:
160,32,63347,1,2,0:0:0:0:
160,32,63520,1,2,0:0:0:0:
160,32,63694,1,0,0:0:0:0:
160,32,64041,1,2,0:0:0:0:
160,32,64388,1,0,0:0:0:0:
160,32,64734,1,2,0:0:0:0:
160,32,64908,1,2,0:0:0:0:
192,0,65428,1,2,0:0:0:0:
160,32,65775,1,4,0:0:0:0:
160,32,66468,1,0,0:0:0:0:
192,96,66815,1,2,0:0:0:0:
160,64,67162,1,0,0:0:0:0:
160,32,67509,1,2,0:0:0:0:
160,32,67682,1,2,0:0:0:0:
160,32,67856,1,0,0:0:0:0:
160,32,68203,1,2,0:0:0:0:
160,64,68549,1,6,0:0:0:0:
288,320,69070,1,2,0:0:0:0:
192,160,69416,1,0,0:0:0:0:
192,128,69763,1,6,0:0:0:0:
160,64,70630,1,2,0:0:0:0:
160,64,71324,1,4,0:0:0:0:
128,32,71671,1,2,0:0:0:0:
128,32,72018,1,0,0:0:0:0:
128,32,72364,1,2,0:0:0:0:
128,32,72538,1,2,0:0:0:0:
128,32,72711,1,0,0:0:0:0:
192,96,73058,1,2,0:0:0:0:
160,32,73231,1,0,0:0:0:0:
160,64,73752,1,2,0:0:0:0:
160,64,74099,1,0,0:0:0:0:
160,64,74445,1,2,0:0:0:0:
160,64,74792,1,0,0:0:0:0:
160,64,74966,1,0,0:0:0:0:
160,64,75139,1,2,0:0:0:0:
160,64,75486,1,0,0:0:0:0:
160,0,75833,1,2,0:0:0:0:
160,64,76006,1,2,0:0:0:0:
160,32,76526,1,2,0:0:0:0:
160,64,76873,1,4,0:0:0:0:
160,32,77220,1,2,0:0:0:0:
192,0,77914,1,2,0:0:0:0:
160,64,78260,1,4,0:0:0:0:
160,32,78607,1,2,0:0:0:0:
160,64,79301,1,2,0:0:0:0:
160,64,79648,1,0,0:0:0:0:
160,64,79994,1,2,0:0:0:0:
160,64,80341,1,2,0:0:0:0:
160,64,80688,1,0,0:0:0:0:
160,0,80862,1,0,0:0:0:0:
160,64,81035,1,2,0:0:0:0:
160,64,81555,1,6,0:0:0:0:
160,64,82422,1,4,0:0:0:0:
160,64,83116,1,2,0:0:0:0:
160,64,83463,1,4,0:0:0:0:
160,64,84156,1,2,0:0:0:0:
160,64,84503,1,2,0:0:0:0:
160,64,84850,1,0,0:0:0:0:
160,64,85197,1,6,0:0:0:0:
160,64,85890,1,0,0:0:0:0:
256,192,86237,12,0,87278,0:0:0:0:
160,64,87971,5,4,0:0:0:0:
160,64,88665,1,0,0:0:0:0:
160,32,89012,1,2,0:0:0:0:
160,64,89359,1,0,0:0:0:0:
160,64,89705,1,0,0:0:0:0:
160,64,90052,1,0,0:0:0:0:
160,0,90226,1,0,0:0:0:0:
160,64,90399,1,0,0:0:0:0:
160,64,90746,1,0,0:0:0:0:
160,64,91440,1,0,0:0:0:0:
160,0,91786,1,2,0:0:0:0:
160,64,92133,1,0,0:0:0:0:
160,32,92307,1,2,0:0:0:0:
192,32,92480,1,0,0:0:0:0:
160,64,92827,1,0,0:0:0:0:
160,64,93000,1,0,0:0:0:0:
160,64,93174,1,2,0:0:0:0:
160,64,93520,1,4,0:0:0:0:
160,64,94214,1,0,0:0:0:0:
160,64,94561,1,2,0:0:0:0:
160,64,94908,1,0,0:0:0:0:
160,64,95081,1,2,0:0:0:0:
160,64,95255,1,0,0:0:0:0:
160,64,95601,1,2,0:0:0:0:
160,64,95948,1,0,0:0:0:0:
160,64,96295,1,6,0:0:0:0:
160,64,96815,1,2,0:0:0:0:
160,32,97682,1,0,0:0:0:0:
160,64,99070,1,4,0:0:0:0:
160,64,99763,1,2,0:0:0:0:
160,64,100457,1,0,0:0:0:0:
160,64,100804,1,0,0:0:0:0:
320,32,101151,1,0,0:0:0:0:
160,64,101497,1,2,0:0:0:0:
160,64,101844,1,0,0:0:0:0:
160,64,102538,1,2,0:0:0:0:
160,32,103231,1,0,0:0:0:0:
160,32,103578,1,2,0:0:0:0:
160,32,103925,1,0,0:0:0:0:
192,0,104099,1,0,0:0:0:0:
160,32,104272,1,2,0:0:0:0:
160,32,104619,1,4,0:0:0:0:
160,32,105312,1,2,0:0:0:0:
160,32,106006,1,0,0:0:0:0:
160,32,106353,1,0,0:0:0:0:
160,32,106700,1,2,0:0:0:0:
160,32,107046,1,0,0:0:0:0:
160,32,107393,1,2,0:0:0:0:
416,128,108087,1,0,0:0:0:0:
160,32,108607,1,2,0:0:0:0:
160,32,109821,1,2,0:0:0:0:
160,32,110168,1,4,0:0:0:0:
160,32,110862,1,2,0:0:0:0:
160,32,111208,1,2,0:0:0:0:
192,96,111382,1,2,0:0:0:0:
160,32,111555,1,0,0:0:0:0:
160,32,111902,1,2,0:0:0:0:
160,32,112249,1,0,0:0:0:0:
160,32,112596,1,0,0:0:0:0:
224,32,112769,1,2,0:0:0:0:
192,32,112942,1,0,0:0:0:0:
192,32,113636,1,2,0:0:0:0:
192,0,113983,1,0,0:0:0:0:
192,64,114156,1,2,0:0:0:0:
192,32,114330,1,0,0:0:0:0:
192,32,114677,1,2,0:0:0:0:
192,32,115023,1,0,0:0:0:0:
192,32,115370,1,2,0:0:0:0:
192,32,115544,1,2,0:0:0:0:
192,32,115717,1,0,0:0:0:0:
192,32,116411,1,0,0:0:0:0:
192,32,116757,1,0,0:0:0:0:
192,32,116931,1,0,0:0:0:0:
192,32,117104,1,2,0:0:0:0:
192,32,117451,1,2,0:0:0:0:
192,32,117798,1,0,0:0:0:0:
192,32,118145,1,2,0:0:0:0:
192,32,118492,1,4,0:0:0:0:
192,0,118838,1,0,0:0:0:0:
192,0,119012,1,0,0:0:0:0:
192,0,119185,1,0,0:0:0:0:
192,32,119532,1,2,0:0:0:0:
192,32,119879,1,0,0:0:0:0:
192,32,120399,1,2,0:0:0:0:
192,32,120746,1,2,0:0:0:0:
192,32,121266,1,4,0:0:0:0:
192,32,121613,1,2,0:0:0:0:
192,32,122307,1,2,0:0:0:0:
192,32,122653,1,0,0:0:0:0:
192,32,123000,1,2,0:0:0:0:
192,32,123174,1,0,0:0:0:0:
192,32,123694,1,2,0:0:0:0:
192,32,124041,1,0,0:0:0:0:
224,224,124388,1,2,0:0:0:0:
192,96,125081,1,2,0:0:0:0:
192,96,125428,1,0,0:0:0:0:
192,96,125775,1,2,0:0:0:0:
192,96,125948,1,0,0:0:0:0:
192,96,126815,1,4,0:0:0:0:
192,96,127162,1,2,0:0:0:0:
192,96,127856,1,2,0:0:0:0:
192,96,128203,1,0,0:0:0:0:
192,96,128549,1,2,0:0:0:0:
192,96,128723,1,0,0:0:0:0:
192,96,129243,1,2,0:0:0:0:
192,96,129590,1,0,0:0:0:0:
192,96,129937,1,2,0:0:0:0:
192,96,130110,1,0,0:0:0:0:
192,96,130457,1,2,0:0:0:0:
192,96,130804,1,4,0:0:0:0:
192,96,131671,1,2,0:0:0:0:
192,0,132018,1,2,0:0:0:0:
192,96,132364,1,4,0:0:0:0:
192,96,132711,1,2,0:0:0:0:
192,96,133405,1,2,0:0:0:0:
192,96,133752,1,0,0:0:0:0:
192,96,134099,1,2,0:0:0:0:
192,96,134272,1,0,0:0:0:0:
192,96,134792,1,2,0:0:0:0:
192,96,135139,1,0,0:0:0:0:
192,96,135486,1,2,0:0:0:0:
192,96,136179,1,0,0:0:0:0:
192,96,136526,1,2,0:0:0:0:
192,96,137220,1,0,0:0:0:0:
192,96,137393,1,0,0:0:0:0:
192,96,137567,1,2,0:0:0:0:
192,96,137914,1,4,0:0:0:0:
192,96,138434,1,4,0:0:0:0:
192,96,139301,1,6,0:0:0:0:
192,96,139821,1,6,0:0:0:0:
192,96,140688,1,4,0:0:0:0:
224,288,142075,1,0,0:0:0:0:
192,32,142769,1,6,0:0:0:0:
192,32,143463,1,4,0:0:0:0:
192,32,143809,1,2,0:0:0:0:
192,32,144156,1,0,0:0:0:0:
192,32,144330,1,0,0:0:0:0:
192,32,144503,1,2,0:0:0:0:
192,32,144850,1,0,0:0:0:0:
192,32,145197,1,2,0:0:0:0:
192,32,145370,1,0,0:0:0:0:
192,32,145890,1,2,0:0:0:0:
192,32,146237,1,0,0:0:0:0:
192,32,146584,1,2,0:0:0:0:
192,32,146757,1,2,0:0:0:0:
192,32,146931,1,0,0:0:0:0:
192,32,147278,1,2,0:0:0:0:
192,32,147625,1,0,0:0:0:0:
192,32,147971,1,2,0:0:0:0:
192,32,148145,1,2,0:0:0:0:
192,32,148665,1,2,0:0:0:0:
192,32,149012,1,4,0:0:0:0:
192,32,149705,1,0,0:0:0:0:
192,32,150052,1,2,0:0:0:0:
192,32,150226,1,2,0:0:0:0:
192,32,150399,1,0,0:0:0:0:
192,32,150746,1,2,0:0:0:0:
192,32,151093,1,0,0:0:0:0:
192,32,151440,1,2,0:0:0:0:
192,32,151786,1,6,0:0:0:0:
192,32,152307,1,2,0:0:0:0:
192,32,152653,1,0,0:0:0:0:
192,32,153000,1,6,0:0:0:0:
192,32,153867,1,2,0:0:0:0:
192,32,154561,1,4,0:0:0:0:
192,32,154908,1,2,0:0:0:0:
192,32,155255,1,0,0:0:0:0:
128,32,155601,1,2,0:0:0:0:
224,64,155775,1,2,0:0:0:0:
192,32,155948,1,0,0:0:0:0:
192,32,156295,1,2,0:0:0:0:
192,32,156468,1,0,0:0:0:0:
192,32,156989,1,2,0:0:0:0:
192,32,157336,1,0,0:0:0:0:
192,32,157682,1,2,0:0:0:0:
192,32,158029,1,0,0:0:0:0:
192,32,158203,1,0,0:0:0:0:
192,32,158376,1,2,0:0:0:0:
192,32,158723,1,0,0:0:0:0:
192,32,159070,1,2,0:0:0:0:
192,32,159243,1,2,0:0:0:0:
192,32,159763,1,2,0:0:0:0:
192,32,160110,1,4,0:0:0:0:
192,32,160457,1,2,0:0:0:0:
192,32,161151,1,2,0:0:0:0:
192,32,161497,1,4,0:0:0:0:
192,32,161844,1,2,0:0:0:0:
192,32,162538,1,2,0:0:0:0:
192,32,162885,1,4,0:0:0:0:
192,32,163231,1,2,0:0:0:0:
192,32,163578,1,2,0:0:0:0:
192,32,163925,1,0,0:0:0:0:
192,32,164099,1,0,0:0:0:0:
192,32,164272,1,2,0:0:0:0:
192,32,164792,1,6,0:0:0:0:
192,32,165659,1,4,0:0:0:0:
192,32,166353,1,2,0:0:0:0:
192,32,166700,1,4,0:0:0:0:
192,32,167393,1,2,0:0:0:0:
192,32,167740,1,2,0:0:0:0:
192,32,168087,1,0,0:0:0:0:
96,192,168434,1,6,0:0:0:0:
160,64,169127,1,0,0:0:0:0:
256,192,169474,12,0,172249,0:0:0:0:
160,64,172596,5,0,0:0:0:0:
160,64,175370,1,0,0:0:0:0:
160,64,178145,1,0,0:0:0:0:
160,64,178492,1,0,0:0:0:0:
160,64,178665,1,0,0:0:0:0:
160,64,178838,1,2,0:0:0:0:
160,64,179185,1,2,0:0:0:0:
160,64,179532,1,4,0:0:0:0:
160,64,180052,1,4,0:0:0:0:
160,64,180573,5,6,0:0:0:0:
160,64,180919,1,4,0:0:0:0:
160,64,181613,1,2,0:0:0:0:
79,200,181960,1,2,0:0:0:0:
96,128,182133,1,2,0:0:0:0:
160,96,182307,1,0,0:0:0:0:
64,128,182653,1,2,0:0:0:0:
0,192,182827,1,0,0:0:0:0:
128,64,183000,1,2,0:0:0:0:
160,64,183347,1,2,0:0:0:0:
160,64,183694,1,0,0:0:0:0:
160,64,184041,1,2,0:0:0:0:
160,64,184214,1,0,0:0:0:0:
160,32,184734,1,0,0:0:0:0:
160,32,185081,1,2,0:0:0:0:
160,32,185428,1,0,0:0:0:0:
160,64,185601,1,2,0:0:0:0:
160,32,186122,1,2,0:0:0:0:
160,64,186468,1,4,0:0:0:0:
192,0,187162,1,0,0:0:0:0:
160,32,187509,1,2,0:0:0:0:
160,64,187856,5,0,0:0:0:0:
160,96,188203,1,2,0:0:0:0:
160,32,188376,1,0,0:0:0:0:
160,96,188549,1,2,0:0:0:0:
160,96,188896,1,2,0:0:0:0:
160,96,189243,1,6,0:0:0:0:
160,96,189763,1,6,0:0:0:0:
160,96,190283,1,4,0:0:0:0:
160,96,191324,1,2,0:0:0:0:
160,32,191497,1,2,0:0:0:0:
160,96,191671,1,2,0:0:0:0:
160,96,192018,1,4,0:0:0:0:
160,96,192711,1,2,0:0:0:0:
160,96,193058,1,2,0:0:0:0:
160,32,193231,1,2,0:0:0:0:
160,96,193405,1,0,0:0:0:0:
160,96,193752,1,2,0:0:0:0:
160,96,193925,1,0,0:0:0:0:
160,96,194099,1,2,0:0:0:0:
160,96,194445,1,2,0:0:0:0:
160,96,194792,1,0,0:0:0:0:
160,96,195139,1,2,0:0:0:0:
160,96,195312,1,0,0:0:0:0:
160,96,195833,1,0,0:0:0:0:
160,96,196179,1,2,0:0:0:0:
160,96,196526,1,0,0:0:0:0:
160,96,196700,1,2,0:0:0:0:
160,96,197567,1,4,0:0:0:0:
160,0,197914,1,2,0:0:0:0:
192,64,198087,1,2,0:0:0:0:
192,0,198434,1,0,0:0:0:0:
160,96,198954,1,4,0:0:0:0:
160,96,199301,1,2,0:0:0:0:
160,128,199474,1,2,0:0:0:0:
128,96,199821,1,0,0:0:0:0:
256,192,200341,12,0,202249,0:0:0:0:
160,96,202942,5,4,0:0:0:0:
160,96,203809,1,2,0:0:0:0:
160,32,204156,1,0,0:0:0:0:
160,96,204503,1,2,0:0:0:0:
160,288,205197,5,2,0:0:0:0:
192,96,205890,1,0,0:0:0:0:
160,32,207278,1,2,0:0:0:0:
192,96,208665,1,2,0:0:0:0:
192,96,210052,1,2,0:0:0:0:
192,32,210746,1,2,0:0:0:0:
192,96,211440,1,0,0:0:0:0:
192,96,212827,1,2,0:0:0:0:
192,96,213520,1,2,0:0:0:0:
192,96,214214,1,6,0:0:0:0:
192,96,214734,1,2,0:0:0:0:
288,96,215081,1,0,0:0:0:0:
128,96,215428,1,6,0:0:0:0:
160,64,216295,1,2,0:0:0:0:
160,64,216989,1,4,0:0:0:0:
160,64,217336,1,2,0:0:0:0:
160,64,217682,1,0,0:0:0:0:
160,64,217856,1,0,0:0:0:0:
160,64,218029,1,2,0:0:0:0:
160,64,218376,1,0,0:0:0:0:
160,64,218723,1,2,0:0:0:0:
160,64,218896,1,0,0:0:0:0:
160,64,219416,1,2,0:0:0:0:
160,64,219763,1,0,0:0:0:0:
160,64,220110,1,2,0:0:0:0:
160,64,220283,1,2,0:0:0:0:
160,64,220457,1,0,0:0:0:0:
160,64,220804,1,2,0:0:0:0:
160,64,221151,1,0,0:0:0:0:
160,64,221497,1,2,0:0:0:0:
160,64,221671,1,2,0:0:0:0:
160,64,222191,1,2,0:0:0:0:
160,64,222538,1,4,0:0:0:0:
160,64,222885,1,2,0:0:0:0:
160,64,223578,1,2,0:0:0:0:
160,64,223925,1,4,0:0:0:0:
160,64,224272,1,2,0:0:0:0:
160,64,224966,1,2,0:0:0:0:
160,64,225312,1,4,0:0:0:0:
160,64,225659,1,2,0:0:0:0:
160,64,226006,1,2,0:0:0:0:
160,64,226353,1,0,0:0:0:0:
160,64,226526,1,0,0:0:0:0:
160,64,226700,1,2,0:0:0:0:
160,64,227220,1,6,0:0:0:0:
160,64,228087,1,4,0:0:0:0:
128,256,228607,1,0,0:0:0:0:
160,32,229127,1,4,0:0:0:0:
160,64,229821,1,2,0:0:0:0:
160,64,230168,1,2,0:0:0:0:
160,64,230515,1,0,0:0:0:0:
160,64,230862,1,6,0:0:0:0:
160,64,231382,1,2,0:0:0:0:
160,64,231902,1,6,0:0:0:0:
160,64,232942,1,0,0:0:0:0:
128,32,233116,1,0,0:0:0:0:
160,64,233289,1,2,0:0:0:0:
160,64,233636,5,4,0:0:0:0:
256,32,233983,1,0,0:0:0:0:
160,64,234156,1,0,0:0:0:0:
160,64,234330,1,0,0:0:0:0:
160,64,234677,1,2,0:0:0:0:
160,64,235023,1,0,0:0:0:0:
160,64,235197,1,0,0:0:0:0:
160,64,235370,1,0,0:0:0:0:
160,64,235717,1,2,0:0:0:0:
160,64,236064,1,4,0:0:0:0:
160,64,236757,1,2,0:0:0:0:
160,64,237104,1,0,0:0:0:0:
192,32,237798,1,6,0:0:0:0:
192,32,238492,1,8,0:0:0:0:
256,192,239301,12,0,243058,0:0:0:0:
