osu file format v14

[General]
AudioFilename: 02. .mp3
AudioLeadIn: 0
PreviewTime: 62705
Countdown: 0
SampleSet: Soft
StackLeniency: 0.7
Mode: 0
LetterboxInBreaks: 0
WidescreenStoryboard: 0

[Editor]
Bookmarks: 17935,101012,106781
DistanceSpacing: 0.9
BeatDivisor: 4
GridSize: 4
TimelineZoom: 1.4

[Metadata]
Title:Kokoro no Inryoku
TitleUnicode:ココロの引力
Artist:ClariS
ArtistUnicode:ClariS
Creator:RVMathew
Version:Normal
Source:
Tags:俺の妹がこんなに可愛いわけがない Ore no Imouto ga Konna ni Kawaii Wake ga nai oreimo irony single My Little Sister Can't Be This Cute Clara Alice
BeatmapID:1064910
BeatmapSetID:215479

[Difficulty]
HPDrainRate:3
CircleSize:3
OverallDifficulty:4
ApproachRate:5
SliderMultiplier:1.3
SliderTickRate:2

[Events]
//Background and Video events
0,0,"Background2-Normal.jpg",0,0
//Break Periods
2,78135,91505
2,137213,143197
//Storyboard Layer 0 (Background)
//Storyboard Layer 1 (Fail)
//Storyboard Layer 2 (Pass)
//Storyboard Layer 3 (Foreground)
//Storyboard Sound Samples

[TimingPoints]
397,461.538461538462,4,2,1,40,1,0
10090,-100,4,2,2,40,0,0
10147,-100,4,2,1,40,0,0
18859,-100,4,2,1,60,0,0
33628,-100,4,2,1,60,0,0
34090,-100,4,2,2,60,0,0
34147,-100,4,2,1,60,0,0
35936,-100,4,2,2,60,0,0
35993,-100,4,2,1,60,0,0
41474,-100,4,2,2,60,0,0
41532,-100,4,2,1,60,0,0
47704,-100,4,2,2,60,0,0
47762,-100,4,2,1,60,0,0
48397,-100,4,2,1,60,0,0
63166,-100,4,2,1,60,0,1
69858,-100,4,2,2,60,0,1
69897,-100,4,2,1,60,0,1
77935,-100,4,2,1,60,0,0
92705,-100,4,2,1,60,0,0
93166,-100,4,2,1,60,0,0
93224,-100,4,2,1,60,0,0
98705,-100,4,2,2,60,0,0
98763,-100,4,2,1,60,0,0
102397,-100,4,2,2,60,0,0
102455,-100,4,2,1,60,0,0
106781,-100,4,2,2,60,0,0
106839,-100,4,2,1,60,0,0
107474,-100,4,2,1,60,0,0
122243,-100,4,2,1,60,0,1
137012,-100,4,2,1,60,0,0
144397,-100,4,2,1,60,0,0
144859,-100,4,2,2,60,0,0
144916,-100,4,2,1,60,0,0
146705,-100,4,2,2,60,0,0
146763,-100,4,2,1,60,0,0
150397,-100,4,2,2,60,0,0
150455,-100,4,2,1,60,0,0
151090,-100,4,2,2,60,0,0
151147,-100,4,2,1,60,0,0
151781,-100,4,1,1,60,0,1
157782,-100,4,1,2,60,0,1
157840,-100,4,1,1,60,0,1
165166,-100,4,1,2,60,0,1
165224,-100,4,1,1,60,0,1
166089,-100,4,1,1,60,0,0
166550,-100,4,1,1,60,0,1
172551,-100,4,1,2,60,0,1
172609,-100,4,1,1,60,0,1
179935,-100,4,1,2,60,0,1
179973,-100,4,1,1,60,0,1
181320,-100,4,1,1,60,0,0
210859,-100,4,1,1,60,0,0
218243,-100,4,2,1,5,0,0

[Colours]
Combo1 : 255,140,26
Combo2 : 105,147,233
Combo3 : 102,196,26
Combo4 : 232,98,232
SliderBorder : 255,255,255
SliderTrackOverride : 35,35,35

[HitObjects]
64,266,4090,5,2,0:0:0:0:
180,249,4551,2,0,B|251:249|290:177,1,130,10|0,0:0|0:0,0:0:0:0:
354,90,5474,2,0,B|407:20,2,65,8|0|2,0:0|0:0|0:0,0:0:0:0:
422,185,6397,2,0,B|482:228|459:298,1,130,10|0,0:0|0:0,0:0:0:0:
352,347,7320,6,0,P|291:333|197:327,1,130,10|2,0:0|0:0,0:0:0:0:
107,313,8243,2,0,P|56:260|41:198,1,130,10|2,0:0|0:0,0:0:0:0:
25,90,9166,1,8,0:0:0:0:
138,62,9628,2,0,B|202:62|202:62|222:38|222:38|250:46|250:46|262:46|262:46|286:38|286:38|310:62|310:62|374:62,1,260,2|2,0:0|0:0,0:0:0:0:
479,114,11013,2,0,P|466:164|464:182,1,65,8|0,0:0|0:0,0:0:0:0:
459,235,11474,5,2,0:0:0:0:
372,313,11936,2,0,P|296:320|243:340,1,130,10|0,0:0|0:0,0:0:0:0:
130,353,12859,2,0,P|100:341|63:292,1,65,8|0,0:0|0:0,0:0:0:0:
49,267,13320,1,2,0:0:0:0:
49,151,13782,2,0,B|139:151|167:96,1,130,10|0,0:0|0:0,0:0:0:0:
262,40,14705,6,0,P|285:99|262:158,1,130,10|2,0:0|0:0,0:0:0:0:
168,228,15628,2,0,P|144:287|167:346,1,130,10|2,0:0|0:0,0:0:0:0:
284,358,16551,1,8,0:0:0:0:
386,301,17013,2,0,P|420:248|412:164,2,130,2|8|2,0:0|0:0|0:0,0:0:0:0:
332,323,18166,1,8,0:0:0:0:
283,290,18397,2,0,P|253:283|193:285,1,65,8|0,0:0|0:0,0:0:0:0:
187,232,18859,6,0,P|210:171|176:94,1,130,6|10,0:0|0:0,0:0:0:0:
137,90,19551,2,0,P|80:119|63:183,1,130,2|2,0:0|0:0,0:0:0:0:
50,236,20243,2,0,P|72:271|76:300,1,65,8|2,0:0|0:0,0:0:0:0:
105,344,20705,2,0,P|169:342|236:303,1,130,2|10,0:0|0:0,0:0:0:0:
285,311,21397,2,0,P|342:341|407:344,1,130,2|2,0:0|0:0,0:0:0:0:
462,323,22090,1,8,0:0:0:0:
426,211,22551,6,0,L|515:187,2,65,2|2|10,0:0|0:0|0:0,0:0:0:0:
367,211,23243,2,0,B|320:211|320:211|289:237|289:237|221:238,1,130,2|2,0:0|0:0,0:0:0:0:
193,213,23935,2,0,L|147:155,1,65,8|2,0:0|0:0,0:0:0:0:
170,106,24397,2,0,P|239:101|289:62,1,130,2|10,0:0|0:0,0:0:0:0:
337,36,25090,2,0,B|338:105|411:168,1,130,2|10,0:0|0:0,0:0:0:0:
433,192,25782,1,8,0:0:0:0:
359,283,26243,6,0,L|300:338,2,65,2|2|10,0:0|0:0|0:0,0:0:0:0:
401,242,26936,2,0,B|384:180|384:180|324:137,1,130,2|2,0:0|0:0,0:0:0:0:
276,118,27627,2,0,P|238:112|202:94,1,65,8|2,0:0|0:0,0:0:0:0:
156,115,28090,2,0,P|147:179|196:228,1,130,2|10,0:0|0:0,0:0:0:0:
244,242,28782,2,0,P|267:294|226:355,1,130,2|2,0:0|0:0,0:0:0:0:
173,361,29474,1,8,0:0:0:0:
256,192,29936,12,2,32474,0:0:0:0:
455,317,33628,5,4,0:0:0:0:
455,317,33859,2,0,P|396:295|341:241,1,130,2|2,0:0|0:0,0:0:0:0:
299,217,34551,2,0,P|270:206|235:206,1,65,2|2,0:0|0:0,0:0:0:0:
178,217,35013,1,10,0:0:0:0:
142,263,35243,2,0,P|114:311|32:345,2,130,2|2|2,0:0|0:0|0:0,0:0:0:0:
92,157,36628,2,0,B|24:157,2,65,2|10|2,0:0|0:0|0:0,0:0:0:0:
125,108,37320,5,0,0:0:0:0:
157,60,37551,2,0,L|241:60,2,65,2|10|2,0:0|0:0|0:0,0:0:0:0:
125,108,38243,2,0,L|114:179,1,65,0|2,0:0|0:1,0:0:0:0:
120,230,38704,1,8,0:0:0:0:
152,279,38936,2,0,P|195:316|268:301,1,130,2|2,0:0|0:0,0:0:0:0:
315,278,39627,1,8,0:0:0:0:
373,289,39859,2,0,P|419:244|429:167,1,130,2|8,0:0|0:0,0:0:0:0:
426,123,40551,1,8,0:0:0:0:
347,37,41013,5,0,0:0:0:0:
289,28,41243,2,0,P|224:29|139:48,1,130,2|2,0:0|0:0,0:0:0:0:
109,70,41936,2,0,P|85:94|70:141,1,65,2|2,0:0|0:0,0:0:0:0:
50,176,42397,1,10,0:0:0:0:
69,231,42628,2,0,P|91:298|159:336,1,130,2|2,0:0|0:0,0:0:0:0:
193,348,43320,2,0,L|271:345,1,65,8|2,0:0|0:0,0:0:0:0:
300,236,44013,2,0,B|300:152,2,65,2|10|2,0:0|0:0|0:0,0:0:0:0:
351,264,44704,5,0,0:0:0:0:
373,318,44936,2,0,B|447:318,2,65,2|10|2,0:0|0:0|0:0,0:0:0:0:
320,343,45627,2,0,L|256:356,1,65,0|2,0:0|0:0,0:0:0:0:
198,347,46089,1,8,0:0:0:0:
157,305,46320,2,0,P|171:238|123:166,1,130,2|2,0:0|0:0,0:0:0:0:
97,150,47012,2,0,P|80:117|89:79,1,65,8|2,0:0|0:0,0:0:0:0:
116,40,47473,2,0,B|179:29|179:29|211:60|267:38,1,130,0|8,0:0|0:0,0:0:0:0:
351,8,48397,5,4,0:0:0:0:
388,119,48858,2,0,P|420:147|439:182,1,65,8|0,0:0|0:0,0:0:0:0:
466,214,49320,2,0,L|502:145,2,65,0|0|8,0:0|0:0|0:0,0:0:0:0:
441,267,50013,2,0,P|408:321|334:351,1,130,2|2,0:0|0:0,0:0:0:0:
293,336,50704,1,8,0:0:0:0:
237,355,50936,2,0,P|170:356|108:326,1,130,2|2,0:0|0:0,0:0:0:0:
65,296,51628,1,8,0:0:0:0:
38,181,52090,5,0,0:0:0:0:
148,142,52550,2,0,L|219:121,1,65,8|0,0:0|0:0,0:0:0:0:
265,102,53012,2,0,L|222:17,2,65,0|0|8,0:0|0:0|0:0,0:0:0:0:
311,137,53704,1,2,0:0:0:0:
366,117,53935,2,0,P|427:84|463:18,2,130,0|8|0,0:0|0:0|0:0,0:0:0:0:
311,137,55090,2,0,P|309:170|316:201,1,65,10|8,0:0|0:0,0:0:0:0:
353,311,55782,5,0,0:0:0:0:
441,234,56243,2,0,P|459:200|461:150,1,65,8|0,0:0|0:0,0:0:0:0:
464,115,56704,2,0,L|510:55,2,65,0|0|8,0:0|0:0|0:0,0:0:0:0:
413,84,57397,2,0,P|349:93|284:50,1,130,2|2,0:0|0:0,0:0:0:0:
239,41,58089,1,8,0:0:0:0:
223,97,58320,2,0,P|203:157|150:194,1,130,2|2,0:0|0:0,0:0:0:0:
93,208,59013,1,8,0:0:0:0:
256,192,59473,12,4,61089,0:0:0:0:
471,255,62705,6,0,P|480:220|480:161,1,65,8|0,0:0|0:0,0:0:0:0:
478,133,63166,5,6,0:0:0:0:
389,57,63628,2,0,P|337:84|239:71,1,130,10|0,0:0|0:0,0:0:0:0:
210,68,64320,2,0,L|231:2,2,65,2|8|0,0:0|0:0|0:0,0:0:0:0:
164,105,65012,2,0,L|104:162,1,65,2|0,0:0|0:0,0:0:0:0:
76,192,65474,2,0,B|118:224|161:202|197:231,1,130,10|0,0:0|0:0,0:0:0:0:
314,231,66397,6,0,B|350:202|393:224|436:192,1,130,10|2,0:0|0:0,0:0:0:0:
442,74,67320,2,0,P|378:82|315:64,1,130,10|2,0:0|0:0,0:0:0:0:
198,66,68243,2,0,L|128:82,1,65,8|2,0:0|0:0,0:0:0:0:
97,125,68704,2,0,P|108:192|81:254,1,130,2|8,0:0|0:0,0:0:0:0:
58,300,69397,1,2,0:0:0:0:
102,337,69627,2,8,B|148:322|148:322|173:338|173:338|242:315,1,130,2|8,0:0|0:0,0:0:0:0:
277,300,70320,1,0,0:0:0:0:
294,244,70551,5,2,0:0:0:0:
308,127,71013,2,0,P|349:176|425:190,1,130,10|0,0:0|0:0,0:0:0:0:
468,179,71704,2,0,L|502:115,2,65,2|8|0,0:0|0:0|0:0,0:0:0:0:
486,234,72397,2,0,P|488:279|468:325,1,65,2|0,0:0|0:0,0:0:0:0:
438,336,72859,2,0,P|376:351|306:322,1,130,10|0,0:0|0:0,0:0:0:0:
234,244,73781,6,0,P|196:191|193:127,1,130,10|2,0:0|0:0,0:0:0:0:
266,35,74704,2,0,P|303:87|306:151,1,130,10|2,0:0|0:0,0:0:0:0:
234,244,75628,1,8,0:0:0:0:
256,192,76089,12,6,77935,0:0:0:0:
156,192,92705,5,4,0:0:0:0:
128,243,92935,2,0,L|40:255,2,65,2|10|2,0:0|0:0|0:0,0:0:0:0:
162,289,93627,2,0,L|239:329,1,65,2|2,0:0|0:0,0:0:0:0:
273,342,94089,1,10,0:0:0:0:
320,307,94320,2,0,P|355:256|319:177,1,130,2|2,0:0|0:0,0:0:0:0:
292,157,95012,2,0,P|292:124|300:93,1,65,8|2,0:0|0:0,0:0:0:0:
411,54,95705,2,0,L|462:-23,2,65,2|10|2,0:0|0:0|0:0,0:0:0:0:
409,113,96397,5,0,0:0:0:0:
453,152,96628,2,0,L|530:101,2,65,2|10|2,0:0|0:0|0:0,0:0:0:0:
422,202,97320,2,0,L|342:224,1,65,0|2,0:0|0:0,0:0:0:0:
300,220,97781,1,8,0:0:0:0:
261,264,98013,2,0,P|237:323|160:356,2,130,2|2|2,0:0|0:0|0:0,0:0:0:0:
218,224,99166,1,0,0:0:0:0:
187,174,99397,2,0,P|162:149|122:124,1,65,8|8,0:0|0:0,0:0:0:0:
30,178,100089,6,0,P|25:213|29:260,1,65,0|2,0:0|0:0,0:0:0:0:
61,289,100550,2,0,P|29:315|3:355,2,65,10|2|2,0:0|0:0|0:0,0:0:0:0:
119,288,101243,1,2,0:0:0:0:
165,324,101474,1,10,0:0:0:0:
223,317,101705,2,0,P|285:337|358:326,2,130,2|2|2,0:0|0:0|0:0,0:0:0:0:
221,200,103089,2,0,L|161:132,2,65,2|10|2,0:0|0:0|0:0,0:0:0:0:
271,170,103781,5,0,0:0:0:0:
308,125,104012,2,0,L|297:40,2,65,2|10|2,0:0|0:0|0:0,0:0:0:0:
358,155,104704,2,0,P|376:189|377:239,1,65,0|2,0:0|0:0,0:0:0:0:
349,265,105166,1,8,0:0:0:0:
296,290,105397,2,0,P|229:276|157:324,1,130,2|2,0:0|0:0,0:0:0:0:
117,307,106089,2,0,P|90:276|89:231,1,65,8|2,0:0|0:0,0:0:0:0:
69,197,106550,2,0,B|119:157|119:157|117:113|171:86,1,130,0|8,0:0|0:0,0:0:0:0:
256,56,107474,5,4,0:0:0:0:
365,100,107936,1,8,0:0:0:0:
384,155,108166,2,0,L|474:137,2,65,0|0|0,0:0|0:0|0:0,0:0:0:0:
336,189,108858,1,8,0:0:0:0:
285,218,109089,2,0,P|257:273|305:330,1,130,2|2,0:0|0:0,0:0:0:0:
348,339,109781,1,8,0:0:0:0:
405,326,110012,2,0,P|439:274|411:218,1,130,2|2,0:0|0:0,0:0:0:0:
353,210,110705,1,8,0:0:0:0:
237,189,111166,5,0,0:0:0:0:
142,120,111628,1,8,0:0:0:0:
96,83,111858,2,0,L|143:15,2,65,0|0|0,0:0|0:0|0:0,0:0:0:0:
37,84,112551,1,8,0:0:0:0:
14,137,112781,1,2,0:0:0:0:
44,186,113012,2,0,P|71:244|43:315,2,130,0|8|0,0:0|0:0|0:0,0:0:0:0:
14,137,114166,2,0,L|67:92,1,65,10|8,0:0|0:0,0:0:0:0:
154,20,114859,5,0,0:0:0:0:
264,58,115320,1,8,0:0:0:0:
224,100,115551,2,0,P|203:159|244:220,1,130,0|0,0:0|0:0,0:0:0:0:
274,256,116243,1,8,0:0:0:0:
233,298,116474,2,0,B|186:311|186:311|174:337|174:337|123:351,1,130,2|2,0:0|0:0,0:0:0:0:
66,338,117166,1,8,0:0:0:0:
31,291,117397,2,0,P|22:228|61:170,1,130,2|2,0:0|0:0,0:0:0:0:
106,144,118090,1,8,0:0:0:0:
256,192,118551,12,4,120166,0:0:0:0:
64,40,121781,6,8,L|40:108,1,65,8|0,0:0|0:0,0:0:0:0:
23,157,122243,5,6,0:0:0:0:
128,210,122704,2,0,B|168:230|168:230|174:275|174:275|210:289,1,130,10|0,0:0|0:0,0:0:0:0:
256,287,123397,2,0,L|256:352,2,65,2|8|0,0:0|0:0|0:0,0:0:0:0:
301,289,124089,2,0,B|337:275|337:275|343:230|343:230|384:210,1,130,2|10,0:0|0:0,0:0:0:0:
460,121,125012,2,0,P|453:80|431:47,1,65,0|0,0:0|0:0,0:0:0:0:
396,23,125474,6,0,P|342:59|276:73,1,130,10|2,0:0|0:0,0:0:0:0:
166,39,126397,2,0,P|104:55|58:102,1,130,10|2,0:0|0:0,0:0:0:0:
22,212,127320,1,8,0:0:0:0:
29,270,127551,1,2,0:0:0:0:
63,316,127782,2,0,P|123:344|203:350,1,130,2|8,0:0|0:0,0:0:0:0:
244,352,128474,2,0,P|286:347|316:338,1,65,2|2,0:0|0:0,0:0:0:0:
361,318,128935,1,8,0:0:0:0:
404,275,129166,2,0,P|421:248|432:205,1,65,8|0,0:0|0:0,0:0:0:0:
441,158,129628,5,2,0:0:0:0:
395,50,130089,2,0,P|339:75|326:146,1,130,10|0,0:0|0:0,0:0:0:0:
334,194,130781,2,0,L|256:233,2,65,2|10|0,0:0|0:0|0:0,0:0:0:0:
392,189,131473,2,0,P|425:195|457:232,1,65,2|0,0:0|0:0,0:0:0:0:
461,273,131936,2,0,P|430:329|343:353,1,130,10|0,0:0|0:0,0:0:0:0:
254,362,132859,6,0,P|189:353|132:322,1,130,10|2,0:0|0:0,0:0:0:0:
71,223,133782,2,0,P|66:160|102:98,1,130,10|2,0:0|0:0,0:0:0:0:
202,52,134705,1,8,0:0:0:0:
256,192,135166,12,6,137013,0:0:0:0:
158,36,144397,6,0,B|261:36|261:36|311:87|311:87|397:87,1,260,6|2,0:0|0:0,0:0:0:0:
346,192,145782,1,8,0:0:0:0:
397,297,146243,2,0,B|311:297|311:297|261:348|261:348|148:348,1,260,2|2,0:0|0:0,0:0:0:0:
41,348,147628,1,10,0:0:0:0:
41,230,148090,6,0,P|56:167|42:104,1,130,2|10,0:0|0:0,0:0:0:0:
137,37,149013,2,0,P|199:52|262:38,1,130,2|10,0:0|0:0,0:0:0:0:
356,108,149936,2,0,P|396:57|520:40,2,195,2|2|8,0:0|0:0|0:0,0:0:0:0:
330,160,151551,1,0,0:0:0:0:
282,194,151782,5,6,0:0:0:0:
204,281,152243,2,0,P|166:331|75:327,1,130,10|0,0:0|0:0,0:0:0:0:
51,313,152935,1,0,0:0:0:0:
23,261,153166,2,0,P|17:223|23:180,1,65,8|0,0:0|0:0,0:0:0:0:
54,150,153627,2,0,P|81:136|115:100,1,65,2|0,0:0|0:0,0:0:0:0:
137,62,154090,2,0,P|200:79|272:73,1,130,10|0,0:0|0:0,0:0:0:0:
372,29,155013,6,0,P|418:74|419:148,1,130,10|2,0:0|0:0,0:0:0:0:
362,236,155935,2,0,P|316:191|315:117,1,130,10|2,0:0|0:0,0:0:0:0:
431,145,156859,1,8,0:0:0:0:
431,145,157090,1,2,0:0:0:0:
431,145,157320,2,0,P|463:104|524:75,2,97.5,2|2|2,0:0|0:0|0:0,0:0:0:0:
395,191,158243,2,0,L|329:213,1,65,2|8,0:0|0:0,0:0:0:0:
278,231,158705,2,0,L|201:176,1,65,8|0,0:0|0:0,0:0:0:0:
181,153,159166,5,2,0:0:0:0:
257,63,159628,2,0,P|320:65|357:126,1,130,10|0,0:0|0:0,0:0:0:0:
379,169,160320,1,2,0:0:0:0:
339,212,160551,2,0,P|317:230|280:243,1,65,8|0,0:0|0:0,0:0:0:0:
245,287,161012,2,0,L|302:336,1,65,2|0,0:0|0:0,0:0:0:0:
347,354,161474,2,0,P|409:335|451:259,1,130,10|0,0:0|0:0,0:0:0:0:
475,170,162397,6,0,P|487:109|426:45,1,130,10|2,0:0|0:0,0:0:0:0:
336,81,163320,2,0,P|278:104|198:88,1,130,10|2,0:0|0:0,0:0:0:0:
98,69,164243,1,8,0:0:0:0:
98,69,164474,1,2,0:0:0:0:
98,69,164705,2,0,P|44:52|10:22,2,97.5,2|2|2,0:0|0:0|0:0,0:0:0:0:
149,96,165627,2,0,P|162:127|156:181,1,65,2|8,0:0|0:0,0:0:0:0:
143,214,166090,2,0,L|223:256,1,65,8|0,0:0|0:0,0:0:0:0:
256,264,166551,5,6,0:0:0:0:
368,232,167013,2,0,P|402:174|375:105,1,130,10|0,0:0|0:0,0:0:0:0:
340,81,167704,1,0,0:0:0:0:
281,76,167936,2,0,P|262:102|222:125,1,65,8|0,0:0|0:0,0:0:0:0:
177,118,168397,2,0,P|138:111|102:91,1,65,2|0,0:0|0:0,0:0:0:0:
66,68,168859,2,0,P|30:122|37:197,1,130,10|0,0:0|0:0,0:0:0:0:
86,289,169782,6,0,B|114:328|168:315|197:349,1,130,10|2,0:0|0:0,0:0:0:0:
314,350,170704,2,0,B|344:315|398:328|426:289,1,130,10|2,0:0|0:0,0:0:0:0:
377,181,171628,1,8,0:0:0:0:
377,181,171859,1,2,0:0:0:0:
377,181,172090,2,0,P|364:135|378:89,2,97.5,2|2|2,0:0|0:0|0:0,0:0:0:0:
409,230,173012,2,0,L|339:285,1,65,2|8,0:0|0:0,0:0:0:0:
299,276,173474,2,0,L|221:244,1,65,8|0,0:0|0:0,0:0:0:0:
184,230,173936,5,2,0:0:0:0:
99,149,174397,2,0,P|95:85|136:38,1,130,10|0,0:0|0:0,0:0:0:0:
191,17,175089,1,2,0:0:0:0:
245,39,175320,2,0,P|257:75|293:95,1,65,8|0,0:0|0:0,0:0:0:0:
323,127,175781,2,0,L|270:178,1,65,2|0,0:0|0:0,0:0:0:0:
245,222,176243,2,0,P|296:261|311:334,1,130,10|0,0:0|0:0,0:0:0:0:
195,323,177166,6,0,P|144:284|129:211,1,130,10|2,0:0|0:0,0:0:0:0:
165,111,178090,2,0,P|225:131|290:128,1,130,10|2,0:0|0:0,0:0:0:0:
408,96,179012,1,8,0:0:0:0:
408,96,179243,1,2,0:0:0:0:
408,96,179473,2,0,P|424:48|420:-14,2,97.5,2|2|2,0:0|0:0|0:0,0:0:0:0:
376,145,180397,1,2,0:0:0:0:
329,179,180627,2,8,P|319:218|295:247,1,65
209,305,181320,6,0,P|149:331|77:338,1,130,6|10,0:0|0:0,0:0:0:0:
47,292,182013,2,0,P|32:229|63:150,1,130,2|2,0:0|0:0,0:0:0:0:
100,139,182704,2,0,L|177:107,1,65,8|2,0:0|0:0,0:0:0:0:
214,91,183166,2,0,P|250:145|311:176,1,130,2|10,0:0|0:0,0:0:0:0:
365,180,183858,2,0,P|416:230|413:313,1,130,2|2,0:0|0:0,0:0:0:0:
403,341,184551,1,8,0:0:0:0:
286,350,185013,6,0,L|198:359,2,65,2|2|10,0:0|0:0|0:0,0:0:0:0:
334,317,185705,2,0,P|355:256|332:188,1,130,2|2,0:0|0:0,0:0:0:0:
282,176,186397,2,0,L|208:198,1,65,8|2,0:0|0:0,0:0:0:0:
166,219,186859,2,0,P|152:273|123:298,1,65,2|2,0:0|0:0,0:0:0:0:
120,332,187320,1,10,0:0:0:0:
169,363,187551,2,0,B|223:347|223:347|234:330|234:330|300:310,1,130,2|10,0:0|0:0,0:0:0:0:
342,300,188243,1,8,0:0:0:0:
404,201,188705,6,0,L|439:123,1,65,2|2,0:0|0:0,0:0:0:0:
452,87,189166,1,10,0:0:0:0:
401,58,189397,2,0,P|337:68|269:49,1,130,2|2,0:0|0:0,0:0:0:0:
219,31,190089,2,0,P|192:52|159:63,1,65,8|2,0:0|0:0,0:0:0:0:
106,77,190550,2,0,L|62:18,2,65,2|2|10,0:0|0:0|0:0,0:0:0:0:
99,135,191243,2,0,P|123:194|95:255,1,130,2|2,0:0|0:0,0:0:0:0:
53,290,191936,1,8,0:0:0:0:
156,344,192397,6,0,P|192:353|237:348,1,65,2|2,0:0|0:0,0:0:0:0:
270,323,192859,1,10,0:0:0:0:
317,288,193090,2,0,P|331:224|293:165,1,130,2|2,0:0|0:0,0:0:0:0:
262,126,193782,2,0,L|317:90,1,65,8|2,0:0|0:0,0:0:0:0:
364,56,194243,2,0,L|317:-2,2,65,2|2|10,0:0|0:0|0:0,0:0:0:0:
404,98,194936,1,2,0:0:0:0:
456,208,195397,1,10,0:0:0:0:
456,208,195627,2,0,L|416:267,1,65,8|2,0:0|0:0,0:0:0:0:
371,296,196090,6,0,P|339:301|297:320,1,65,6|2,0:0|0:0,0:0:0:0:
257,341,196551,1,10,0:0:0:0:
199,331,196782,2,0,P|137:310|103:242,1,130,2|2,0:0|0:0,0:0:0:0:
70,209,197474,1,8,0:0:0:0:
93,155,197704,1,2,0:0:0:0:
64,103,197936,2,0,L|126:51,1,65,2|2,0:0|0:0,0:0:0:0:
160,25,198397,1,10,0:0:0:0:
216,38,198628,2,0,P|252:91|334:107,1,130,2|2,0:0|0:0,0:0:0:0:
370,102,199320,1,8,0:0:0:0:
457,180,199782,6,0,L|514:228,2,65,2|2|10,0:0|0:0|0:0,0:0:0:0:
408,147,200474,2,0,P|345:133|280:70,1,130,2|2,0:0|0:0,0:0:0:0:
236,96,201166,1,8,0:0:0:0:
199,50,201397,1,2,0:0:0:0:
140,56,201628,2,0,P|122:91|86:120,1,65,2|2,0:0|0:0,0:0:0:0:
62,150,202090,1,10,0:0:0:0:
73,207,202320,2,0,P|137:218|213:266,1,130,2|10,0:0|0:0,0:0:0:0:
240,284,203013,1,8,0:0:0:0:
270,171,203474,6,0,P|257:135|263:97,1,65,2|2,0:0|0:0,0:0:0:0:
280,54,203936,1,10,0:0:0:0:
338,49,204166,2,0,B|368:64|385:94|385:94|418:89|456:107,1,130,2|2,0:0|0:0,0:0:0:0:
506,99,204859,1,8,0:0:0:0:
511,157,205089,1,2,0:0:0:0:
477,205,205320,2,0,L|413:238,1,65,2|2,0:0|0:0,0:0:0:0:
364,256,205781,1,10,0:0:0:0:
317,221,206013,2,0,P|272:178|201:155,1,130,2|2,0:0|0:0,0:0:0:0:
150,151,206705,1,8,0:0:0:0:
40,191,207166,5,2,0:0:0:0:
42,250,207397,2,0,P|47:292|69:318,1,65,2|10,0:0|0:0,0:0:0:0:
117,322,207859,2,0,B|174:286|250:306,1,130,2|2,0:0|0:0,0:0:0:0:
296,325,208550,1,8,0:0:0:0:
351,306,208781,1,2,0:0:0:0:
379,254,209013,2,0,P|387:216|384:185,1,65,2|2,0:0|0:0,0:0:0:0:
378,132,209474,1,10,0:0:0:0:
349,80,209705,2,0,P|293:44|222:57,1,130,2|10,0:0|0:0,0:0:0:0:
192,94,210397,1,8,0:0:0:0:
256,192,210859,5,4,0:0:0:0:
256,192,210973,12,0,218243,0:0:0:0:
