osu file format v14

[General]
AudioFilename: 02. .mp3
AudioLeadIn: 0
PreviewTime: 62705
Countdown: 0
SampleSet: Normal
StackLeniency: 0.2
Mode: 0
LetterboxInBreaks: 0
WidescreenStoryboard: 0

[Editor]
Bookmarks: 5935,113704,166781,167012,208550
DistanceSpacing: 1
BeatDivisor: 4
GridSize: 4
TimelineZoom: 1.9

[Metadata]
Title:Kokoro no Inryoku
TitleUnicode:ココロの引力
Artist:ClariS
ArtistUnicode:ClariS
Creator:RVMathew
Version:Hard
Source:
Tags:俺の妹がこんなに可愛いわけがない Ore no Imouto ga Konna ni Kawaii Wake ga nai oreimo irony single My Little Sister Can't Be This Cute Clara Alice
BeatmapID:1056780
BeatmapSetID:215479

[Difficulty]
HPDrainRate:5
CircleSize:5
OverallDifficulty:7
ApproachRate:7
SliderMultiplier:1.8
SliderTickRate:2

[Events]
//Background and Video events
0,0,"Background4-Hard.jpg",0,0
//Break Periods
//Storyboard Layer 0 (Background)
//Storyboard Layer 1 (Fail)
//Storyboard Layer 2 (Pass)
//Storyboard Layer 3 (Foreground)
//Storyboard Sound Samples

[TimingPoints]
397,461.538461538462,4,2,1,40,1,0
512,-111.111111111111,4,2,1,40,0,0
18859,-100,4,2,1,60,0,0
33628,-100,4,2,1,60,0,0
34090,-100,4,2,2,60,0,0
34147,-100,4,2,1,60,0,0
48397,-100,4,2,1,60,0,0
63166,-100,4,2,1,60,0,1
66628,-100,4,2,1,25,0,1
66859,-100,4,2,1,60,0,1
67090,-100,4,2,1,25,0,1
67320,-100,4,2,1,60,0,1
67551,-100,4,2,1,25,0,1
67782,-100,4,2,1,60,0,1
68013,-100,4,2,1,25,0,1
68128,-100,4,2,1,60,0,1
74013,-100,4,2,1,25,0,1
74243,-100,4,2,1,60,0,1
74474,-100,4,2,1,25,0,1
74705,-100,4,2,1,60,0,1
74936,-100,4,2,1,25,0,1
75166,-100,4,2,1,60,0,1
75397,-100,4,2,1,25,0,1
75628,-100,4,2,1,60,0,1
77935,-100,4,2,1,60,0,0
92705,-100,4,2,1,60,0,0
107474,-100,4,2,1,60,0,0
122243,-100,4,2,1,60,0,1
125705,-100,4,2,1,25,0,1
125936,-100,4,2,1,60,0,1
126166,-100,4,2,1,25,0,1
126397,-100,4,2,1,60,0,1
126628,-100,4,2,1,25,0,1
126859,-100,4,2,1,60,0,1
127090,-100,4,2,1,25,0,1
127320,-100,4,2,1,60,0,1
133090,-100,4,2,1,25,0,1
133320,-100,4,2,1,60,0,1
133551,-100,4,2,1,25,0,1
133782,-100,4,2,1,60,0,1
134013,-100,4,2,1,25,0,1
134243,-100,4,2,1,60,0,1
134474,-100,4,2,1,25,0,1
134705,-100,4,2,1,60,0,1
137012,-114.942528735632,4,2,1,60,0,0
139320,-114.942528735632,4,2,2,60,0,0
139378,-114.942528735632,4,2,1,60,0,0
144397,-114.942528735632,4,2,1,60,0,0
149936,-142.857142857143,4,2,1,60,0,0
150397,-142.857142857143,4,2,2,60,0,0
150455,-142.857142857143,4,2,1,60,0,0
151090,-142.857142857143,4,2,2,60,0,0
151147,-142.857142857143,4,2,1,60,0,0
151435,-111.111111111111,4,2,1,60,0,0
151781,-90.9090909090909,4,1,1,60,0,1
155243,-90.9090909090909,4,1,1,25,0,1
155474,-90.9090909090909,4,1,1,60,0,1
155705,-90.9090909090909,4,1,1,25,0,1
155936,-90.9090909090909,4,1,1,60,0,1
156166,-90.9090909090909,4,1,1,25,0,1
156397,-90.9090909090909,4,1,1,60,0,1
156628,-90.9090909090909,4,1,1,25,0,1
156859,-90.9090909090909,4,1,1,60,0,1
162628,-90.9090909090909,4,1,1,25,0,1
162859,-90.9090909090909,4,1,1,60,0,1
163090,-90.9090909090909,4,1,1,25,0,1
163320,-90.9090909090909,4,1,1,60,0,1
163551,-90.9090909090909,4,1,1,25,0,1
163782,-90.9090909090909,4,1,1,60,0,1
164013,-90.9090909090909,4,1,1,25,0,1
164243,-90.9090909090909,4,1,1,60,0,1
166089,-90.9090909090909,4,1,1,60,0,0
166550,-90.9090909090909,4,1,1,60,0,1
170013,-90.9090909090909,4,1,1,25,0,1
170243,-90.9090909090909,4,1,1,60,0,1
170474,-90.9090909090909,4,1,1,25,0,1
170705,-90.9090909090909,4,1,1,60,0,1
170936,-90.9090909090909,4,1,1,25,0,1
171166,-90.9090909090909,4,1,1,60,0,1
171397,-90.9090909090909,4,1,1,25,0,1
171513,-90.9090909090909,4,1,1,60,0,1
177397,-90.9090909090909,4,1,1,25,0,1
177628,-90.9090909090909,4,1,1,60,0,1
177859,-90.9090909090909,4,1,1,25,0,1
178090,-90.9090909090909,4,1,1,60,0,1
178320,-90.9090909090909,4,1,1,25,0,1
178551,-90.9090909090909,4,1,1,60,0,1
178782,-90.9090909090909,4,1,1,25,0,1
179013,-90.9090909090909,4,1,1,60,0,1
181320,-90.9090909090909,4,1,1,60,0,0
196090,-90.9090909090909,4,1,1,60,0,0
210859,-90.9090909090909,4,1,1,60,0,0
218243,-90.9090909090909,4,2,1,5,0,0

[Colours]
Combo1 : 255,140,26
Combo2 : 105,147,233
Combo3 : 102,196,26
Combo4 : 232,98,232
SliderBorder : 255,255,255
SliderTrackOverride : 35,35,35

[HitObjects]
485,58,3628,6,0,P|478:97|453:135,1,80.9999975280763
402,192,4090,6,0,L|277:192,1,121.499996292114
249,192,4551,2,0,L|117:192,2,121.499996292114,10|2|2,0:0|0:0|0:0,0:0:0:0:
330,192,5474,2,0,P|363:216|370:258,1,80.9999975280763,8|0,0:0|0:0,0:0:0:0:
333,325,5935,6,0,P|300:301|293:259,1,80.9999975280763,2|0,0:0|0:0,0:0:0:0:
370,253,6397,2,0,L|243:348,1,121.499996292114,10|2,0:0|0:0,0:0:0:0:
117,192,7320,6,0,B|149:229|142:265|142:265|181:269|216:298,1,161.999995056153,10|2,0:0|0:0,0:0:0:0:
395,192,8243,2,0,B|363:229|370:265|370:265|331:269|296:298,1,161.999995056153,10|2,0:0|0:0,0:0:0:0:
217,156,9166,2,0,P|256:164|305:153,1,80.9999975280763,8|2,0:0|0:0,0:0:0:0:
256,85,9628,6,0,B|256:233,1,121.499996292114,2|2,0:0|0:0,0:0:0:0:
198,313,10320,1,2,0:0:0:0:
119,294,10550,2,0,P|84:272|62:238,1,80.9999975280763,2|0,0:0|0:0,0:0:0:0:
27,166,11013,2,0,P|55:141|121:126,1,80.9999975280763,8|2,0:0|0:0,0:0:0:0:
176,132,11474,6,0,P|216:140|264:120,1,80.9999975280763,2|0,0:0|0:0,0:0:0:0:
292,56,11936,2,0,P|330:43|369:51,1,80.9999975280763,10|0,0:0|0:0,0:0:0:0:
391,63,12282,2,0,P|439:97|463:169,1,121.499996292114,2|2,0:0|0:0,0:0:0:0:
426,226,12859,2,0,P|429:268|471:308,1,80.9999975280763,8|0,0:0|0:0,0:0:0:0:
508,239,13320,6,0,L|344:300,1,161.999995056153,2|10,0:0|0:0,0:0:0:0:
234,289,14128,1,2,0:0:0:0:
92,144,14705,6,0,P|182:121|207:56,1,161.999995056153,10|2,0:0|0:0,0:0:0:0:
420,144,15628,2,0,P|330:121|305:56,1,161.999995056153,10|2,0:0|0:0,0:0:0:0:
256,217,16551,1,8,0:0:0:0:
177,239,16782,1,2,0:0:0:0:
236,296,17013,6,0,L|261:198,1,80.9999975280763,2|2,0:0|0:0,0:0:0:0:
274,253,17359,2,0,L|339:177,1,80.9999975280763,2|2,0:0|0:0,0:0:0:0:
327,232,17705,2,0,L|397:191,1,80.9999975280763,2|2,0:0|0:0,0:0:0:0:
326,150,18166,1,8,0:0:0:0:
326,150,18397,2,0,L|397:191,1,80.9999975280763,8|0,0:0|0:0,0:0:0:0:
488,191,18859,5,6,0:0:0:0:
453,108,19090,1,2,0:0:0:0:
482,23,19320,1,10,0:0:0:0:
394,47,19551,2,0,B|376:70|376:70|337:70|337:70|304:100,1,90,2|0,0:0|0:0,0:0:0:0:
257,148,20012,1,2,0:0:0:0:
191,84,20243,2,0,B|175:70|175:70|136:70|136:70|118:47,1,90,8|2,0:0|0:0,0:0:0:0:
30,23,20705,5,2,0:0:0:0:
16,112,20936,2,0,B|1:156|1:156|28:228,1,90,2|10,0:0|0:0,0:0:0:0:
65,272,21397,2,0,P|137:323|231:351,1,180,2|2,0:0|0:0,0:0:0:0:
313,360,22089,1,8,0:0:0:0:
401,341,22320,1,2,0:0:0:0:
313,360,22551,6,0,P|335:322|320:261,1,90,2|2,0:0|0:0,0:0:0:0:
302,192,23013,1,10,0:0:0:0:
372,136,23243,2,0,P|407:109|451:110,1,90,2|0,0:0|0:0,0:0:0:0:
440,200,23705,1,2,0:0:0:0:
440,200,23935,2,0,P|404:226|360:225,1,90,8|2,0:0|0:0,0:0:0:0:
275,193,24397,5,2,0:0:0:0:
190,221,24628,2,0,P|166:258|167:303,1,90,2|10,0:0|0:0,0:0:0:0:
256,288,25090,2,0,L|67:226,1,180,2|10,0:0|0:0,0:0:0:0:
59,145,25782,2,0,P|65:102|99:58,1,90,8|2,0:0|0:0,0:0:0:0:
174,29,26243,5,2,0:0:0:0:
256,66,26474,1,2,0:0:0:0:
338,29,26704,1,10,0:0:0:0:
335,119,26936,2,0,P|334:166|310:201,1,90,2|0,0:0|0:0,0:0:0:0:
224,222,27397,2,0,P|224:174|248:139,1,90,2|8,0:0|0:0,0:0:0:0:
310,200,27859,1,2,0:0:0:0:
291,288,28090,5,2,0:0:0:0:
357,349,28321,1,2,0:0:0:0:
378,262,28550,1,10,0:0:0:0:
291,288,28782,2,0,P|202:276|126:228,1,180,2|2,0:0|0:0,0:0:0:0:
53,176,29474,1,8,0:0:0:0:
134,138,29705,1,2,0:0:0:0:
126,228,29936,5,2,0:0:0:0:
53,280,30166,1,2,0:0:0:0:
134,320,30397,1,10,0:0:0:0:
221,343,30628,2,0,P|258:324|290:288,1,90,2|0,0:0|0:0,0:0:0:0:
330,207,31090,1,2,0:0:0:0:
246,174,31320,2,0,P|221:137|220:88,1,90,8|2,0:0|0:0,0:0:0:0:
282,28,31782,6,0,P|307:65|308:114,1,90,2|2,0:0|0:0,0:0:0:0:
246,174,32243,1,10,0:0:0:0:
330,207,32474,2,0,P|346:248|380:276,1,90,2|0,0:0|0:0,0:0:0:0:
461,318,32936,1,10,0:0:0:0:
506,240,33166,1,8,0:0:0:0:
389,102,33628,5,4,0:0:0:0:
477,84,33859,2,0,P|453:168|349:180,1,180,2|2,0:0|0:0,0:0:0:0:
299,135,34551,2,0,P|255:124|212:135,1,90,2|2,0:0|0:0,0:0:0:0:
166,214,35012,1,10,0:0:0:0:
166,214,35243,6,0,P|178:256|209:288,1,90,2|0,0:0|0:0,0:0:0:0:
302,289,35704,2,0,P|333:257|345:214,1,90,2|8,0:0|0:0,0:0:0:0:
299,135,36166,2,0,P|255:124|212:135,1,90,2|0,0:0|0:0,0:0:0:0:
166,214,36628,1,2,0:0:0:0:
86,171,36859,2,0,P|61:135|71:83,1,90,10|2,0:0|0:0,0:0:0:0:
133,30,37320,5,0,0:0:0:0:
210,77,37551,1,2,0:0:0:0:
210,77,37782,2,0,P|250:104|322:100,1,90,10|2,0:0|0:0,0:0:0:0:
380,96,38243,1,0,0:0:0:0:
323,26,38474,1,2,0:1:0:0:
290,108,38705,1,8,0:0:0:0:
336,179,38936,6,0,P|318:222|327:277,1,90,2|0,0:0|0:0,0:0:0:0:
394,317,39397,2,0,P|412:273|403:219,1,90,2|8,0:0|0:0,0:0:0:0:
322,263,39859,2,0,L|507:298,1,180,2|8,0:0|0:0,0:0:0:0:
498,296,40551,1,8,0:0:0:0:
498,115,41013,5,0,0:0:0:0:
415,149,41243,2,0,P|370:141|322:122,1,90,2|10,0:0|0:0,0:0:0:0:
256,71,41705,1,2,0:0:0:0:
168,49,41936,2,0,P|123:46|79:75,1,90,2|2,0:0|0:0,0:0:0:0:
148,138,42397,1,10,0:0:0:0:
148,138,42628,6,0,P|114:167|103:219,1,90,2|0,0:0|0:0,0:0:0:0:
193,212,43090,2,0,P|190:257|218:301,1,90,2|8,0:0|0:0,0:0:0:0:
280,236,43551,2,0,P|309:269|361:280,1,90,2|0,0:0|0:0,0:0:0:0:
358,191,44013,1,2,0:0:0:0:
358,191,44243,2,0,P|403:194|447:165,1,90,10|2,0:0|0:0,0:0:0:0:
381,104,44705,5,0,0:0:0:0:
320,36,44936,1,2,0:0:0:0:
320,37,45166,2,0,P|358:15|402:18,1,90,10|2,0:0|0:0,0:0:0:0:
464,85,45628,1,0,0:0:0:0:
440,172,45859,2,0,P|429:214|399:251,1,90,2|8,0:0|0:0,0:0:0:0:
348,183,46320,6,0,P|317:214|273:232,1,90,2|0,0:0|0:0,0:0:0:0:
269,142,46782,2,0,P|226:136|188:108,1,90,2|8,0:0|0:0,0:0:0:0:
115,57,47243,2,0,P|51:117|42:239,1,180,2|8,0:0|0:0,0:0:0:0:
76,285,47936,1,8,0:0:0:0:
242,352,48397,6,0,B|285:329|329:338|329:338|351:292|417:251,1,180,4|8,0:0|0:0,0:0:0:0:
448,203,49090,1,0,0:0:0:0:
449,113,49320,1,0,0:0:0:0:
391,44,49551,1,0,0:0:0:0:
304,21,49781,1,8,0:0:0:0:
214,36,50013,6,0,B|165:47|125:98,1,90,2|0,0:0|0:0,0:0:0:0:
220,122,50474,2,0,B|185:158|183:222,1,90,2|8,0:0|0:0,0:0:0:0:
274,191,50935,2,0,B|270:240|310:291,1,90,2|0,0:0|0:0,0:0:0:0:
366,215,51397,2,0,B|395:255|458:268,1,90,2|8,0:0|0:0,0:0:0:0:
448,173,51859,1,0,0:0:0:0:
448,173,52089,6,0,B|419:133|356:120,1,90
289,95,52551,1,8,0:0:0:0:
201,118,52782,1,0,0:0:0:0:
143,49,53013,1,0,0:0:0:0:
231,33,53243,1,0,0:0:0:0:
201,118,53474,1,8,0:0:0:0:
111,127,53705,6,0,P|83:163|74:215,1,90,2|0,0:0|0:0,0:0:0:0:
92,294,54166,1,2,0:0:0:0:
182,288,54397,1,8,0:0:0:0:
254,342,54628,1,2,0:0:0:0:
330,288,54859,1,0,0:0:0:0:
420,294,55089,1,10,0:0:0:0:
330,288,55320,1,8,0:0:0:0:
254,342,55550,1,0,0:0:0:0:
206,264,55782,6,0,P|162:191|206:117,1,180,0|8,0:0|0:0,0:0:0:0:
256,192,56474,1,0,0:0:0:0:
328,138,56705,1,0,0:0:0:0:
400,192,56936,1,0,0:0:0:0:
327,244,57166,1,8,0:0:0:0:
256,192,57397,6,0,L|171:219,1,90,2|0,0:0|0:0,0:0:0:0:
256,192,57859,2,0,L|204:119,1,90,2|8,0:0|0:0,0:0:0:0:
256,192,58320,2,0,L|310:119,1,90,2|0,0:0|0:0,0:0:0:0:
256,192,58782,2,0,L|342:219,1,90,2|8,0:0|0:0,0:0:0:0:
256,282,59243,1,0,0:0:0:0:
165,282,59474,6,0,P|151:323|166:365,1,90,4|0,0:0|0:0,0:0:0:0:
255,348,59936,1,8,0:0:0:0:
343,365,60166,2,0,P|357:323|343:281,1,90,4|0,0:0|0:0,0:0:0:0:
256,258,60628,1,4,0:0:0:0:
215,178,60859,2,0,B|256:162|256:162|300:178,1,90,12|4,0:0|0:0,0:0:0:0:
256,192,61205,12,0,62243,0:0:0:0:
179,192,62705,5,8,0:0:0:0:
332,192,62936,1,0,0:0:0:0:
256,239,63166,6,0,L|256:149,1,90,6|0,0:0|0:0,0:0:0:0:
201,80,63628,1,10,0:0:0:0:
312,83,63859,1,0,0:0:0:0:
312,83,63974,2,0,P|360:72|402:39,1,90,2|0,0:0|0:0,0:0:0:0:
414,32,64320,1,2,0:0:0:0:
491,78,64551,2,0,B|520:122|491:189,1,90,8|0,0:0|0:0,0:0:0:0:
434,227,65013,6,0,B|389:242|348:284,1,90,2|0,0:0|0:0,0:0:0:0:
281,321,65474,2,0,B|210:341|134:302,1,135,10|2,0:0|0:0,0:0:0:0:
40,230,66166,1,0,0:0:0:0:
16,143,66397,6,0,P|4:97|22:45,1,90,10|0,0:0|0:0,0:0:0:0:
94,100,66858,2,0,P|110:55|154:23,1,90,2|0,0:0|0:0,0:0:0:0:
193,102,67320,2,0,P|233:78|288:81,1,90,10|0,0:0|0:0,0:0:0:0:
255,165,67781,2,0,P|301:173|341:210,1,90,2|0,0:0|0:0,0:0:0:0:
382,276,68243,1,8,0:0:0:0:
300,315,68474,1,2,0:0:0:0:
300,315,68705,6,0,L|194:325,1,90,2|2,0:0|0:0,0:0:0:0:
213,345,69051,2,0,L|108:321,1,90,2|2,0:0|0:0,0:0:0:0:
130,346,69397,2,0,L|44:291,1,90,2|2,0:0|0:0,0:0:0:0:
4,222,69859,1,8,0:0:0:0:
4,222,70090,2,0,P|4:177|33:129,1,90,8|0,0:0|0:0,0:0:0:0:
108,104,70551,6,0,B|153:104|189:71,1,90,2|0,0:0|0:0,0:0:0:0:
256,10,71013,1,10,0:0:0:0:
323,70,71243,1,0,0:0:0:0:
307,91,71359,2,0,P|287:135|312:205,1,90,2|0,0:0|0:0,0:0:0:0:
303,199,71705,1,2,0:0:0:0:
336,283,71936,2,0,L|255:323,1,90,8|0,0:0|0:0,0:0:0:0:
175,282,72397,6,0,L|256:324,1,90,2|0,0:0|0:0,0:0:0:0:
256,234,72859,2,0,P|317:202|366:134,1,135,10|2,0:0|0:0,0:0:0:0:
419,31,73551,1,0,0:0:0:0:
470,105,73782,6,0,P|493:147|479:225,1,90,10|0,0:0|0:0,0:0:0:0:
406,169,74243,2,0,P|400:216|344:272,1,90,2|0,0:0|0:0,0:0:0:0:
320,182,74704,2,0,P|288:217|210:231,1,90,10|0,0:0|0:0,0:0:0:0:
234,144,75166,2,0,P|187:155|115:121,1,90,2|0,0:0|0:0,0:0:0:0:
64,110,75628,1,8,0:0:0:0:
36,24,75859,1,2,0:0:0:0:
125,35,76090,5,2,0:0:0:0:
256,192,76205,12,8,77474,0:0:0:0:
256,192,77936,5,6,0:0:0:0:
181,142,78166,1,2,0:0:0:0:
256,92,78397,1,10,0:0:0:0:
331,142,78627,1,2,0:0:0:0:
255,192,78858,2,0,P|256:237|308:286,1,90,0|2,0:0|0:0,0:0:0:0:
370,292,79320,2,0,P|369:247|317:198,1,90,8|2,0:0|0:0,0:0:0:0:
256,192,79781,5,2,0:0:0:0:
168,211,80012,2,0,P|142:247|142:292,1,90,2|10,0:0|0:0,0:0:0:0:
178,375,80473,1,2,0:0:0:0:
256,330,80704,1,0,0:0:0:0:
334,375,80935,1,2,0:0:0:0:
256,330,81166,1,8,0:0:0:0:
370,191,81627,6,0,P|395:150|388:94,2,90,2|2|10,0:0|0:0|0:0,0:0:0:0:
313,261,82320,1,2,0:0:0:0:
401,276,82550,1,0,0:0:0:0:
370,191,82781,1,2,0:0:0:0:
313,261,83012,1,8,0:0:0:0:
401,276,83243,1,2,0:0:0:0:
313,261,83473,6,0,P|262:267|217:294,1,90,2|2,0:0|0:0,0:0:0:0:
149,330,83935,1,10,0:0:0:0:
89,262,84166,2,0,P|59:228|68:155,1,90,2|0,0:0|0:0,0:0:0:0:
110,114,84627,2,0,P|163:124|230:91,1,90,10|8,0:0|0:0,0:0:0:0:
279,78,85089,1,2,0:0:0:0:
339,147,85320,5,2,0:0:0:0:
292,224,85550,1,2,0:0:0:0:
203,204,85781,1,10,0:0:0:0:
197,115,86012,2,0,P|199:65|162:20,2,90,2|0|2,0:0|0:0|0:0,0:0:0:0:
203,204,86704,1,8,0:0:0:0:
128,254,86935,1,2,0:0:0:0:
187,322,87166,6,0,P|223:351|297:352,1,90,2|2,0:0|0:0,0:0:0:0:
260,269,87627,1,10,0:0:0:0:
260,269,87858,2,0,P|306:268|363:221,1,90,2|0,0:0|0:0,0:0:0:0:
282,181,88320,2,0,P|321:156|346:86,2,90,2|8|2,0:0|0:0|0:0,0:0:0:0:
260,269,89012,5,2,0:0:0:0:
187,322,89242,1,2,0:0:0:0:
107,280,89473,1,8,0:0:0:0:
60,202,89704,2,0,P|38:162|45:113,1,90,2|0,0:0|0:0,0:0:0:0:
111,61,90166,1,2,0:0:0:0:
111,61,90397,2,0,P|133:101|126:150,1,90,8|2,0:0|0:0,0:0:0:0:
192,207,90858,6,0,P|220:241|278:253,1,90,2|2,0:0|0:0,0:0:0:0:
343,295,91320,2,0,P|349:340|379:382,2,90,10|2|0,0:0|0:0|0:0,0:0:0:0:
425,258,92012,1,10,0:0:0:0:
410,169,92243,1,8,0:0:0:0:
256,76,92705,5,4,0:0:0:0:
333,122,92936,1,2,0:0:0:0:
256,169,93167,2,0,P|255:217|211:257,1,90,10|2,0:0|0:0,0:0:0:0:
142,271,93627,1,2,0:0:0:0:
166,358,93858,1,2,0:0:0:0:
253,335,94089,1,10,0:0:0:0:
346,358,94320,6,0,P|390:354|430:329,1,90,2|0,0:0|0:0,0:0:0:0:
461,247,94781,2,0,P|456:202|431:165,1,90,2|8,0:0|0:0,0:0:0:0:
347,132,95243,2,0,P|302:122|261:77,1,90,2|0,0:0|0:0,0:0:0:0:
341,38,95705,1,2,0:0:0:0:
341,38,95935,2,0,P|386:48|427:93,1,90,10|2,0:0|0:0,0:0:0:0:
431,166,96397,5,0,0:0:0:0:
386,244,96628,1,2,0:0:0:0:
307,287,96859,2,0,P|266:305|214:304,1,90,10|2,0:0|0:0,0:0:0:0:
133,274,97320,1,0,0:0:0:0:
82,199,97550,2,0,P|71:155|88:115,1,90,2|8,0:0|0:0,0:0:0:0:
166,68,98012,6,0,P|208:80|275:77,1,90,2|0,0:0|0:0,0:0:0:0:
313,148,98473,2,0,P|323:194|383:233,1,90,2|8,0:0|0:0,0:0:0:0:
402,147,98936,2,0,B|246:242,1,180,2|8,0:0|0:0,0:0:0:0:
287,322,99628,6,0,L|373:271,2,90,8|0|0,0:0|0:0|0:0,0:0:0:0:
206,361,100320,1,2,0:0:0:0:
156,286,100550,1,10,0:0:0:0:
69,260,100782,1,2,0:0:0:0:
127,192,101012,1,2,0:0:0:0:
69,124,101243,1,2,0:0:0:0:
156,98,101474,1,10,0:0:0:0:
206,23,101705,6,0,P|255:37|299:37,1,90,2|0,0:0|0:0,0:0:0:0:
382,57,102166,2,0,P|405:100|382:148,1,90,2|8,0:0|0:0,0:0:0:0:
321,192,102628,2,0,P|283:219|262:261,1,90,2|0,0:0|0:0,0:0:0:0:
310,333,103090,1,2,0:0:0:0:
310,333,103320,2,0,P|348:306|369:264,1,90,10|2,0:0|0:0,0:0:0:0:
321,192,103782,5,0,0:0:0:0:
367,116,104012,2,0,P|345:76|309:51,1,90,2|10,0:0|0:0,0:0:0:0:
263,127,104473,2,0,P|284:166|320:191,1,90,2|0,0:0|0:0,0:0:0:0:
410,172,104936,2,0,P|450:195|473:248,1,90,2|8,0:0|0:0,0:0:0:0:
383,256,105397,6,0,P|398:300|381:355,1,90,2|0,0:0|0:0,0:0:0:0:
309,300,105859,2,0,P|281:338|226:355,1,90,2|8,0:0|0:0,0:0:0:0:
228,266,106320,2,0,P|144:267|69:213,1,180,2|8,0:0|0:0,0:0:0:0:
23,134,107013,1,8,0:0:0:0:
166,26,107474,5,4,0:0:0:0:
347,26,107936,1,8,0:0:0:0:
431,57,108166,1,0,0:0:0:0:
419,146,108397,1,0,0:0:0:0:
481,211,108627,1,0,0:0:0:0:
444,293,108858,1,8,0:0:0:0:
357,266,109090,6,0,P|312:263|269:276,1,90,2|0,0:0|0:0,0:0:0:0:
192,322,109551,2,0,P|148:330|103:322,1,90,2|8,0:0|0:0,0:0:0:0:
56,245,110013,2,0,P|41:202|42:157,1,90,2|0,0:0|0:0,0:0:0:0:
85,79,110474,2,0,P|127:55|175:42,1,90,2|8,0:0|0:0,0:0:0:0:
256,26,110936,1,0,0:0:0:0:
345,43,111166,6,0,P|388:56|427:79,1,90
478,153,111627,1,8,0:0:0:0:
399,197,111857,1,0,0:0:0:0:
437,279,112088,1,0,0:0:0:0:
349,301,112320,1,0,0:0:0:0:
263,329,112549,1,8,0:0:0:0:
263,329,112782,6,0,P|231:307|180:294,1,90,2|0,0:0|0:0,0:0:0:0:
98,262,113243,1,2,0:0:0:0:
84,173,113473,2,0,P|70:131|74:87,1,90,8|2,0:0|0:0,0:0:0:0:
159,122,113936,1,0,0:0:0:0:
159,122,114166,2,0,P|175:172|167:223,1,90,10|8,0:0|0:0,0:0:0:0:
256,240,114628,1,0,0:0:0:0:
340,210,114859,6,0,P|337:166|352:124,1,90
438,87,115320,1,8,0:0:0:0:
438,87,115551,2,0,P|442:131|427:174,1,90
340,210,116013,1,0,0:0:0:0:
256,240,116243,1,8,0:0:0:0:
165,242,116473,6,0,P|178:285|209:317,1,90,2|0,0:0|0:0,0:0:0:0:
302,317,116935,2,0,P|333:285|345:242,1,90,2|8,0:0|0:0,0:0:0:0:
299,164,117397,2,0,P|255:153|212:164,1,90,2|0,0:0|0:0,0:0:0:0:
166,243,117858,2,0,P|178:285|209:317,1,90,2|8,0:0|0:0,0:0:0:0:
256,240,118320,1,0,0:0:0:0:
302,317,118551,6,0,P|343:332|384:317,2,90,4|0|8,0:0|0:0|0:0,0:0:0:0:
210,318,119243,2,0,P|168:333|127:318,1,90,4|0,0:0|0:0,0:0:0:0:
56,261,119705,1,4,0:0:0:0:
140,229,119936,1,12,0:0:0:0:
127,318,120166,1,4,0:0:0:0:
256,192,120282,12,0,121320,0:0:0:0:
256,257,121782,5,8,0:0:0:0:
192,193,122013,1,0,0:0:0:0:
256,129,122243,6,0,P|299:117|336:93,1,90,6|0,0:0|0:0,0:0:0:0:
400,29,122705,1,10,0:0:0:0:
463,93,122936,1,0,0:0:0:0:
479,114,123051,2,0,P|492:156|485:216,1,90,2|0,0:0|0:0,0:0:0:0:
477,225,123397,1,2,0:0:0:0:
415,290,123628,2,0,B|389:301|381:319|381:319|359:315|323:327,1,90,8|0,0:0|0:0,0:0:0:0:
249,346,124090,5,2,0:0:0:0:
230,258,124320,1,0,0:0:0:0:
140,280,124551,2,0,P|175:323|270:344,1,135,10|2,0:0|0:0,0:0:0:0:
256,192,125243,1,0,0:0:0:0:
299,109,125474,6,0,B|256:93|256:93|216:110,1,90,10|0,0:0|0:0,0:0:0:0:
125,122,125936,2,0,P|102:159|66:187,1,90,2|0,0:0|0:0,0:0:0:0:
65,277,126397,2,0,P|100:304|124:342,1,90,10|0,0:0|0:0,0:0:0:0:
216,342,126859,2,0,B|256:359|256:359|299:342,1,90,2|0,0:0|0:0,0:0:0:0:
387,321,127320,1,8,0:0:0:0:
463,273,127551,1,2,0:0:0:0:
489,187,127782,6,0,P|476:101|453:73,1,90,2|2,0:0|0:0,0:0:0:0:
445,134,128128,2,0,P|396:62|363:46,1,90,2|2,0:0|0:0,0:0:0:0:
398,107,128474,2,0,P|322:64|286:64,1,90,2|2,0:0|0:0,0:0:0:0:
234,41,128935,1,8,0:0:0:0:
147,66,129166,1,8,0:0:0:0:
165,154,129397,1,0,0:0:0:0:
81,186,129628,5,2,0:0:0:0:
117,269,129859,1,0,0:0:0:0:
39,314,130090,1,10,0:0:0:0:
113,364,130320,1,0,0:0:0:0:
140,364,130436,2,0,P|198:364|266:334,1,90,2|0,0:0|0:0,0:0:0:0:
248,345,130782,2,0,P|275:305|344:262,1,90,2|8,0:0|0:0,0:0:0:0:
376,221,131243,1,0,0:0:0:0:
455,262,131474,5,2,0:0:0:0:
511,192,131705,1,0,0:0:0:0:
431,150,131936,2,0,P|367:130|293:190,1,135,10|2,0:0|0:0,0:0:0:0:
199,238,132628,1,0,0:0:0:0:
116,203,132858,6,0,P|79:176|56:132,1,90,10|0,0:0|0:0,0:0:0:0:
146,120,133320,2,0,P|134:75|144:27,1,90,2|0,0:0|0:0,0:0:0:0:
222,73,133781,2,0,P|246:34|288:8,1,90,10|0,0:0|0:0,0:0:0:0:
311,96,134243,2,0,P|354:81|403:87,1,90,2|0,0:0|0:0,0:0:0:0:
363,169,134705,1,8,0:0:0:0:
311,243,134936,1,2,0:0:0:0:
226,273,135166,5,2,0:0:0:0:
256,192,135282,12,8,136551,0:0:0:0:
256,100,137013,5,6,0:0:0:0:
194,147,137243,1,0,0:0:0:0:
175,167,137359,1,0,0:0:0:0:
153,183,137474,1,8,0:0:0:0:
155,265,137705,1,2,0:0:0:0:
155,265,137820,1,2,0:0:0:0:
256,324,138166,2,0,P|292:308|321:266,1,78.3000006571198,0|8,0:0|0:0,0:0:0:0:
354,210,138628,1,2,0:0:0:0:
340,132,138859,6,0,P|318:72|277:32,2,117.45000098568,2|2|2,0:0|0:0|0:0,0:0:0:0:
354,210,139782,2,0,B|309:201|260:217,1,78.3000006571198,2|0,0:0|0:0,0:0:0:0:
201,234,140243,1,10,0:0:0:0:
301,354,140705,5,2,0:0:0:0:
373,317,140936,1,0,0:0:0:0:
393,301,141051,1,0,0:0:0:0:
404,276,141166,1,8,0:0:0:0:
429,200,141397,2,0,L|405:152,1,39.1500003285599,2|2,0:0|0:0,0:0:0:0:
365,56,141859,1,0,0:0:0:0:
292,28,142090,1,8,0:0:0:0:
214,28,142320,1,2,0:0:0:0:
137,43,142551,6,0,P|116:77|85:99,1,78.3000006571198,2|2,0:0|0:0,0:0:0:0:
59,109,142897,2,0,P|32:147|22:181,1,78.3000006571198,2|2,0:0|0:0,0:0:0:0:
15,203,143243,1,2,0:0:0:0:
65,263,143474,1,2,0:0:0:0:
140,285,143705,1,0,0:0:0:0:
167,285,143820,1,0,0:0:0:0:
194,285,143936,2,0,B|214:302|214:302|244:302|244:302|272:325,1,78.3000006571198,10|2,0:0|0:0,0:0:0:0:
328,355,144397,5,6,0:0:0:0:
394,312,144628,2,0,P|403:263|372:213,1,78.3000006571198,0|8,0:0|0:0,0:0:0:0:
349,177,145090,1,2,0:0:0:0:
349,177,145205,1,2,0:0:0:0:
302,69,145551,1,0,0:0:0:0:
224,60,145782,1,8,0:0:0:0:
178,123,146013,1,2,0:0:0:0:
123,179,146243,6,0,L|79:217,1,39.1500003285599,2|2,0:0|0:0,0:0:0:0:
156,251,146590,2,0,L|194:295,1,39.1500003285599,2|10,0:0|0:0,0:0:0:0:
238,334,146936,1,2,0:0:0:0:
314,319,147166,2,0,P|390:255|379:195,1,156.60000131424,2|10,0:0|0:0,0:0:0:0:
256,117,148090,5,2,0:0:0:0:
119,192,148551,1,10,0:0:0:0:
256,267,149013,1,2,0:0:0:0:
393,192,149474,1,10,0:0:0:0:
267,192,149936,6,0,B|460:192,2,188.999994232178,2|2|8,0:0|0:0|0:0,0:0:0:0:
186,192,151551,1,0,0:0:0:0:
112,148,151782,6,0,P|93:192|112:236,1,99.0000030212403,6|0,0:0|0:0,0:0:0:0:
175,312,152243,1,10,0:0:0:0:
271,332,152474,1,0,0:0:0:0:
271,332,152590,2,0,B|306:289|361:284,1,99.0000030212403,2|0,0:0|0:0,0:0:0:0:
380,282,152936,1,2,0:0:0:0:
457,220,153166,2,0,P|479:173|478:119,1,99.0000030212403,8|0,0:0|0:0,0:0:0:0:
391,81,153628,6,0,P|341:80|294:50,1,99.0000030212403,2|0,0:0|0:0,0:0:0:0:
212,9,154089,2,0,P|195:94|134:137,1,148.50000453186,10|2,0:0|0:0,0:0:0:0:
14,192,154782,1,0,0:0:0:0:
63,277,155012,6,0,P|88:319|140:344,1,99.0000030212403,10|0,0:0|0:0,0:0:0:0:
164,249,155473,2,0,P|203:277|261:280,1,99.0000030212403,2|0,0:0|0:0,0:0:0:0:
239,183,155935,2,0,P|286:194|340:174,1,99.0000030212403,10|0,0:0|0:0,0:0:0:0:
284,93,156397,2,0,P|332:84|374:45,1,99.0000030212403,2|0,0:0|0:0,0:0:0:0:
461,92,156859,1,8,0:0:0:0:
484,188,157090,1,2,0:0:0:0:
484,188,157320,6,0,P|479:240|443:283,1,99.0000030212403,2|2,0:0|0:0,0:0:0:0:
426,292,157666,2,0,B|373:305|373:305|320:343,1,99.0000030212403,2|2,0:0|0:0,0:0:0:0:
309,343,158013,2,0,P|261:353|199:339,1,99.0000030212403,2|2,0:0|0:0,0:0:0:0:
122,303,158474,1,8,0:0:0:0:
199,240,158705,2,0,P|218:197|199:127,1,99.0000030212403,8|0,0:0|0:0,0:0:0:0:
133,85,159166,6,0,P|114:128|133:198,1,99.0000030212403,2|0,0:0|0:0,0:0:0:0:
199,240,159628,1,10,0:0:0:0:
299,222,159859,1,0,0:0:0:0:
299,222,159974,2,0,P|346:200|375:157,1,99.0000030212403,2|0,0:0|0:0,0:0:0:0:
386,135,160320,1,2,0:0:0:0:
319,61,160551,2,0,P|279:43|216:32,1,99.0000030212403,8|0,0:0|0:0,0:0:0:0:
155,103,161013,6,0,P|143:152|80:198,1,99.0000030212403,2|0,0:0|0:0,0:0:0:0:
41,257,161474,2,0,P|137:273|200:306,1,148.50000453186,10|2,0:0|0:0,0:0:0:0:
318,354,162166,1,0,0:0:0:0:
379,276,162397,6,0,P|417:234|424:181,1,99.0000030212403,10|0,0:0|0:0,0:0:0:0:
326,194,162859,2,0,P|330:144|301:100,1,99.0000030212403,2|0,0:0|0:0,0:0:0:0:
206,103,163320,2,0,P|181:145|186:194,1,99.0000030212403,10|0,0:0|0:0,0:0:0:0:
86,193,163781,2,0,P|98:241|133:276,1,99.0000030212403,2|0,0:0|0:0,0:0:0:0:
217,329,164243,1,8,0:0:0:0:
315,322,164474,1,2,0:0:0:0:
315,322,164705,6,0,P|365:319|414:298,1,99.0000030212403,2|2,0:0|0:0,0:0:0:0:
429,277,165051,2,0,P|422:223|452:172,1,99.0000030212403,2|2,0:0|0:0,0:0:0:0:
460,161,165397,2,0,P|480:118|433:47,1,99.0000030212403,2|2,0:0|0:0,0:0:0:0:
378,23,165859,1,8,0:0:0:0:
301,85,166090,2,0,P|256:116|181:102,1,99.0000030212403,8|0,0:0|0:0,0:0:0:0:
151,194,166551,5,6,0:0:0:0:
213,266,166781,2,0,P|261:269|300:298,1,99.0000030212403,0|10,0:0|0:0,0:0:0:0:
381,356,167243,1,0,0:0:0:0:
381,356,167359,2,0,B|392:302|448:268,1,99.0000030212403,2|0,0:0|0:0,0:0:0:0:
464,256,167705,1,2,0:0:0:0:
408,173,167936,1,8,0:0:0:0:
506,166,168166,1,0,0:0:0:0:
464,256,168397,5,2,0:0:0:0:
396,328,168628,1,0,0:0:0:0:
296,328,168859,2,0,P|225:306|168:241,1,148.50000453186,10|2,0:0|0:0,0:0:0:0:
126,113,169551,1,0,0:0:0:0:
126,113,169782,6,0,P|124:58|160:-15,1,99.0000030212403,10|0,0:0|0:0,0:0:0:0:
221,71,170243,2,0,P|253:26|327:-9,1,99.0000030212403,2|0,0:0|0:0,0:0:0:0:
311,99,170704,2,0,P|365:84|445:99,1,99.0000030212403,10|0,0:0|0:0,0:0:0:0:
369,178,171166,2,0,P|420:199|474:260,1,99.0000030212403,2|0,0:0|0:0,0:0:0:0:
508,309,171628,1,8,0:0:0:0:
420,355,171859,1,2,0:0:0:0:
320,351,172090,6,0,L|222:305,1,99.0000030212403,2|2,0:0|0:0,0:0:0:0:
243,355,172435,2,0,L|159:297,1,99.0000030212403,2|2,0:0|0:0,0:0:0:0:
132,279,172782,1,2,0:0:0:0:
54,218,173013,1,2,0:0:0:0:
62,118,173243,1,8,0:0:0:0:
133,49,173474,2,0,P|187:48|234:31,1,99.0000030212403,8|0,0:0|0:0,0:0:0:0:
324,5,173936,5,2,0:0:0:0:
308,102,174166,1,0,0:0:0:0:
402,132,174397,1,10,0:0:0:0:
347,215,174628,1,2,0:0:0:0:
311,232,174743,2,0,L|212:277,1,99.0000030212403,2|0,0:0|0:0,0:0:0:0:
186,293,175090,1,2,0:0:0:0:
100,243,175320,2,0,P|109:196|71:139,1,99.0000030212403,8|0,0:0|0:0,0:0:0:0:
11,87,175782,5,2,0:0:0:0:
73,10,176013,1,0,0:0:0:0:
156,63,176243,2,0,P|232:92|323:91,1,148.50000453186,10|2,0:0|0:0,0:0:0:0:
440,51,176936,1,0,0:0:0:0:
482,140,177166,6,0,P|494:196|483:247,1,99.0000030212403,10|0,0:0|0:0,0:0:0:0:
402,289,177628,2,0,P|346:274|284:281,1,99.0000030212403,2|0,0:0|0:0,0:0:0:0:
210,306,178090,2,0,P|155:312|103:295,1,99.0000030212403,10|0,0:0|0:0,0:0:0:0:
73,209,178551,2,0,P|78:158|50:102,1,99.0000030212403,2|0,0:0|0:0,0:0:0:0:
4,32,179012,1,8,0:0:0:0:
101,14,179243,1,2,0:0:0:0:
167,87,179473,6,0,P|217:79|268:48,1,99.0000030212403,2|2,0:0|0:0,0:0:0:0:
282,37,179820,2,0,B|325:17|325:17|377:25,1,99.0000030212403,2|2,0:0|0:0,0:0:0:0:
400,41,180166,2,0,P|411:89|443:126,1,99.0000030212403,2|2,0:0|0:0,0:0:0:0:
503,206,180627,1,8,0:0:0:0:
434,277,180858,1,8,0:0:0:0:
256,192,181320,5,6,0:0:0:0:
302,104,181551,1,2,0:0:0:0:
397,77,181782,1,10,0:0:0:0:
353,166,182013,1,2,0:0:0:0:
256,192,182243,1,0,0:0:0:0:
210,104,182474,1,2,0:0:0:0:
115,77,182705,1,8,0:0:0:0:
159,166,182936,1,2,0:0:0:0:
256,192,183166,6,0,P|280:236|272:294,1,99.0000030212403,2|2,0:0|0:0,0:0:0:0:
182,251,183628,1,10,0:0:0:0:
182,251,183858,2,0,P|168:298|121:335,1,99.0000030212403,2|0,0:0|0:0,0:0:0:0:
82,244,184320,1,2,0:0:0:0:
30,159,184550,2,0,P|10:113|22:54,1,99.0000030212403,8|2,0:0|0:0,0:0:0:0:
104,16,185013,5,2,0:0:0:0:
177,82,185243,1,2,0:0:0:0:
267,42,185474,1,10,0:0:0:0:
320,125,185705,2,0,P|371:125|421:94,1,99.0000030212403,2|0,0:0|0:0,0:0:0:0:
481,31,186166,1,2,0:0:0:0:
385,6,186397,1,8,0:0:0:0:
412,102,186628,1,2,0:0:0:0:
461,187,186859,5,2,0:0:0:0:
461,187,187089,2,0,P|421:216|401:260,1,99.0000030212403,2|10,0:0|0:0,0:0:0:0:
313,306,187550,2,0,P|263:296|217:311,1,99.0000030212403,2|0,0:0|0:0,0:0:0:0:
125,347,188012,1,10,0:0:0:0:
48,283,188243,1,8,0:0:0:0:
88,192,188473,1,2,0:0:0:0:
187,201,188705,5,2,0:0:0:0:
283,179,188935,2,0,P|323:137|329:85,1,99.0000030212403,2|10,0:0|0:0,0:0:0:0:
231,93,189397,2,0,P|226:43|197:-6,1,99.0000030212403,2|0,0:0|0:0,0:0:0:0:
133,71,189858,1,2,0:0:0:0:
231,93,190089,1,8,0:0:0:0:
203,0,190320,1,2,0:0:0:0:
133,71,190551,6,0,B|77:87|55:155,1,99.0000030212403,2|2,0:0|0:0,0:0:0:0:
158,160,191013,1,10,0:0:0:0:
158,160,191243,2,0,B|112:194|117:266,1,99.0000030212403,2|0,0:0|0:0,0:0:0:0:
164,333,191705,1,2,0:0:0:0:
256,369,191936,1,8,0:0:0:0:
348,333,192166,1,2,0:0:0:0:
410,255,192397,5,2,0:0:0:0:
446,347,192628,1,2,0:0:0:0:
348,333,192859,1,10,0:0:0:0:
256,369,193090,2,0,P|201:353|153:307,1,99.0000030212403,2|0,0:0|0:0,0:0:0:0:
102,254,193551,1,2,0:0:0:0:
102,254,193781,2,0,P|133:213|127:143,1,99.0000030212403,8|2,0:0|0:0,0:0:0:0:
100,73,194243,5,2,0:0:0:0:
198,86,194474,1,2,0:0:0:0:
256,6,194705,1,10,0:0:0:0:
314,86,194936,1,2,0:0:0:0:
412,73,195166,1,0,0:0:0:0:
375,166,195397,2,0,P|379:214|409:252,1,99.0000030212403,10|8,0:0|0:0,0:0:0:0:
488,315,195859,1,2,0:0:0:0:
410,376,196090,5,6,0:0:0:0:
332,315,196320,2,0,P|276:299|226:305,1,99.0000030212403,2|10,0:0|0:0,0:0:0:0:
140,331,196782,1,2,0:0:0:0:
87,247,197012,2,0,P|116:202|118:154,1,99.0000030212403,0|2,0:0|0:0,0:0:0:0:
182,82,197473,2,0,P|235:86|278:65,1,99.0000030212403,8|2,0:0|0:0,0:0:0:0:
361,16,197936,5,2,0:0:0:0:
366,114,198167,1,2,0:0:0:0:
366,114,198397,2,0,B|348:167|387:205,1,99.0000030212403,10|2,0:0|0:0,0:0:0:0:
472,256,198859,1,0,0:0:0:0:
474,157,199090,1,2,0:0:0:0:
387,204,199320,2,0,P|344:233|285:235,1,99.0000030212403,8|2,0:0|0:0,0:0:0:0:
199,221,199782,5,2,0:0:0:0:
105,189,200013,1,2,0:0:0:0:
58,102,200243,1,10,0:0:0:0:
105,189,200473,2,0,P|99:239|65:285,1,99.0000030212403,2|0,0:0|0:0,0:0:0:0:
3,350,200936,1,2,0:0:0:0:
98,373,201166,1,8,0:0:0:0:
72,278,201397,1,2,0:0:0:0:
3,350,201628,5,2,0:0:0:0:
98,373,201859,1,2,0:0:0:0:
169,304,202090,2,0,P|218:302|269:314,1,99.0000030212403,10|2,0:0|0:0,0:0:0:0:
360,344,202551,1,0,0:0:0:0:
366,245,202782,1,10,0:0:0:0:
464,251,203013,1,8,0:0:0:0:
436,156,203243,1,2,0:0:0:0:
337,150,203474,6,0,P|285:157|209:132,1,99.0000030212403,2|2,0:0|0:0,0:0:0:0:
148,108,203935,1,10,0:0:0:0:
230,53,204166,2,0,P|194:20|132:13,2,99.0000030212403,2|0|2,0:0|0:0|0:0,0:0:0:0:
240,148,204859,1,8,0:0:0:0:
316,211,205090,1,2,0:0:0:0:
316,211,205320,6,0,P|362:195|403:162,1,99.0000030212403,2|2,0:0|0:0,0:0:0:0:
484,217,205781,1,10,0:0:0:0:
484,217,206012,2,0,P|474:265|482:316,1,99.0000030212403,2|0,0:0|0:0,0:0:0:0:
395,364,206474,1,2,0:0:0:0:
395,364,206704,2,0,P|358:331|309:312,1,99.0000030212403,8|2,0:0|0:0,0:0:0:0:
214,295,207166,5,2,0:0:0:0:
118,318,207397,1,2,0:0:0:0:
65,235,207627,1,10,0:0:0:0:
129,159,207858,1,2,0:0:0:0:
221,196,208089,1,0,0:0:0:0:
296,131,208320,2,0,P|312:85|297:39,2,99.0000030212403,2|8|2,0:0|0:0|0:0,0:0:0:0:
221,196,209012,6,0,P|271:218|313:262,1,99.0000030212403,2|2,0:0|0:0,0:0:0:0:
372,319,209474,1,10,0:0:0:0:
453,263,209704,2,0,P|482:222|489:163,1,99.0000030212403,2|0,0:0|0:0,0:0:0:0:
466,78,210166,1,10,0:0:0:0:
377,34,210397,1,10,0:0:0:0:
256,192,210859,5,4,0:0:0:0:
256,192,210974,12,0,218243,0:0:0:0:
