osu file format v14

[General]
AudioFilename: 02. .mp3
AudioLeadIn: 0
PreviewTime: 62705
Countdown: 0
SampleSet: Soft
StackLeniency: 0.7
Mode: 0
LetterboxInBreaks: 0
WidescreenStoryboard: 0

[Editor]
Bookmarks: 93627,157320
DistanceSpacing: 1.1
BeatDivisor: 4
GridSize: 4
TimelineZoom: 1.9

[Metadata]
Title:Kokoro no Inryoku
TitleUnicode:ココロの引力
Artist:ClariS
ArtistUnicode:ClariS
Creator:RVMathew
Version:Easy
Source:
Tags:俺の妹がこんなに可愛いわけがない Ore no Imouto ga Konna ni Kawaii Wake ga nai oreimo irony single My Little Sister Can't Be This Cute Clara Alice
BeatmapID:506249
BeatmapSetID:215479

[Difficulty]
HPDrainRate:2
CircleSize:3
OverallDifficulty:2
ApproachRate:3
SliderMultiplier:0.8
SliderTickRate:2

[Events]
//Background and Video events
0,0,"Background1-Easy.jpg",0,0
//Break Periods
2,78135,91265
2,137213,142957
//Storyboard Layer 0 (Background)
//Storyboard Layer 1 (Fail)
//Storyboard Layer 2 (Pass)
//Storyboard Layer 3 (Foreground)
//Storyboard Sound Samples

[TimingPoints]
397,461.538461538462,4,2,1,40,1,0
4551,-100,4,2,2,40,0,0
4609,-100,4,2,1,40,0,0
11936,-100,4,2,2,40,0,0
11993,-100,4,2,1,40,0,0
17474,-100,4,2,2,40,0,0
17532,-100,4,2,1,40,0,0
18166,-100,4,2,2,40,0,0
18224,-100,4,2,1,40,0,0
18859,-100,4,2,1,60,0,0
19320,-100,4,2,2,60,0,0
19378,-100,4,2,1,60,0,0
21166,-100,4,2,2,60,0,0
21224,-100,4,2,1,60,0,0
23013,-100,4,2,2,60,0,0
23070,-100,4,2,1,60,0,0
25551,-100,4,2,2,60,0,0
25609,-100,4,2,1,60,0,0
26705,-100,4,2,2,60,0,0
26763,-100,4,2,1,60,0,0
28551,-100,4,2,2,60,0,0
28609,-100,4,2,1,60,0,0
35013,-100,4,2,2,60,0,0
35070,-100,4,2,1,60,0,0
40320,-100,4,2,2,60,0,0
40378,-100,4,2,1,60,0,0
41474,-100,4,2,2,60,0,0
41532,-100,4,2,1,60,0,0
43320,-100,4,2,2,60,0,0
43378,-100,4,2,1,60,0,0
47705,-100,4,2,2,60,0,0
47763,-100,4,2,1,60,0,0
49782,-100,4,2,2,60,0,0
49840,-100,4,2,1,60,0,0
54397,-100,4,2,2,60,0,0
54455,-100,4,2,1,60,0,0
55090,-100,4,2,2,60,0,0
55147,-100,4,2,1,60,0,0
63166,-100,4,2,1,60,0,1
63627,-100,4,2,2,60,0,1
63685,-100,4,2,1,60,0,1
69166,-100,4,2,2,60,0,1
69224,-100,4,2,1,60,0,1
77935,-100,4,2,1,60,0,0
93166,-100,4,2,2,60,0,0
93224,-100,4,2,1,60,0,0
95013,-100,4,2,2,60,0,0
95070,-100,4,2,1,60,0,0
98705,-100,4,2,2,60,0,0
98763,-100,4,2,1,60,0,0
106090,-100,4,2,2,60,0,0
106147,-100,4,2,1,60,0,0
106782,-100,4,2,2,60,0,0
106840,-100,4,2,1,60,0,0
109782,-100,4,2,2,60,0,0
109840,-100,4,2,1,60,0,0
114166,-100,4,2,2,60,0,0
114224,-100,4,2,1,60,0,0
122243,-100,4,2,1,60,0,1
128936,-100,4,2,2,60,0,1
128993,-100,4,2,1,60,0,1
130090,-100,4,2,2,60,0,1
130147,-100,4,2,1,60,0,1
137012,-100,4,2,1,60,0,0
144859,-100,4,2,2,60,0,0
144916,-100,4,2,1,60,0,0
146705,-100,4,2,2,60,0,0
146763,-100,4,2,1,60,0,0
148551,-100,4,2,2,60,0,0
148609,-100,4,2,1,60,0,0
150397,-100,4,2,2,60,0,0
150455,-100,4,2,1,60,0,0
151090,-100,4,2,2,60,0,0
151147,-100,4,2,1,60,0,0
151781,-100,4,1,1,60,0,1
157781,-100,4,1,2,60,0,1
157839,-100,4,1,1,60,0,1
159628,-100,4,1,2,60,0,1
159686,-100,4,1,1,60,0,1
165859,-100,4,1,2,60,0,1
165916,-100,4,1,1,60,0,1
166089,-100,4,1,1,60,0,0
166550,-100,4,1,1,60,0,1
174397,-100,4,1,2,60,0,1
174455,-100,4,1,1,60,0,1
179935,-100,4,1,2,60,0,1
179993,-100,4,1,1,60,0,1
181320,-100,4,1,1,60,0,0
181782,-100,4,1,2,60,0,0
181840,-100,4,1,1,60,0,0
185474,-100,4,1,2,60,0,0
185532,-100,4,1,1,60,0,0
187320,-100,4,1,2,60,0,0
187378,-100,4,1,1,60,0,0
188013,-100,4,1,2,60,0,0
188070,-100,4,1,1,60,0,0
189166,-100,4,1,2,60,0,0
189224,-100,4,1,1,60,0,0
192859,-100,4,1,2,60,0,0
192916,-100,4,1,1,60,0,0
194705,-100,4,1,2,60,0,0
194763,-100,4,1,1,60,0,0
195397,-100,4,1,2,60,0,0
195455,-100,4,1,1,60,0,0
196551,-100,4,1,2,60,0,0
196609,-100,4,1,1,60,0,0
202782,-100,4,1,2,60,0,0
202840,-100,4,1,1,60,0,0
207628,-100,4,1,2,60,0,0
207686,-100,4,1,1,60,0,0
210166,-100,4,1,2,60,0,0
210223,-100,4,1,1,60,0,0
210859,-100,4,1,1,60,0,0
218243,-100,4,2,1,5,0,0

[Colours]
Combo1 : 255,140,26
Combo2 : 105,147,233
Combo3 : 102,196,26
Combo4 : 232,98,232
SliderBorder : 255,255,255
SliderTrackOverride : 35,35,35

[HitObjects]
226,122,4090,6,0,P|192:191|225:260,1,160,2|0,0:0|0:0,0:0:0:0:
280,191,5474,1,8,0:0:0:0:
337,124,5936,1,2,0:0:0:0:
394,191,6397,2,0,L|482:191,1,80,10|0,0:0|0:0,0:0:0:0:
447,275,7320,6,0,L|359:275,1,80,10|2,0:0|0:0,0:0:0:0:
307,340,8243,2,0,L|219:340,1,80,10|2,0:0|0:0,0:0:0:0:
144,311,9166,1,8,0:0:0:0:
69,265,9628,2,0,P|57:230|55:188,1,80,2|8,0:0|0:0,0:0:0:0:
113,121,10551,1,2,0:0:0:0:
188,76,11013,1,8,0:0:0:0:
266,35,11474,6,0,B|311:85|367:36|414:88,1,160,2|0,0:0|0:0,0:0:0:0:
497,110,12859,2,0,P|499:172|489:202,1,80,8|2,0:0|0:0,0:0:0:0:
406,191,13782,1,10,0:0:0:0:
319,176,14243,1,0,0:0:0:0:
231,167,14705,6,0,P|161:178|141:192,1,80,10|2,0:0|0:0,0:0:0:0:
87,239,15628,2,0,P|86:278|102:315,1,80,10|2,0:0|0:0,0:0:0:0:
176,361,16551,1,8,0:0:0:0:
257,327,17013,2,0,B|305:291|365:339|365:339|381:267|449:267,1,240,2|8,0:0|0:0,0:0:0:0:
449,178,18859,6,0,P|379:142|328:81,1,160,6|0,0:0|0:0,0:0:0:0:
256,30,20243,1,8,0:0:0:0:
185,82,20705,2,0,P|134:143|64:180,1,160,2|0,0:0|0:0,0:0:0:0:
14,253,22090,1,8,0:0:0:0:
86,303,22551,6,0,P|206:323|256:316,1,160,2|0,0:0|0:0,0:0:0:0:
328,296,23936,1,8,0:0:0:0:
412,270,24397,2,0,B|436:238|435:195,1,80,2|10,0:0|0:0,0:0:0:0:
427,107,25320,2,0,B|397:75|358:68,1,80,0|8,0:0|0:0,0:0:0:0:
272,52,26243,6,0,P|195:61|129:111,1,160,2|0,0:0|0:0,0:0:0:0:
97,191,27628,1,8,0:0:0:0:
130,273,28090,2,0,P|193:320|271:330,1,160,2|0,0:0|0:0,0:0:0:0:
357,309,29474,1,8,0:0:0:0:
256,192,29936,12,2,31782,0:0:0:0:
256,134,33628,5,4,0:0:0:0:
256,222,34090,1,8,0:0:0:0:
325,277,34551,2,0,P|255:310|186:278,1,160,2|0,0:0|0:0,0:0:0:0:
121,216,35936,1,8,0:0:0:0:
41,253,36397,2,0,P|30:215|41:177,1,80,0|10,0:0|0:0,0:0:0:0:
108,119,37320,6,0,L|184:76,1,80,0|10,0:0|0:0,0:0:0:0:
256,36,38243,1,0,0:0:0:0:
315,101,38705,1,8,0:0:0:0:
403,101,39166,1,0,0:0:0:0:
468,160,39628,2,0,P|483:246|460:324,1,160,8|8,0:0|0:0,0:0:0:0:
382,283,41013,6,0,P|307:329|226:337,1,160,0|2,0:0|0:0,0:0:0:0:
150,321,42397,1,10,0:0:0:0:
90,256,42859,2,0,P|43:181|35:100,1,160,0|0,0:0|0:0,0:0:0:0:
55,25,44243,1,10,0:0:0:0:
122,82,44705,6,0,P|160:104|202:107,1,80,0|10,0:0|0:0,0:0:0:0:
282,119,45628,1,0,0:0:0:0:
297,206,46090,1,8,0:0:0:0:
352,275,46550,2,0,P|356:314|376:348,1,80,0|8,0:0|0:0,0:0:0:0:
438,286,47474,2,0,P|433:246|413:212,1,80,0|8,0:0|0:0,0:0:0:0:
333,175,48397,5,4,0:0:0:0:
405,124,48859,1,8,0:0:0:0:
474,70,49320,2,0,P|404:35|335:69,1,160,0|0,0:0|0:0,0:0:0:0:
269,128,50705,1,8,0:0:0:0:
208,192,51166,2,0,L|128:192,1,80,0|8,0:0|0:0,0:0:0:0:
80,266,52090,5,0,0:0:0:0:
128,340,52551,2,0,B|178:340|178:340|224:304|224:304|284:304,1,160,8|8,0:0|0:0,0:0:0:0:
336,367,53936,2,0,P|348:263|222:232,1,240,0|8,0:0|0:0,0:0:0:0:
149,224,55782,6,0,B|109:224|69:218,1,80,0|8,0:0|0:0,0:0:0:0:
69,130,56705,2,0,B|108:124|148:124,1,80,0|8,0:0|0:0,0:0:0:0:
237,124,57628,1,0,0:0:0:0:
316,163,58090,2,0,P|376:210|461:210,1,160,8|8,0:0|0:0,0:0:0:0:
256,192,59474,12,4,61090,0:0:0:0:
398,142,63166,6,0,P|410:217|351:267,1,160,6|0,0:0|0:0,0:0:0:0:
264,268,64551,1,8,0:0:0:0:
176,268,65013,2,0,L|176:188,1,80,2|10,0:0|0:0,0:0:0:0:
176,100,65935,1,0,0:0:0:0:
87,100,66397,6,0,L|87:192,1,80,10|2,0:0|0:0,0:0:0:0:
50,260,67320,2,0,P|42:304|54:352,1,80,10|2,0:0|0:0,0:0:0:0:
127,300,68243,1,8,0:0:0:0:
212,304,68705,2,0,B|264:304|291:320|291:320|309:286|363:264,1,160,2|2,0:0|0:0,0:0:0:0:
417,213,70090,1,8,0:0:0:0:
437,127,70550,6,0,P|455:99|466:54,2,80,2|10|0,0:0|0:0|0:0,0:0:0:0:
373,187,71936,1,8,0:0:0:0:
383,274,72397,2,0,B|392:320|359:346,1,80,2|10,0:0|0:0,0:0:0:0:
271,346,73320,1,0,0:0:0:0:
183,346,73782,6,0,B|162:339|162:339|118:339|118:339|106:334,1,80,10|2,0:0|0:0,0:0:0:0:
43,271,74705,2,0,B|48:259|48:259|48:215|48:215|55:194,1,80,10|2,0:0|0:0,0:0:0:0:
104,120,75627,1,8,0:0:0:0:
256,192,76089,12,6,77935,0:0:0:0:
37,241,92705,6,0,B|91:206|91:206|98:162|98:162|151:125,1,160,4|2,0:0|0:0,0:0:0:0:
218,91,94089,1,10,0:0:0:0:
296,50,94551,2,0,B|380:92|373:189,1,160,0|0,0:0|0:0,0:0:0:0:
292,212,95936,1,10,0:0:0:0:
209,240,96397,5,0,0:0:0:0:
245,320,96859,2,0,P|285:308|329:284,1,80,10|0,0:0|0:0,0:0:0:0:
392,242,97782,1,8,0:0:0:0:
455,303,98243,2,0,P|479:235|423:159,1,160,0|0,0:0|0:0,0:0:0:0:
353,133,99628,1,8,0:0:0:0:
298,64,100090,5,0,0:0:0:0:
209,64,100551,2,0,P|146:110|128:186,1,160,10|10,0:0|0:0,0:0:0:0:
128,274,101936,1,0,0:0:0:0:
216,274,102397,2,0,L|216:354,1,80,8|0,0:0|0:0,0:0:0:0:
304,354,103320,6,0,L|396:354,1,80,10|0,0:0|0:0,0:0:0:0:
458,306,104243,2,0,P|466:266|450:214,1,80,10|0,0:0|0:0,0:0:0:0:
394,167,105166,1,8,0:0:0:0:
308,185,105628,2,0,P|269:284|381:346,1,240,0|8,0:0|0:0,0:0:0:0:
438,301,107474,5,4,0:0:0:0:
472,220,107936,2,0,P|487:181|492:136,1,80,8|0,0:0|0:0,0:0:0:0:
442,71,108859,1,8,0:0:0:0:
354,71,109320,2,0,B|336:100|336:100|248:100|248:100|224:129,1,160,0|0,0:0|0:0,0:0:0:0:
137,129,110704,1,8,0:0:0:0:
137,217,111166,5,0,0:0:0:0:
224,219,111628,2,0,P|245:293|323:333,1,160,8|8,0:0|0:0,0:0:0:0:
400,349,113013,1,0,0:0:0:0:
488,349,113474,1,8,0:0:0:0:
444,273,113936,2,0,P|451:216|465:186,1,80,0|8,0:0|0:0,0:0:0:0:
487,112,114859,5,0,0:0:0:0:
400,97,115320,2,0,P|343:90|313:76,1,80,8|0,0:0|0:0,0:0:0:0:
241,47,116243,1,8,0:0:0:0:
177,107,116705,1,0,0:0:0:0:
137,185,117166,2,0,P|127:224|98:255,1,80,8|0,0:0|0:0,0:0:0:0:
29,304,118090,1,8,0:0:0:0:
256,192,118551,12,4,120166,0:0:0:0:
404,232,122243,6,0,L|404:316,2,80,6|10|0,0:0|0:0|0:0,0:0:0:0:
316,232,123628,1,8,0:0:0:0:
228,232,124090,2,0,L|228:137,2,80,2|10|0,0:0|0:0|0:0,0:0:0:0:
140,232,125474,1,10,0:0:0:0:
52,232,125936,5,2,0:0:0:0:
52,144,126397,2,0,L|52:64,1,80,10|2,0:0|0:0,0:0:0:0:
140,64,127320,1,8,0:0:0:0:
196,132,127782,1,2,0:0:0:0:
252,64,128243,2,0,P|280:136|242:204,1,160,8|8,0:0|0:0,0:0:0:0:
153,204,129628,6,0,P|116:271|146:343,1,160,2|0,0:0|0:0,0:0:0:0:
234,343,131013,1,8,0:0:0:0:
322,343,131474,2,0,P|358:331|394:310,1,80,2|10,0:0|0:0,0:0:0:0:
443,237,132397,1,0,0:0:0:0:
459,150,132859,6,0,L|382:128,1,80,10|2,0:0|0:0,0:0:0:0:
311,78,133782,2,0,L|233:56,1,80,10|2,0:0|0:0,0:0:0:0:
149,32,134705,1,8,0:0:0:0:
256,192,135166,12,6,137013,0:0:0:0:
390,80,144397,6,0,P|429:190|391:301,1,240,6|8,0:0|0:0,0:0:0:0:
302,301,146243,2,0,B|222:301|222:301|157:255|157:255|71:255,1,240,2|10,0:0|0:0,0:0:0:0:
76,167,148090,6,0,B|156:167|156:167|221:121|221:121|301:121,1,240,2|10,0:0|0:0,0:0:0:0:
353,192,149936,2,0,B|483:192,2,120,2|2|8,0:0|0:0|0:0,0:0:0:0:
265,192,151782,5,6,0:0:0:0:
194,140,152243,2,0,B|149:144|115:117|115:117|88:164|44:168,1,160,10|8,0:0|0:0,0:0:0:0:
24,246,153628,2,0,P|30:285|51:318,1,80,2|10,0:0|0:0,0:0:0:0:
134,349,154551,1,0,0:0:0:0:
218,322,155013,6,0,P|262:306|301:309,1,80,10|2,0:0|0:0,0:0:0:0:
379,284,155936,2,0,P|410:259|428:224,1,80,10|2,0:0|0:0,0:0:0:0:
442,136,156859,1,8,0:0:0:0:
397,60,157320,2,0,P|317:53|237:60,1,160,2|2,0:0|0:0,0:0:0:0:
149,68,158705,1,8,0:0:0:0:
62,80,159166,6,0,B|62:137|62:137|32:172|32:172|32:228,1,160,2|0,0:0|0:0,0:0:0:0:
46,316,160551,1,8,0:0:0:0:
131,340,161013,2,0,P|179:350|223:351,1,80,2|10,0:0|0:0,0:0:0:0:
298,354,161936,1,0,0:0:0:0:
385,340,162397,6,0,B|418:314|418:314|434:271,1,80,10|2,0:0|0:0,0:0:0:0:
459,195,163320,2,0,B|468:153|468:153|455:117,1,80,10|2,0:0|0:0,0:0:0:0:
405,45,164243,1,8,0:0:0:0:
318,26,164705,1,2,0:0:0:0:
341,111,165167,2,0,P|308:180|344:249,1,160,8|8,0:0|0:0,0:0:0:0:
422,290,166551,6,0,B|502:290,2,80,6|10|0,0:0|0:0|0:0,0:0:0:0:
341,325,167936,1,8,0:0:0:0:
254,339,168397,2,0,P|212:311|185:277,1,80,2|10,0:0|0:0,0:0:0:0:
144,216,169320,1,0,0:0:0:0:
76,160,169782,6,0,P|43:193|2:212,2,80,10|2|10,0:0|0:0|0:0,0:0:0:0:
127,88,171166,1,2,0:0:0:0:
210,117,171628,1,8,0:0:0:0:
297,105,172090,2,0,P|340:88|379:58,1,80,2|8,0:0|0:0,0:0:0:0:
445,27,173013,1,2,0:0:0:0:
499,96,173474,1,8,0:0:0:0:
432,153,173936,6,0,P|377:207|363:309,1,160,2|0,0:0|0:0,0:0:0:0:
401,363,175320,1,8,0:0:0:0:
313,363,175782,2,0,P|265:358|231:342,1,80,2|10,0:0|0:0,0:0:0:0:
162,298,176705,1,0,0:0:0:0:
103,232,177166,6,0,P|79:199|56:148,1,80,10|2,0:0|0:0,0:0:0:0:
95,82,178090,2,0,P|128:58|175:43,1,80,10|2,0:0|0:0,0:0:0:0:
252,32,179013,1,8,0:0:0:0:
339,31,179473,2,0,P|416:49|473:109,1,160,2|2,0:0|0:0,0:0:0:0:
479,193,180858,1,8,0:0:0:0:
407,243,181320,6,0,B|368:260|342:293|342:293|309:271|258:269,1,160,6|0,0:0|0:0,0:0:0:0:
189,233,182704,1,8,0:0:0:0:
111,274,183166,2,0,P|71:257|40:226,1,80,2|10,0:0|0:0,0:0:0:0:
44,144,184090,2,0,P|73:117|110:102,1,80,0|8,0:0|0:0,0:0:0:0:
197,87,185013,6,0,B|256:75|256:75|293:19,2,120,2|2|8,0:0|0:0|0:0,0:0:0:0:
159,166,186859,2,0,B|184:209|184:209|325:209|325:209|362:256,1,240,2|8,0:0|0:0,0:0:0:0:
372,334,188705,6,0,P|434:294|432:203,1,160,2|0,0:0|0:0,0:0:0:0:
395,137,190090,1,8,0:0:0:0:
318,93,190551,2,0,L|234:93,1,80,2|10,0:0|0:0,0:0:0:0:
162,137,191474,2,0,B|122:153|122:153|102:185,1,80,0|8,0:0|0:0,0:0:0:0:
82,269,192397,6,0,P|63:316|14:368,2,120,2|2|8,0:0|0:0|0:0,0:0:0:0:
149,212,194243,2,0,P|257:252|378:210,1,240,2|8,0:0|0:0,0:0:0:0:
442,269,196090,6,0,P|461:316|510:368,2,120,6|2|8,0:0|0:0|0:0,0:0:0:0:
401,190,197936,1,2,0:0:0:0:
338,129,198397,2,0,P|299:125|257:100,1,80,10|0,0:0|0:0,0:0:0:0:
178,87,199320,1,8,0:0:0:0:
90,91,199782,6,0,P|78:126|96:175,1,80,2|10,0:0|0:0,0:0:0:0:
144,235,200705,1,0,0:0:0:0:
221,192,201166,1,8,0:0:0:0:
291,245,201628,2,0,P|330:241|376:230,1,80,2|10,0:0|0:0,0:0:0:0:
437,175,202551,2,0,P|460:144|476:93,1,80,0|8,0:0|0:0,0:0:0:0:
475,17,203474,5,2,0:0:0:0:
387,16,203936,2,0,B|346:16|346:16|304:41,1,80,10|0,0:0|0:0,0:0:0:0:
233,74,204859,1,8,0:0:0:0:
154,113,205320,2,0,L|93:50,2,80,2|10|0,0:0|0:0|0:0,0:0:0:0:
217,174,206705,1,8,0:0:0:0:
305,174,207166,6,0,P|337:244|307:315,1,160,2|0,0:0|0:0,0:0:0:0:
251,246,208551,1,8,0:0:0:0:
163,246,209013,2,0,P|155:206|164:163,1,80,2|10,0:0|0:0,0:0:0:0:
217,99,209935,2,0,P|256:92|295:99,1,80,0|8,0:0|0:0,0:0:0:0:
256,178,210859,5,4,0:0:0:0:
256,192,210973,12,0,218243,0:0:0:0:
