osu file format v9

[General]
AudioFilename: 12 ClariS - irony.mp3
AudioLeadIn: 2000
PreviewTime: 129847
Countdown: 0
SampleSet: Soft
StackLeniency: 0.7
Mode: 0
LetterboxInBreaks: 0
StoryFireInFront: 0
EpilepsyWarning: 1

[Editor]
DistanceSpacing: 1
BeatDivisor: 4
GridSize: 8

[Metadata]
Title:Irony
Artist:ClariS
Creator:vincerio
Version:Siscon
Source:Ore no Imouto ga konna ni Kawaii Wake ga Nai
Tags:indyinyou regenz kousaka kirino tamura manami kuroneko Ruri Gokou Saori Vageena Ayase Aragaki oreimo opening

[Difficulty]
HPDrainRate:6
CircleSize:4
OverallDifficulty:6
ApproachRate:7
SliderMultiplier:1.5
SliderTickRate:1

[Events]
//Background and Video events
0,0,"realBG.jpg"
//Break Periods
2,87514,101190
2,159155,172832
//Storyboard Layer 0 (Background)
//Storyboard Layer 1 (Fail)
//Storyboard Layer 2 (Pass)
//Storyboard Layer 3 (Foreground)
//Storyboard Sound Samples
//Background Colour Transformations
3,100,163,162,255

[TimingPoints]
1344,447.761194029851,4,2,0,50,1,0
14889,-100,4,2,1,50,0,0
15598,-100,4,2,2,50,0,0
22725,-100,4,2,0,50,0,0
23061,-100,4,2,2,50,0,0
28994,-100,4,2,1,50,0,0
30225,-100,4,1,0,30,0,0
32128,-100,4,1,0,40,0,0
44553,-100,4,1,0,40,0,0
51493,-100,4,1,0,40,0,1
51605,-100,4,1,0,40,0,0
58658,-100,4,1,0,50,0,1
85299,-100,4,1,0,50,0,0
114516,-133.333333333333,4,1,0,50,0,0
115150,-100,4,1,0,50,0,0
130299,-100,4,1,0,50,0,1
158956,-100,4,1,0,50,0,0
173508,-100,4,2,0,50,0,0
208069,-100,4,2,0,0,0,0
208322,-100,4,2,0,50,0,0
222426,-100,4,1,0,50,0,0
223434,-100,4,1,0,50,0,1
237650,-100,4,2,2,100,0,0

[Colours]
Combo1 : 255,255,255
Combo2 : 255,147,255
Combo3 : 255,255,128

[HitObjects]
400,80,896,1,2
400,160,1120,1,0
400,240,1344,1,2
256,272,1791,1,2
256,352,2015,2,0,B|328:376,2,75,0|2|0
176,336,2687,1,2
176,256,2911,1,0
176,176,3135,2,0,B|96:144,1,75,2|0
240,128,3582,1,2
112,80,3806,2,0,B|208:64,1,75,0|2
400,288,4478,6,0,B|352:240|432:208,1,75,2|0
400,144,4926,1,2
400,64,5149,1,0
320,64,5373,1,2
320,144,5597,2,0,B|240:144|240:144|208:208,2,150
320,224,6717,1,2
320,304,6941,1,0
304,304,7052,1,0
288,304,7164,1,2
144,304,7388,1,0
0,304,7612,1,2
256,144,8060,5,2
176,144,8284,1,0
96,144,8508,1,2
224,224,8955,2,0,B|256:320|368:256,1,150,2|2
416,240,9627,1,0
400,160,9851,2,0,B|432:112|464:176,2,75,0|0|2
320,160,10523,1,0
240,160,10746,2,0,B|128:160|144:272,1,150,2|2
224,240,11418,1,0
240,160,11642,2,0,B|336:176|336:48,2,150,2|2|2
160,160,12761,1,0
288,240,13209,5,0
288,240,13433,1,0
288,160,13657,1,0
288,160,13881,2,0,B|448:160,2,150,2|0|0
208,160,15000,5,8
176,192,15112,1,8
144,224,15224,1,8
112,256,15336,1,8
80,288,15448,1,8
48,320,15560,1,8
16,352,15672,6,0,B|-64:288|32:208,1,150,0|8
64,160,16344,1,0
128,112,16567,2,0,B|128:32,2,75,0|0|8
192,160,17239,1,0
256,112,17463,2,0,B|256:16,2,75,0|0|8
320,160,18135,1,0
384,208,18358,6,0,B|384:304,1,75
256,288,18806,2,0,B|256:192,1,75,8|0
128,208,19254,2,0,B|64:304|176:352,1,150,0|8
192,272,19926,1,0
208,192,20149,2,0,B|288:208|272:320,1,150,0|8
192,320,20821,1,0
112,304,21045,2,0,B|8:344,3,75,0|0|8|0
16,256,21941,2,0,B|96:224,3,75,0|0|8|0
288,272,22836,6,0,B|432:336,1,150,4|8
224,240,23508,1,0
160,208,23732,2,0,B|240:160|208:64,1,150,0|8
96,176,24403,1,0
64,112,24627,2,0,B|0:144|0:240,1,150,0|8
52,44,25299,1,0
128,64,25523,6,0,B|208:16,2,75,0|0|8
176,128,26194,1,0
256,128,26418,1,0
208,192,26642,1,0
288,192,26866,1,8
240,256,27090,1,0
320,256,27314,2,0,B|384:336|464:272,1,150,0|8
400,224,27985,5,0
384,144,28209,2,0,B|416:192|480:160,1,75
448,96,28657,2,0,B|448:48|368:64,1,75,8|0
320,80,29105,1,8
288,96,29217,1,8
256,112,29329,1,8
224,128,29441,1,8
192,144,29552,1,8
112,160,29776,1,0
112,160,30000,1,4
400,256,30448,5,8
320,240,30672,1,0
240,256,30896,1,0
176,208,31120,1,0
112,256,31344,2,0,B|96:304|160:336,1,75,8|0
112,176,31791,2,0,B|96:128|160:112,1,75
33,219,32239,1,8
192,208,32463,5,0
192,208,32575,1,0
192,208,32687,1,0
272,192,32911,1,0
352,208,33135,1,8
432,192,33358,1,0
384,128,33582,2,0,B|384:32|288:32,2,150,0|8|0
304,112,34702,5,0
304,112,34926,1,8
240,160,35149,1,0
240,160,35373,1,0
176,208,35597,1,0
176,208,35821,1,8
112,256,36045,1,0
112,256,36269,1,0
48,304,36493,2,0,B|48:384,2,75,0|8|0
48,304,37164,1,0
240,80,37612,5,8
192,224,37836,1,0
336,208,38060,1,0
192,144,38284,1,0
336,128,38508,2,0,B|336:32,2,75,8|0|0
336,272,39179,1,0
365,203,39403,6,0,B|320:288|208:256,1,150,8|0
176,224,40075,1,0
128,160,40299,2,0,B|176:80|288:112,1,150,8|0
320,144,40970,1,0
272,192,41194,1,8
368,192,41418,1,0
224,240,41642,1,0
416,240,41866,1,0
320,352,42314,5,0
320,48,42761,1,0
48,192,43209,1,0
128,192,43433,5,0
160,192,43545,1,0
192,192,43657,1,0
224,192,43769,1,0
256,192,43881,1,8
336,192,44105,1,0
416,192,44329,2,0,B|416:368,2,150,0|8|0
416,112,45448,1,0
416,112,45672,1,8
160,272,46120,5,0
160,272,46344,1,0
160,192,46567,2,0,B|160:32,2,150,8|0|8
80,208,47687,1,0
80,128,47911,1,0
16,160,48135,1,0
16,80,48358,6,0,B|32:32|96:32,1,75,8|0
160,176,48806,2,0,B|208:152|192:104,1,75
336,128,49254,2,0,B|344:88|304:32,1,75,8|0
160,48,49702,2,0,B|200:32|240:56,1,75
240,240,50149,2,0,B|272:144,1,75,8|0
263,169,50597,1,0
416,176,51045,5,8
368,112,51269,2,0,B|368:16,2,75
336,176,51941,1,8
368,240,52164,1,0
288,240,52388,1,0
240,304,52612,1,0
160,304,52836,2,0,B|64:272|112:160,2,150,8|0|8
176,224,53955,1,0
320,160,54403,5,0
320,80,54627,1,8
384,112,54851,1,0
384,192,55075,1,0
320,224,55299,2,0,B|384:272,1,75,0|8
352,336,55746,2,0,B|446:306,2,75
256,192,56418,12,4,57761
256,48,58209,5,0
64,192,58433,1,0
256,336,58657,1,4
256,192,59105,6,0,B|336:248,2,75,8|0|0
256,112,59776,1,0
192,160,60000,2,0,B|352:160,1,150,8|0
416,160,60672,1,0
416,160,60784,1,0
416,160,60896,1,8
416,240,61120,1,0
416,320,61344,1,0
272,288,61791,6,0,B|352:272,1,75,8|0
272,224,62239,2,0,B|344:160,1,75
256,160,62687,2,0,B|288:80,1,75,8|0
144,160,63358,1,0
144,304,63806,1,0
16,224,64254,1,0
48,224,64366,1,0
80,224,64478,1,8
160,224,64702,1,0
160,224,64926,1,0
256,336,65373,5,8
256,256,65597,1,0
256,176,65821,2,0,B|352:128|400:232,2,150,0|8|0
176,176,66941,1,0
176,96,67164,2,0,B|128:16|48:64,1,150,8|0
176,176,67836,5,0
176,256,68060,2,0,B|208:336|320:312,1,150,8|0
176,176,68732,1,0
96,176,68955,1,8
176,176,69179,1,0
256,176,69403,1,0
256,176,69515,1,0
256,176,69627,1,0
336,176,69851,2,0,B|432:224,1,75,8|0
336,176,70299,6,0,B|424:120,1,75
336,176,70746,2,0,B|336:96,1,75,8|0
336,176,71194,2,0,B|336:272|216:296,1,150,0|8
176,288,71866,1,0
128,144,72314,5,0
128,176,72426,1,0
144,208,72538,2,0,B|176:304|288:256,2,150,8|0|8
224,192,73657,1,0
208,112,73881,2,0,B|256:96|288:144,1,75
304,208,74329,1,8
384,224,74552,1,0
384,224,74664,1,0
384,224,74776,1,0
464,240,75000,1,0
464,240,75224,1,8
464,160,75448,1,0
464,160,75672,1,0
192,272,76120,6,0,B|80:272|80:160,1,150,8|0
64,112,76791,1,0
112,48,77015,2,0,B|208:16|240:112,1,150,8|0
288,160,77687,1,0
368,176,77911,2,0,B|368:224|296:232,1,75,8|0
288,160,78358,1,0
288,160,78470,1,0
288,160,78582,1,0
288,80,78806,1,8
368,80,79030,1,0
448,80,79254,1,0
400,224,79702,6,0,B|480:272,2,75,8|0|0
400,144,80373,2,0,B|488:144,2,75,0|8|0
320,160,81045,2,0,B|320:240|224:256,1,150,0|8
144,256,81717,1,0
128,176,81941,2,0,B|176:96|272:112,1,150,0|8
320,160,82612,1,0
176,112,83060,5,0
256,112,83284,2,0,B|256:32,3,75,8|0|0|0
256,112,84179,1,8
256,192,84403,1,0
400,128,84851,5,0
256,336,85075,1,8
128,128,85299,1,0
256,192,85523,12,4,87314
48,112,102090,6,0,B|80:208|168:208,1,150,8|0
224,240,102761,1,0
288,192,102985,2,0,B|384:160|448:224,1,150,8|0
288,272,103881,5,8
208,272,104105,1,0
128,272,104329,2,0,B|128:112,2,150,0|8|0
128,352,105448,1,0
48,352,105672,1,8
352,352,106120,5,0
432,352,106343,1,0
432,272,106567,2,0,B|432:112,2,150,8|0|8
352,272,107687,1,0
352,192,107911,1,0
352,192,108023,1,0
352,192,108135,1,0
352,112,108358,1,8
352,112,108582,1,0
352,112,108806,1,0
64,64,109254,5,8
48,144,109478,1,0
64,224,109702,2,0,B|112:288|224:256,1,150,0|8
64,224,110373,1,0
64,224,110597,2,0,B|128:160|224:192,1,150,0|8
352,192,111493,5,0
352,112,111717,1,0
272,240,111941,2,0,B|352:288,1,75,8|0
208,208,112388,2,0,B|208:128,1,75
176,272,112836,2,0,B|128:336,1,75,8|0
208,208,113284,6,0,B|128:208,1,75
288,208,113732,2,0,B|368:208,2,75,8|0|0
288,64,114403,1,0
208,64,114627,2,0,B|144:64|112:148,1,112.499996647239
105,159,115187,5,0
96,192,115299,1,0
96,224,115411,1,0
112,256,115523,1,0
160,320,115746,1,0
240,320,115970,1,4
288,256,116194,1,0
336,320,116418,1,8
384,256,116642,2,0,B|384:176,1,75
336,128,117090,2,0,B|400:88,1,75,0|8
256,144,117538,6,0,B|256:224,2,75
144,48,118209,1,8
64,176,118433,1,0
176,272,118657,1,0
176,128,118881,1,0
304,64,119105,2,0,B|400:48|448:128,1,150,8|0
432,192,119776,1,0
352,176,120000,6,0,B|272:192|256:320,1,150,8|0
352,176,120672,1,0
263,282,120896,2,0,B|271:194|157:161,1,150,8|0
128,224,121567,1,0
128,144,121791,1,8
64,272,122015,1,0
64,96,122239,1,0
192,192,122687,5,8
192,192,122799,1,0
192,192,122911,1,0
192,192,123135,2,0,B|352:192,1,150,0|8
192,192,123806,1,0
192,192,124030,2,0,B|192:352,1,150,0|8
192,192,124702,1,0
192,192,124926,2,0,B|192:32,1,150,0|8
191,42,125597,1,0
64,224,126269,5,8
64,304,126493,1,0
64,304,126717,1,0
256,192,126941,12,4,129403
256,48,129851,5,8
64,192,130075,1,0
256,336,130299,1,4
224,192,130746,5,8
272,256,130970,1,0
352,272,131194,2,0,B|448:256|448:144,1,150,0|8
400,112,131866,1,0
336,64,132090,1,0
304,64,132202,1,0
272,64,132314,1,0
192,64,132538,1,8
112,64,132761,1,0
192,64,132985,1,0
90,203,133433,6,0,B|90:123,1,75,8|0
176,128,133881,2,0,B|176:224,2,75,0|0|8
256,128,134552,2,0,B|256:224,1,75
255,278,135000,1,0
320,240,135224,1,8
320,240,135448,1,0
384,192,135672,1,0
384,192,135896,2,0,B|480:192,2,75,0|8|0
320,144,136567,1,0
48,32,137015,6,0,B|32:128|128:176,1,150,8|0
48,32,137687,1,0
103,161,137911,2,0,B|154:79|249:151,1,150,8|0
104,161,138582,1,0
96,240,138806,1,8
160,288,139030,1,0
240,272,139254,6,0,B|336:320,1,75
208,192,139702,2,0,B|248:112,1,75,8|0
400,128,140149,2,0,B|304:112,1,75
368,256,140597,2,0,B|432:208,1,75,8|0
272,192,141045,1,0
272,192,141157,1,0
272,192,141269,1,0
192,192,141493,1,8
192,192,141717,1,0
80,96,142164,5,0
144,48,142388,1,8
224,48,142612,1,0
288,96,142836,2,0,B|384:96,3,75,0|0|8|0
432,96,143732,1,0
432,128,143843,1,0
432,160,143955,1,0
432,192,144067,1,0
432,224,144179,1,0
432,304,144403,1,0
432,304,144627,1,4
288,272,145075,5,8
208,288,145299,2,0,B|208:208,1,75
208,112,145746,1,0
288,128,145970,1,8
128,128,146194,1,0
289,196,146418,2,0,B|289:276,1,75
128,272,146866,1,8
208,288,147090,2,0,B|208:208,1,75
336,272,147761,5,8
400,320,147985,1,0
480,336,148209,2,0,B|512:240|432:192,1,150,0|8
384,160,148881,1,0
320,128,149105,2,0,B|416:128|416:16,1,150,0|8
336,48,149776,1,0
256,48,150000,1,0
224,48,150112,1,0
192,48,150224,1,0
112,48,150448,1,8
32,48,150672,1,0
96,96,150896,1,0
96,240,151343,6,0,B|192:216,1,75,8|0
240,224,151791,2,0,B|328:240,2,75,0|0|8
208,160,152463,1,0
352,96,152911,1,0
368,240,153358,1,0
224,272,153806,1,0
144,272,154030,1,8
64,272,154254,1,0
64,272,154478,1,0
64,192,154702,5,0
64,192,154926,2,0,B|64:16,2,150,8|0|8
64,272,156045,1,0
368,320,156493,5,0
448,192,156717,1,8
368,64,156941,1,4
160,272,157388,5,0
368,64,157836,1,0
64,80,158284,2,0,B|112:208|272:192,1,225,0|4
256,48,173732,5,0
256,192,174179,1,8
112,256,174627,1,0
48,208,174851,1,0
96,144,175075,1,0
240,112,175523,1,0
384,80,175970,1,8
448,208,176418,1,0
384,256,176642,1,0
320,208,176866,1,0
256,256,177090,1,0
256,256,177314,6,0,B|240:352|128:336,2,150,0|8|0
208,192,178433,1,0
144,240,178657,1,0
80,192,178881,1,0
144,144,179105,2,0,B|48:144|48:48,2,150,0|8|0
144,144,180224,1,0
144,144,180448,1,0
432,48,180896,5,0
432,128,181120,1,0
432,208,181343,1,8
288,208,181791,2,0,B|240:208|240:144,1,75
240,80,182239,1,0
112,144,182687,1,0
112,224,182911,2,0,B|160:224|144:304,1,75,0|8
80,320,183358,1,0
32,256,183582,1,0
48,176,183806,1,0
112,128,184030,2,0,B|160:64|256:96,1,150
400,64,184926,5,8
448,128,185149,1,0
464,208,185373,1,0
448,288,185597,1,0
400,352,185821,1,0
352,288,186045,1,0
336,208,186269,1,0
336,208,186381,1,0
336,208,186493,1,0
352,128,186717,1,8
400,64,186941,1,0
400,64,187164,2,0,B|304:16|256:112,1,150,0|4
112,64,188060,5,0
64,128,188284,1,0
112,192,188508,1,8
256,208,188955,2,0,B|336:160|400:256,1,150
416,320,189627,1,0
464,256,189851,1,0
464,176,190075,1,0
400,128,190299,1,8
272,64,190746,6,0,B|272:-16,2,75
128,80,191642,2,0,B|48:128|80:224,1,150,0|8
80,288,192314,1,0
144,240,192538,2,0,B|240:192|288:288,1,150
333,218,193209,1,0
384,272,193433,1,0
384,272,193545,1,0
384,272,193657,1,0
464,272,193881,1,8
464,192,194105,1,0
464,112,194329,2,0,B|464:16,2,75
128,112,195224,5,0
144,256,195672,2,0,B|48:256|48:160,2,150,8|0|0
288,256,197015,1,0
320,112,197463,1,8
384,64,197687,1,0
432,128,197911,2,0,B|432:288,3,150,0|0|0|8
288,288,199702,5,0
208,288,199926,1,0
128,288,200149,1,0
64,144,200597,1,0
144,144,200821,1,0
224,144,201045,2,0,B|384:144,2,150,0|0|4
32,32,202836,5,2
32,352,203732,5,2
480,32,204627,5,2
480,352,205523,5,2
256,192,205970,12,0,208209
64,64,208657,6,0,B|32:160|128:192,1,150,2|4
272,192,209552,2,0,B|352:248,2,75,8|0|0
272,112,210224,1,0
272,32,210448,2,0,B|352:-16|432:80,1,150,8|0
464,112,211120,1,0
480,144,211232,1,0
480,176,211343,1,8
480,256,211567,1,0
480,256,211791,1,0
176,272,212239,6,0,B|264:256,1,75,8|0
112,176,212687,2,0,B|16:128,1,75
176,80,213135,2,0,B|256:48,1,75,8|2
80,304,213806,1,2
256,64,214254,1,2
448,304,214702,1,2
448,304,214814,1,0
448,304,214926,1,8
448,160,215149,1,0
448,160,215373,1,0
384,48,215821,5,8
384,128,216045,1,0
384,208,216269,2,0,B|368:304|240:288,2,150,0|8|0
176,288,217388,1,0
176,208,217612,2,0,B|160:128|48:128,1,150,8|0
288,64,218284,1,0
288,144,218508,2,0,B|384:128|432:208,1,150,8|0
464,256,219179,5,0
384,272,219403,1,8
304,256,219627,1,0
224,272,219851,1,0
192,272,219963,1,0
160,272,220075,1,0
80,272,220299,2,0,B|-16:272,1,75,8|0
16,192,220746,2,0,B|112:192,1,75
96,112,221194,2,0,B|192:112,1,75,8|0
192,32,221642,2,0,B|368:32,1,150,0|8
416,32,222314,1,0
464,96,222538,5,0
464,128,222649,1,0
464,160,222761,1,0
464,192,222873,1,0
464,224,222985,2,0,B|448:320|336:320,1,150
224,272,223881,5,8
144,272,224105,1,0
64,272,224329,2,0,B|32:240|64:192,1,75
64,128,224776,1,8
64,48,225000,1,0
64,48,225112,1,0
64,48,225224,1,0
144,48,225448,1,0
144,128,225672,1,8
144,208,225896,1,0
144,128,226120,1,0
208,256,226567,6,0,B|240:208|288:288|288:288|352:288,1,150,8|0
400,272,227239,1,0
352,208,227463,2,0,B|416:192|400:144|496:144,1,150,8|0
480,224,228135,1,0
480,304,228358,2,0,B|480:352|408:360,1,75,8|0
384,288,228806,1,0
352,272,228918,1,0
320,256,229030,1,0
256,224,229254,1,8
256,224,229478,1,0
256,224,229702,1,0
48,192,230149,6,0,B|48:272,2,75,8|0|0
128,64,230821,2,0,B|216:64,2,75,0|8|0
192,208,231493,2,0,B|192:256|288:192|336:256,1,150,0|8
480,224,232164,1,0
336,176,232388,2,0,B|304:144|224:192|176:128,1,150,0|8
64,224,233060,1,0
128,80,233508,5,0
208,80,233732,2,0,B|304:80,3,75,8|0|0|0
288,160,234627,1,8
288,160,234851,1,0
480,48,235299,5,0
480,192,235523,1,8
480,336,235746,1,0
320,80,236194,1,0
112,288,236642,1,0
400,224,237090,1,0
112,128,237538,2,0,B|144:176|96:208,1,75,0|6
