osu file format v9

[General]
AudioFilename: OPirony.mp3
AudioLeadIn: 1500
PreviewTime: 129365
Countdown: 0
SampleSet: Normal
StackLeniency: 0.7
Mode: 0
LetterboxInBreaks: 1

[Editor]
Bookmarks: 192502,238890,243367
DistanceSpacing: 1.4
BeatDivisor: 4
GridSize: 8

[Metadata]
Title:Irony
Artist:ClariS
Creator:sisiJiang
Version:Tiny
Source:Ore no Imouto ga Konnani Kawaii Wake ga Nai
Tags:op oreimo kirino kousaka kiririn Suzuka Asahina Mayoi Neko Tiny stone

[Difficulty]
HPDrainRate:6
CircleSize:4
OverallDifficulty:6
ApproachRate:8
SliderMultiplier:2.1
SliderTickRate:0.5

[Events]
//Background and Video events
0,0,"imouto.jpg"
//Break Periods
2,18117,23211
2,89758,100898
2,159161,169853
//Storyboard Layer 0 (Background)
//Storyboard Layer 1 (Fail)
//Storyboard Layer 2 (Pass)
//Storyboard Layer 3 (Foreground)
//Storyboard Sound Samples
//Background Colour Transformations
3,100,163,162,255

[TimingPoints]
1350,447.761194029851,4,2,1,80,1,0
11718,-200,4,2,1,80,0,0
12613,-100,4,2,1,80,0,0
13733,-100,4,1,0,60,0,0
13957,-100,4,2,1,80,0,0
14627,-100,4,1,0,60,0,0
14851,-100,4,2,1,80,0,0
17874,-100,4,1,0,0,0,0
18099,-100,4,1,0,60,0,0
47763,-200,4,1,0,60,0,0
48210,-200,4,1,0,0,0,0
48434,-100,4,1,0,60,0,0
58663,-100,4,1,0,60,0,1
62986,-100,4,1,0,0,0,1
63210,-100,4,1,0,60,0,1
63434,-100,4,1,0,0,0,1
63658,-100,4,1,0,60,0,1
63882,-100,4,1,0,0,0,1
64106,-100,4,1,0,60,0,1
72320,-100,4,1,0,60,0,0
72991,-100,4,1,0,60,0,1
82842,-100,4,1,0,60,0,0
89515,-100,4,1,0,0,0,0
89964,-100,4,1,0,60,0,0
115822,-200,4,1,0,60,0,0
117390,-100,4,1,0,60,0,0
130305,-100,4,1,0,60,0,1
143961,-100,4,1,0,60,0,0
144633,-100,4,1,0,60,0,1
154260,-100,4,1,0,60,0,0
160039,-100,4,2,0,80,0,0
174703,-100,4,1,0,70,0,0
175151,-100,4,2,0,80,0,0
176717,-100,4,1,0,70,0,0
176942,-100,4,2,0,80,0,0
178285,-100,4,1,0,70,0,0
178733,-100,4,2,0,80,0,0
180076,-100,4,1,0,70,0,0
180524,-100,4,2,0,80,0,0
181867,-100,4,1,0,70,0,0
182315,-100,4,2,0,80,0,0
183881,-100,4,1,0,70,0,0
184106,-100,4,2,0,80,0,0
185449,-100,4,1,0,70,0,0
185856,-100,4,2,0,80,0,0
189101,-100,4,1,0,70,0,0
189479,-100,4,2,0,80,0,0
191045,-100,4,1,0,70,0,0
191270,-100,4,2,0,80,0,0
192613,-100,4,1,0,70,0,0
193173,-100,4,2,0,80,0,0
194404,-100,4,1,0,70,0,0
194581,-100,4,2,0,80,0,0
194701,-100,4,1,0,70,0,0
194851,-100,4,2,0,80,0,0
196418,-100,4,1,0,70,0,0
196643,-100,4,2,0,80,0,0
196743,-100,4,2,0,80,0,0
198209,-100,4,1,0,70,0,0
198434,-100,4,2,0,80,0,0
199553,-100,4,1,0,70,0,0
199777,-100,4,2,0,80,0,0
200001,-100,4,1,0,70,0,0
200225,-100,4,2,1,80,0,0
204814,-200,4,2,1,80,0,0
209111,-200,4,2,1,80,0,1
222556,-100,4,1,0,60,0,1
222767,-100,4,1,0,60,0,0
223439,-100,4,1,0,60,0,1
233290,-100,4,1,0,60,0,0
252053,-200,4,2,0,70,0,0
252544,-100,4,1,0,55,0,0
252991,-100,4,1,0,40,0,0
253439,-100,4,1,0,50,0,0
253887,-100,4,1,0,75,0,0
254335,-100,4,1,0,100,0,0
254674,-100,4,1,0,5,0,0

[Colours]
Combo1 : 158,109,184
Combo2 : 235,167,41
Combo3 : 224,120,201
Combo4 : 254,92,92

[HitObjects]
256,152,902,6,0,B|272:88|352:80,1,105,2|0
360,184,1350,1,0
160,112,1797,1,2
88,192,2021,2,0,B|232:216,1,105,0|0
240,304,2469,1,0
320,240,2693,1,2
376,328,2917,1,0
376,328,3029,1,0
376,328,3141,1,0
456,264,3364,1,0
456,160,3588,2,0,B|400:160|344:96,1,105,2|0
304,32,4036,1,0
160,184,4484,6,0,B|96:176|48:248,1,105,2|0
8,136,4932,1,0
168,328,5379,1,2
64,328,5603,1,0
64,328,5827,2,0,B|72:256|144:240,1,105,0|0
272,328,6275,1,2
272,328,6499,2,0,B|264:256|192:240,1,105,0|0
168,152,6947,1,0
256,96,7170,2,0,B|256:40,2,52.5,2|0|0
256,200,7618,1,0
464,200,8066,5,2
464,200,8290,1,0
432,304,8514,2,0,B|320:304,1,105,0|0
224,304,8961,1,2
272,208,9185,2,0,B|392:208,1,105,0|0
320,112,9633,2,0,B|448:112,1,105,0|2
256,48,10081,2,0,B|232:112|160:128,1,105,0|0
112,200,10529,6,0,B|168:224|176:280,1,105,0|2
272,320,10976,2,0,B|320:280|312:208,1,105,0|0
241,148,11424,2,2,B|193:188|201:260,1,105,0|2
256,360,11872,2,0,B|256:192,1,157.5,0|2
256,96,12767,1,0
416,288,13215,5,0
416,288,13439,1,2
312,288,13663,2,0,B|184:288,1,105,0|0
135,192,14111,2,2,B|240:192,1,105,0|2
248,80,14558,2,0,B|328:104|336:184,1,105,0|0
264,304,15006,2,0,B|184:280|176:200,1,105,0|0
256,192,15454,12,0,17917
256,192,23961,5,0
256,192,24185,1,0
256,192,24409,1,0
256,192,24521,1,0
256,192,24633,1,0
256,48,24857,5,0
256,72,24969,1,0
256,96,25081,1,0
256,120,25193,1,0
256,144,25305,2,0,B|256:256,1,105
256,352,25752,2,0,B|328:360|368:288,2,105
392,88,26648,5,2
248,240,27096,1,2
256,32,27544,1,8
256,32,27767,1,8
256,192,27991,1,2
256,192,28103,1,0
256,192,28215,1,0
328,272,28439,1,2
360,256,28551,1,0
392,240,28663,1,0
376,136,28887,1,2
344,120,28999,1,0
312,104,29111,1,0
144,104,29335,5,8
112,272,29558,1,8
256,192,29782,1,8
256,192,30006,1,4
440,88,30454,5,0
232,88,30902,1,0
232,88,31126,2,0,B|192:128|120:112,1,105,0|8
48,176,31573,2,0,B|168:200|160:336,1,210
160,328,32245,1,8
256,296,32469,1,0
360,304,32693,2,0,B|424:256|384:168,1,105,0|0
344,64,33141,2,0,B|280:112|320:200,1,105,8|0
264,248,33588,6,0,B|328:120|232:16,1,210,0|8
104,144,34260,2,0,B|184:64,1,105,0|0
176,176,34708,2,0,B|80:272,1,105,0|8
288,168,35155,2,0,B|200:256,1,105,0|0
216,344,35603,2,0,B|304:256,1,105,0|8
360,192,36051,2,0,B|432:192,2,52.5,0|0|0
152,192,36499,1,0
256,192,36723,1,8
256,192,36947,1,0
256,192,37170,1,4
152,240,37618,5,8
360,240,38066,1,0
416,152,38290,2,0,B|352:136|328:64,1,105,0|8
488,40,38738,2,0,B|528:168|432:232,1,210,0|0
437,227,39409,1,8
328,224,39633,6,0,B|264:248|256:312,1,105,0|0
176,232,40081,1,0
176,232,40305,2,0,B|164:173|88:152,1,105,8|0
208,120,40752,2,0,B|240:56|296:48,1,105
282,50,41200,1,8
272,152,41424,2,0,B|304:208|256:264,1,105
266,250,41872,1,0
424,112,42320,5,0
288,272,42767,1,0
192,88,43215,1,0
64,248,43663,1,0
144,312,43887,2,0,B|192:360|272:320,1,105,8|0
344,304,44335,6,0,B|440:288|440:168|320:152,1,210,0|8
168,80,45006,1,0
168,80,45230,2,0,B|72:96|72:216|192:232,1,210,0|8
256,280,45902,1,0
152,208,46126,6,0,B|128:144|184:88,1,105,0|0
360,176,46573,2,0,B|384:240|328:296,1,105,8|0
152,208,47021,2,0,B|128:144|184:88,1,105,0|0
352,48,47469,2,0,B|416:24|456:88,1,105,8|0
472,176,47917,2,0,B|448:224|464:288,1,105
288,48,48588,5,0
264,192,48812,1,0
152,96,49036,1,0
40,192,49260,1,8
40,192,49484,2,0,B|104:200|136:272,1,105,0|0
232,264,49932,1,0
344,248,50155,1,8
448,248,50379,2,0,B|456:192|448:128,1,105,0|0
248,80,51051,6,0,B|192:88|152:136,1,105,8|0
72,72,51499,1,0
200,360,52170,5,0
288,304,52394,2,0,B|280:256|288:176,1,105,0|0
352,120,52842,1,8
432,48,53066,2,0,B|432:112|488:144,1,105
432,232,53514,2,0,B|480:264|488:328,2,105,0|8|0
352,304,54185,1,0
352,304,54409,1,0
272,192,54633,5,8
136,208,54857,1,0
40,112,55081,1,0
256,328,55529,5,8
416,192,55752,2,0,B|392:128|320:104,1,105,0|0
168,224,56200,2,0,B|160:288|216:336,1,105,0|8
344,160,56648,2,0,B|352:96|296:48,1,105,0|0
168,40,57096,1,0
168,40,57320,1,8
112,152,57544,1,0
136,160,57655,1,0
160,168,57767,1,0
184,176,57879,1,0
208,184,57991,1,0
232,192,58103,1,0
256,200,58215,6,0,B|320:208|352:160,2,105,0|0|2
48,232,59111,1,0
120,336,59335,1,2
120,336,59558,1,0
256,352,59782,1,2
256,352,59894,1,0
256,352,60006,1,0
256,192,60230,1,2
256,192,60454,1,0
464,192,60678,5,2
400,272,60902,1,2
312,216,61126,1,2
248,296,61350,1,2
64,192,61797,5,2
168,192,62021,1,0
224,104,62245,2,2,B|256:40|376:32|416:128,1,210,2|0
448,200,62917,2,0,B|440:264|352:280,1,105,2|0
360,168,63364,2,0,B|312:128|232:176,1,105,2|0
280,264,63812,2,0,B|208:272|176:192,1,105,2|0
136,128,64260,1,2
184,32,64484,2,0,B|232:64|224:128,1,105
304,48,64932,1,2
456,192,65379,5,0
344,136,65603,1,0
288,248,65827,1,2
264,264,65939,1,0
240,272,66051,1,0
112,256,66275,1,0
104,128,66499,2,0,B|32:120,2,52.5,2|0|0
256,96,66947,1,0
256,96,67170,1,0
440,200,67394,2,2,B|368:224|384:312,1,105,2|0
168,304,67842,5,0
168,96,68066,1,0
352,192,68290,2,0,B|424:192,2,52.5,2|0|0
168,192,68738,2,0,B|56:192,1,105
256,328,69185,2,2,B|352:328|400:280|400:176,1,210,2|0
256,136,69857,1,0
128,96,70081,2,0,B|56:128|88:224,1,105,2|0
168,336,70529,2,0,B|240:304|208:208,1,105,2|0
256,88,70976,5,2
256,192,71200,1,0
256,296,71424,1,2
256,296,71536,1,0
256,296,71648,1,0
400,264,71872,2,2,B|424:320,2,52.5,2|0|0
352,64,72544,6,0,B|240:128,1,105
136,208,72991,1,2
136,208,73215,1,0
256,312,73439,1,0
256,312,73663,2,0,B|320:312|352:256,1,105,2|0
456,120,74111,2,0,B|384:120|352:176,1,105,2|0
256,56,74558,2,2,B|184:16|96:96|144:168,1,210,2|0
80,312,75230,1,2
256,352,75454,1,2
240,176,75678,1,2
48,104,76126,6,0,B|48:168|104:192,1,105
184,56,76573,2,2,B|328:24|376:160,1,210,2|0
504,56,77245,2,2,B|520:144|472:192,1,105,2|0
480,320,77693,2,2,B|352:360|272:240,1,210,2|2
96,192,78588,1,2
224,192,78812,1,2
224,192,79036,1,0
352,192,79260,1,2
352,192,79372,1,0
352,192,79484,1,0
360,88,79708,6,0,B|400:144|488:112,1,105,0|0
488,24,80155,2,2,B|488:272,1,210,2|0
360,328,80827,2,0,B|304:336|232:312,1,105,2|0
320,128,81275,2,0,B|304:72|248:32,1,105,2|0
88,192,81723,2,0,B|208:192,1,105,2|0
288,152,82170,1,2
344,240,82394,1,2
256,296,82618,2,8,B|256:360,2,52.5,2|0|0
256,192,83066,6,0,B|256:80,1,105
360,64,83514,2,2,B|464:64|496:128|496:216,2,210,2|0|2
360,64,84633,1,0
344,168,84857,1,0
256,232,85081,1,0
160,192,85305,5,2
144,192,85752,1,2
128,192,86200,1,2
112,192,86648,1,2
256,192,87096,12,0,89558
448,128,101648,5,4
256,40,102096,2,0,B|152:32|96:88|80:168,1,210,8|0
16,240,102767,2,0,B|32:312|136:280,1,105,0|8
176,176,103215,2,0,B|192:96|336:96|336:208,1,210
256,256,103887,1,8
416,288,104111,1,0
464,136,104335,2,0,B|448:72|344:64,1,105,0|0
320,248,104782,2,0,B|336:312|440:320,1,105,8|0
488,192,105230,6,0,B|488:104|432:64|328:80,1,210,0|8
248,112,105902,1,0
248,112,106126,1,0
144,192,106349,1,0
144,216,106461,1,0
144,240,106573,1,8
256,304,106797,2,0,B|328:304|352:240,1,105,0|0
480,136,107245,2,0,B|504:200|464:264,1,105,0|8
488,56,107693,2,0,B|416:56|392:120,1,105,0|0
344,288,108141,1,0
160,256,108364,1,8
256,88,108588,1,0
256,88,108812,1,0
472,88,109260,6,0,B|456:216|280:208,1,210,8|0
264,296,109932,1,0
264,296,110155,1,8
160,264,110379,2,0,B|72:224|80:104|208:104,1,210,0|0
288,72,111051,1,8
288,72,111275,6,0,B|328:120|296:192,1,105,0|0
128,296,111723,1,0
128,296,111947,2,0,B|88:248|120:176,1,105,8|0
256,192,112394,2,0,B|472:192,1,210,0|8
256,112,113066,2,0,B|376:112,1,105,0|0
256,32,113514,1,0
88,192,113961,2,0,B|72:256|152:288,1,105,0|0
224,232,114409,2,0,B|264:288|360:232,1,105,0|8
392,328,114857,2,0,B|464:312|464:232,1,105,0|0
424,160,115305,2,0,B|432:96|504:72,2,105,0|8|0
424,160,115976,6,0,B|392:216|320:200,1,105
280,200,116648,1,0
280,200,116872,2,0,B|160:200,1,105
80,200,117544,1,0
160,72,117767,5,0
160,72,117991,1,0
288,184,118215,1,8
288,184,118439,1,0
224,336,118663,1,0
224,336,118887,1,0
392,304,119111,1,8
392,304,119335,1,0
456,120,119558,2,0,B|320:136|296:264,1,210
320,80,120230,5,0
224,48,120454,2,0,B|160:40|104:88,1,105,0|0
168,168,120902,1,8
272,176,121126,2,0,B|336:192|368:264,1,105
456,256,121573,1,0
480,152,121797,1,8
496,48,122021,2,0,B|392:40|280:48,1,210,0|0
256,192,122693,5,8
256,216,122805,1,0
256,240,122917,1,0
256,264,123029,1,0
256,288,123141,2,0,B|208:344|96:344|56:272,1,210,0|8
96,168,123812,1,0
232,112,124036,2,0,B|288:72|360:120,1,105,0|0
456,208,124484,1,8
448,48,124708,2,0,B|432:128|368:160,1,105,0|0
256,192,125155,2,0,B|256:312,2,105,0|8|0
256,56,125827,1,0
256,56,126051,1,0
120,112,126275,5,8
120,136,126387,1,0
120,160,126499,1,0
120,184,126611,1,0
120,208,126723,2,0,B|136:288|208:320|320:288,1,210,0|8
328,136,127394,2,0,B|320:64|232:48,1,105,0|0
184,248,127842,2,0,B|192:320|280:336,1,105,0|8
256,224,128290,2,0,B|256:96,1,105
360,224,128738,1,0
344,88,128961,1,0
264,208,129185,1,0
248,72,129409,1,0
224,80,129521,1,0
200,88,129633,1,0
176,96,129745,1,0
152,104,129857,6,0,B|64:208,1,105,8|0
136,272,130305,1,2
136,272,130417,1,0
136,272,130529,1,0
224,216,130752,1,0
296,352,130976,2,0,B|312:240,1,105,2|0
448,192,131424,2,0,B|504:192,2,52.5,2|0|0
352,88,131872,2,2,B|320:48|248:48,1,105,2|0
256,192,132320,1,0
256,192,132544,2,2,B|192:208|176:272,1,105,2|0
168,152,132991,1,2
168,360,133439,5,0
296,344,133663,1,0
408,272,133887,2,2,B|520:192|440:64,1,210,2|0
352,160,134558,1,2
144,160,135006,1,2
256,336,135454,1,2
328,264,135678,1,0
328,160,135902,1,2
256,80,136126,1,2
232,72,136238,1,0
208,64,136349,1,2
184,56,136461,1,0
160,48,136573,2,2,B|96:32|40:72,1,105,2|0
80,216,137021,6,2,B|80:328,1,105,2|0
256,288,137469,2,2,B|256:352,2,52.5,2|0|0
256,112,137917,1,0
360,192,138141,2,2,B|354:138|360:72,1,105,2|0
488,64,138588,1,0
492,89,138700,1,0
492,115,138812,1,0
490,141,138924,1,0
484,166,139036,2,2,B|466:238|393:245,1,105,2|0
344,168,139484,1,8
344,168,139708,1,8
248,200,139932,2,0,B|208:168|224:104,1,105,2|0
104,40,140379,2,0,B|144:72|128:136,1,105,2|0
96,248,140827,2,2,B|136:352|280:368|376:280,1,315,2|0
400,192,141723,1,2
368,192,141835,1,0
336,192,141947,1,0
256,96,142170,5,8
256,96,142394,1,8
128,192,142618,1,8
256,360,143066,5,2
368,248,143290,1,2
304,104,143514,1,0
424,40,143738,1,0
436,57,143849,1,0
439,81,143961,1,0
443,105,144073,1,0
436,130,144185,6,0,B|460:202|388:258,1,105
432,336,144633,2,2,B|360:392|256:344|248:256,1,210,2|0
240,184,145305,2,0,B|240:72,1,105,2|0
336,120,145752,1,2
336,120,145976,1,0
432,72,146200,1,2
432,128,146312,1,0
432,184,146424,1,0
320,296,146648,1,2
152,360,146872,1,2
168,184,147096,1,2
336,120,147320,1,2
256,344,147767,5,2
256,240,147991,1,0
344,176,148215,2,2,B|304:112|184:120|160:184,1,210,2|0
152,304,148887,2,0,B|80:320|40:248,1,105,2|0
72,144,149335,2,0,B|48:80|112:48,1,105,2|0
216,144,149782,2,0,B|216:72,2,52.5,2|0|0
296,320,150230,1,2
128,232,150454,1,2
296,144,150678,2,0,B|296:72,2,52.5
456,176,151349,6,0,B|448:248|376:264,1,105,2|0
496,304,151797,2,2,B|432:368|336:360|280:288,1,210,2|0
208,192,152469,1,2
208,192,152693,1,0
296,40,152917,1,2
296,40,153029,1,0
296,40,153141,1,0
376,112,153364,2,2,B|416:152|464:200,1,105,2|0
360,288,153812,2,0,B|408:320|464:288,2,105,2|2|2
256,192,154484,1,0
256,192,154708,5,2
256,192,154820,1,0
256,192,154932,1,0
256,56,155155,2,0,B|176:48|160:136,1,105,2|0
32,80,155603,2,0,B|-8:144|80:208,1,105
136,280,156051,2,0,B|120:352,4,52.5,2|0|0|0|0
176,104,156723,5,0
176,104,156947,1,4
448,336,157394,1,0
88,360,157842,1,0
288,64,158290,1,0
136,176,158738,5,0
136,176,158961,1,4
256,192,170603,12,0,172394
256,192,172506,12,0,173290
384,88,173738,5,0
176,120,174185,2,0,B|88:144|96:256|192:280,1,210,8|0
280,288,174857,1,0
280,288,175081,2,0,B|368:280|416:224|424:144,1,210
328,128,175752,1,0
232,104,175976,2,0,B|216:56|160:32,1,105,8|0
128,136,176424,2,0,B|144:184|200:208,1,105
200,208,176872,1,0
408,192,177320,6,0,B|392:120|336:72|248:64,1,210,0|8
152,80,177991,2,0,B|88:88|64:176,1,105
160,208,178439,2,0,B|160:272|248:280,1,105
328,264,178887,1,0
400,192,179111,2,0,B|464:192,2,52.5
376,88,179558,1,8
472,48,179782,2,0,B|472:168,1,105
472,256,180230,1,0
472,256,180454,1,0
256,192,180902,5,0
104,48,181349,1,8
104,256,181797,2,0,B|40:256|8:304,2,105
208,272,182469,1,0
304,216,182693,1,0
352,312,182917,1,0
448,256,183141,2,0,B|464:136,1,105,8|0
480,48,183588,2,0,B|416:48|384:104,1,105
390,93,184036,5,0
232,336,184484,1,0
96,80,184932,1,8
376,152,185379,1,0
272,152,185603,1,0
168,152,185827,5,0
168,152,185939,1,0
168,152,186051,1,0
64,64,186275,1,0
64,64,186499,1,0
40,200,186723,1,8
40,200,186835,1,0
40,200,186947,1,0
96,264,187170,1,0
112,280,187282,1,0
128,296,187394,1,0
144,312,187506,1,0
160,328,187618,1,4
424,256,188066,6,0,B|448:184|392:88|312:88,1,210,0|8
232,80,188738,1,0
136,128,188961,2,0,B|136:64,2,52.5
136,232,189409,1,0
232,280,189633,1,0
136,328,189857,2,0,B|160:384|272:384,1,105
344,344,190305,2,0,B|376:296|440:280,1,105,8|0
440,176,190752,2,0,B|384:144|368:64,1,105
208,128,191200,6,0,B|136:120|112:160,1,105
304,256,191648,2,0,B|376:264|400:224,1,105
360,64,192096,2,0,B|328:168,1,105,8|0
152,320,192544,2,0,B|184:216,1,105,0|0
256,144,192991,1,0
312,344,193439,1,0
144,224,193887,1,8
144,224,194111,1,0
144,224,194223,1,0
144,224,194335,1,0
112,104,194558,1,0
88,120,194670,1,0
64,136,194782,1,0
104,320,195230,6,0,B|240:320,1,105
344,336,195678,1,8
432,192,195902,2,0,B|496:184|504:104,2,105
328,192,196573,2,0,B|200:192,1,105
96,96,197021,1,0
408,56,197469,1,8
256,328,197917,2,0,B|256:392,2,52.5
320,248,198364,6,0,B|360:216|368:144,1,105
192,152,198812,2,0,B|152:112|152:56,1,105
128,232,199260,2,0,B|168:288|240:272,1,105,8|0
384,152,199708,2,0,B|344:96|272:112,1,105
160,224,200155,2,0,B|112:336,1,105
352,160,200603,2,0,B|400:48,1,105
464,144,201051,1,0
464,144,201499,1,0
424,304,201947,5,4
256,336,202842,1,2
168,192,203738,1,2
40,88,204633,1,2
256,192,205529,1,4
256,192,206424,5,0
376,160,206872,1,2
501,186,207320,1,0
448,72,207767,1,2
448,72,207991,1,0
448,72,208215,5,0
433,77,208327,1,0
423,89,208439,1,0
417,103,208551,1,0
417,118,208663,2,0,B|417:187,1,52.5,2|0
327,226,209111,5,4
171,250,209558,1,2
171,250,209782,2,0,B|131:250|123:202,1,52.5
131,146,210230,2,0,B|139:114|187:114,1,52.5,0|2
211,178,210678,2,0,B|275:162,1,52.5
339,186,211126,1,0
379,114,211349,2,0,B|443:114,2,52.5,2|0|0
224,96,212245,6,0,B|184:88|168:128,1,52.5,2|0
88,56,212693,2,0,B|32:96|64:168,1,105,0|2
120,192,213364,1,0
184,336,213812,1,0
296,224,214260,1,0
296,64,214708,1,0
296,64,214932,2,0,B|264:48|232:56,1,52.5,2|0
168,56,215379,1,0
256,176,215827,6,0,B|320:176,1,52.5,2|0
384,176,216275,2,0,B|400:248|344:288,1,105,0|2
288,296,216947,2,0,B|160:296,1,105
56,208,217842,2,0,B|56:144|112:120,1,105
176,80,218514,1,2
256,72,218738,1,0
336,96,218961,1,0
392,160,219185,2,0,B|456:136,2,52.5,0|2|0
400,240,219857,6,0,B|376:296|312:320,1,105,0|2
224,344,220529,1,0
80,192,220976,1,0
288,192,221424,1,8
288,192,221648,1,0
408,104,221872,1,8
408,104,222096,1,0
256,56,222320,1,8
256,56,222544,5,0
256,72,222655,1,0
256,88,222767,1,0
256,104,222879,1,0
256,120,222991,2,0,B|248:184|192:200,1,105
24,160,223439,6,2,B|24:256|72:304|192:304,1,210,2|0
256,296,224111,2,0,B|360:288,1,105,2|0
480,184,224558,2,0,B|368:192,1,105,2|0
176,104,225006,2,2,B|432:88,1,210,2|0
488,120,225678,1,2
440,216,225902,1,2
456,320,226126,1,2
256,192,226573,6,0,B|192:192|168:248,1,105,2|0
72,368,227021,2,2,B|0:320|0:224|56:160,1,210,2|0
104,96,227693,2,0,B|136:48|216:56,1,105,2|0
328,144,228141,2,0,B|328:264,1,105,2|0
184,312,228588,2,0,B|216:360|296:352,1,105,2|0
440,280,229036,1,2
352,88,229260,1,2
256,280,229484,1,2
160,88,229708,1,2
120,288,230155,6,0,B|48:312,2,52.5,2|0|0
224,256,230603,2,2,B|312:232|392:272|408:344,1,210,2|0
464,184,231275,2,0,B|408:152|424:80,1,105,2|0
280,16,231723,2,0,B|336:48|320:120,1,105,2|0
256,184,232170,2,0,B|256:120,2,52.5,2|0|0
88,248,232618,1,2
256,336,232842,1,2
424,248,233066,1,2
424,144,233290,5,0
424,144,233514,2,2,B|376:96|304:96,1,105,2|0
488,48,233961,2,2,B|512:128|512:192|472:248|448:264,1,210,2|0
368,296,234633,1,0
264,304,234857,2,2,B|200:288|160:232,1,105,2|0
256,192,235305,1,0
256,192,235529,1,0
304,120,235752,5,2
272,104,236200,5,2
240,88,236648,5,2
208,72,237096,5,2
256,192,237544,12,0,240454
360,88,241349,5,0
360,296,241797,1,0
256,112,242245,2,0,B|192:104|144:136,1,105
136,232,242693,1,0
40,192,242917,2,0,B|24:272|80:344|184:344,1,210
256,336,243588,1,0
256,232,243812,2,0,B|256:152|272:88|328:40,1,210
326,41,244484,1,0
456,280,244932,5,4
456,280,245379,1,0
144,80,246051,1,0
88,168,246275,1,0
200,168,246499,2,0,B|272:96|392:72,1,210
384,73,247170,1,0
200,216,247394,6,0,B|272:288|392:312,1,210
432,192,248066,2,0,B|488:192,2,52.5
256,192,248514,1,0
256,192,248961,1,0
72,88,249409,1,0
72,88,249633,1,0
56,336,250081,6,0,B|112:288|176:288,1,105
256,288,250529,1,0
256,288,250752,1,0
359,271,250976,2,0,B|439:231|439:143|351:111,1,210
272,176,251648,1,0
272,176,251872,1,0
256,192,252096,12,0,254782
