osu file format v9

[General]
AudioFilename: OPirony.mp3
AudioLeadIn: 1500
PreviewTime: 129365
Countdown: 0
SampleSet: Normal
StackLeniency: 0.7
Mode: 0
LetterboxInBreaks: 1

[Editor]
Bookmarks: 238890,243367
DistanceSpacing: 1
BeatDivisor: 4
GridSize: 8

[Metadata]
Title:Irony
Artist:ClariS
Creator:sisiJiang
Version:Average
Source:Ore no Imouto ga Konnani Kawaii Wake ga Nai
Tags:op oreimo kirino kousaka kiririn Suzuka Asahina Mayoi Neko Tiny stone

[Difficulty]
HPDrainRate:5
CircleSize:4
OverallDifficulty:5
ApproachRate:6
SliderMultiplier:1.5
SliderTickRate:1

[Events]
//Background and Video events
0,0,"pink.jpg"
//Break Periods
2,18117,29084
2,89758,100278
2,159161,172240
//Storyboard Layer 0 (Background)
//Storyboard Layer 1 (Fail)
//Storyboard Layer 2 (Pass)
//Storyboard Layer 3 (Foreground)
//Storyboard Sound Samples
//Background Colour Transformations
3,100,163,162,255

[TimingPoints]
1350,447.761194029851,4,2,1,80,1,0
18099,-100,4,1,0,60,0,0
58663,-100,4,1,0,60,0,1
72320,-100,4,1,0,60,0,0
72991,-100,4,1,0,60,0,1
82842,-100,4,1,0,60,0,0
89516,-100,4,1,0,0,0,0
89965,-100,4,1,0,60,0,0
119628,-100,4,1,0,0,0,0
119852,-100,4,1,0,60,0,0
130305,-100,4,1,0,60,0,1
143961,-100,4,1,0,60,0,0
144633,-100,4,1,0,60,0,1
154260,-100,4,1,0,60,0,0
160976,-100,4,2,0,60,0,0
174969,-100,4,1,0,60,0,0
175193,-100,4,2,0,60,0,0
176760,-100,4,1,0,60,0,0
176984,-100,4,2,0,60,0,0
178551,-100,4,1,0,60,0,0
178775,-100,4,2,0,60,0,0
180322,-100,4,1,0,60,0,0
180566,-100,4,2,0,60,0,0
182087,-100,4,1,0,60,0,0
182357,-100,4,2,0,60,0,0
183924,-100,4,1,0,60,0,0
184148,-100,4,2,0,60,0,0
185491,-100,4,1,0,60,0,0
185939,-100,4,2,0,60,0,0
189297,-100,4,1,0,60,0,0
189521,-100,4,2,0,60,0,0
191088,-100,4,1,0,60,0,0
191312,-100,4,2,0,60,0,0
192879,-100,4,1,0,60,0,0
193103,-100,4,2,0,60,0,0
194447,-100,4,1,0,60,0,0
194894,-100,4,2,0,60,0,0
196461,-100,4,1,0,60,0,0
196685,-100,4,2,0,60,0,0
198141,-100,4,1,0,60,0,0
198476,-100,4,2,0,60,0,0
200044,-100,4,1,0,60,0,0
200267,-100,4,2,0,60,0,0
209111,-100,4,2,1,70,0,1
222767,-100,4,2,0,70,0,0
223439,-100,4,1,0,70,0,1
233290,-100,4,1,0,70,0,0
252544,-100,4,1,0,55,0,0
252991,-100,4,1,0,40,0,0
253439,-100,4,1,0,50,0,0
253887,-100,4,1,0,75,0,0
254335,-100,4,1,0,100,0,0
254674,-100,4,1,0,5,0,0

[Colours]
Combo1 : 158,109,184
Combo2 : 235,167,41
Combo3 : 224,120,201
Combo4 : 254,92,92

[HitObjects]
424,160,1350,1,4
200,360,2245,2,0,L|200:200,1,150,0|2
280,88,3141,1,0
128,72,3588,2,0,B|24:80|16:192|16:192,1,150,2|0
160,232,4484,1,2
288,304,4932,6,0,B|368:344|432:288,1,150,0|2
352,160,5827,1,0
440,40,6275,2,0,B|272:40,1,150,2|0
192,104,7170,2,0,B|128:64,2,75,2|0|0
96,344,8514,5,0
392,304,9409,1,0
392,304,9857,1,2
336,168,10305,2,0,B|288:96|328:16,1,150,0|2
184,88,11200,1,0
32,88,11648,1,2
80,232,12096,2,0,B|0:232,2,75,0|0|2
80,232,12767,1,0
184,344,13215,6,0,B|336:344,1,150
136,192,14111,1,0
256,192,14558,1,0
376,192,15006,1,0
256,192,15454,12,0,17917
336,96,30454,5,8
448,192,30902,2,0,B|416:344,1,150,0|8
272,376,31797,2,0,B|304:224,1,150,0|8
160,272,32693,5,0
160,272,33141,1,8
176,120,33588,2,0,B|296:32,1,150,0|8
320,176,34484,2,0,B|440:88,1,150,0|8
496,224,35379,5,0
496,224,35827,1,8
416,352,36275,1,0
368,352,36499,1,0
320,352,36723,1,8
272,352,36947,1,0
224,352,37170,1,0
120,240,37618,6,0,B|96:160|-8:144,1,150,8|0
144,80,38514,2,0,B|224:120|296:32,1,150,8|0
392,144,39409,1,8
392,144,39857,1,0
240,160,40305,1,8
240,160,40752,1,0
272,304,41200,5,8
272,304,41424,1,0
272,304,41648,1,0
272,304,41872,1,0
432,224,42320,1,0
312,88,42767,1,0
136,144,43215,1,0
104,296,43663,6,0,B|16:312,2,75,0|8|0
104,294,44335,2,0,B|264:264,1,150,0|8
376,344,45230,2,0,B|456:336|496:256,1,150,0|8
472,192,45902,1,0
472,192,46126,1,0
352,104,46573,1,8
280,232,47021,1,0
128,208,47469,1,8
256,320,47917,1,0
256,168,48364,5,8
256,16,48812,2,0,B|176:40|184:144,1,150,0|8
32,144,49708,1,0
112,272,50155,2,0,B|160:328|264:304,1,150,8|0
232,160,51051,6,0,B|304:128|320:32,1,150,8|0
464,96,51947,1,8
480,248,52394,2,0,B|400:272|384:368,1,150,0|8
280,256,53290,1,0
144,192,53738,1,8
144,192,53961,1,0
144,192,54185,1,0
80,328,54633,6,0,B|32:264|40:160,1,150,8|0
184,240,55529,2,0,B|256:216|288:136,1,150,8|0
152,64,56424,1,8
296,24,56872,1,0
432,80,57320,1,8
432,80,57544,1,0
432,80,57767,1,0
432,80,57991,1,0
432,80,58215,6,0,B|432:232,1,150,8|4
344,352,59111,1,8
344,352,59335,1,0
312,208,59782,1,0
208,312,60230,1,0
160,168,60678,1,0
88,160,60902,1,8
64,88,61126,1,0
112,32,61350,1,0
256,56,61797,6,0,B|312:16|400:32,1,150,8|0
312,152,62693,1,8
352,216,62917,1,0
424,208,63141,2,0,B|504:192|520:104,2,150,0|8|0
352,216,64260,1,0
312,152,64484,2,0,B|232:192|240:280,1,150,8|0
96,328,65379,1,8
96,328,65827,5,0
224,248,66275,1,8
120,144,66723,1,0
120,144,66947,1,0
120,144,67170,1,8
248,64,67618,1,0
248,64,67842,1,0
248,64,68066,1,8
248,64,68290,6,0,B|400:64,1,150
504,168,69185,2,0,B|416:288,1,150
312,184,70081,2,0,B|312:336,1,150
176,264,70976,1,0
272,152,71424,1,0
120,136,71872,1,0
320,32,72544,5,8
320,32,72767,1,0
320,32,72991,2,0,B|392:72|368:176,1,150,4|8
488,256,73663,2,0,B|440:320|352:312,1,150,0|8
344,160,74558,2,0,B|256:160,1,75
208,200,75006,1,0
144,232,75230,2,0,B|64:232,2,75,8|0|0
208,96,76126,6,0,B|272:40|352:80,1,150,8|0
472,152,77021,1,8
472,152,77245,1,0
472,152,77469,1,0
472,152,77693,1,0
360,272,78141,1,0
208,248,78588,1,0
208,248,78812,2,0,B|160:96,1,150,8|0
304,56,79708,6,0,B|400:48|448:120,1,150,8|0
376,208,80603,1,8
376,280,80827,1,0
376,352,81051,2,0,B|224:312,1,150,0|8
112,224,81947,1,0
184,96,82394,2,0,B|272:96|320:32,1,150,8|0
304,184,83290,5,8
448,128,83738,2,0,B|496:200|448:272,1,150,0|8
450,268,84409,1,0
304,248,84857,2,0,B|384:272,2,75,0|8|0
160,280,85752,1,0
304,248,86200,1,0
256,104,86648,1,0
256,192,87096,12,0,89558
256,88,101648,5,0
256,240,102096,1,8
408,216,102544,1,0
408,216,102767,1,0
368,280,102991,1,8
328,344,103215,2,0,B|224:272|104:336,1,225,0|8
64,184,104335,5,0
176,88,104782,2,0,B|320:48,1,150,8|0
440,136,105678,1,8
440,136,105902,5,0
416,280,106349,1,0
264,296,106797,1,0
192,160,107245,1,0
240,16,107693,2,0,B|144:8|112:80,1,150
113,76,108364,1,8
113,76,108588,1,0
72,296,109260,5,8
224,264,109708,2,0,B|376:264,1,150,0|8
496,352,110603,1,0
472,200,111051,1,8
472,200,111275,1,0
416,144,111499,1,0
416,144,111723,1,0
344,128,111947,2,0,B|248:128|208:56,1,150,8|0
64,96,112842,5,8
16,152,113066,1,0
56,216,113290,2,0,B|128:256|120:352,1,150,0|8
176,288,113961,1,0
248,256,114185,1,0
320,256,114409,1,0
392,256,114633,1,8
464,256,114857,1,0
368,56,115976,5,0
72,72,116872,1,8
88,224,117320,2,0,B|168:248|176:344,1,150,8|0
240,200,118215,1,8
392,200,118663,2,0,B|328:256|344:352,1,150,0|8
488,312,119558,2,0,B|416:352,1,75
256,344,120230,5,0
256,344,120454,1,0
256,192,120902,1,8
256,192,121126,1,0
256,40,121573,1,0
256,40,121797,1,8
256,40,122021,1,0
40,104,122693,6,0,B|112:136|128:224,1,150,8|0
16,320,123588,1,8
160,368,124036,2,0,B|224:312|216:224,1,150,0|8
216,234,124708,1,0
272,96,125155,2,0,B|344:56|424:96,1,150
432,320,126275,6,0,B|480:320|504:280,2,75,8|0|0
296,256,127170,1,8
296,256,127394,2,0,B|224:288,1,75
232,208,127842,2,0,B|176:144,1,75,0|8
256,136,128290,2,0,B|272:56,3,75,0|0|0|8
344,80,129185,1,0
344,80,129409,1,0
344,80,129633,1,0
408,40,129857,6,0,B|488:64|496:160,1,150,8|4
352,192,130752,1,8
352,192,130976,1,0
312,336,131424,1,0
208,232,131872,1,0
144,368,132320,1,0
144,368,132544,2,0,B|48:368|0:280,1,150,8|0
88,168,133439,5,8
56,96,133663,1,0
120,56,133887,2,0,B|176:8|272:40,1,150,0|8
262,36,134558,1,0
408,48,135006,1,0
320,168,135454,1,0
472,176,135902,1,0
472,176,136126,2,0,B|472:264|384:296,1,150,8|0
248,304,137021,5,8
208,368,137245,1,0
152,320,137469,2,0,B|112:248|24:232,1,150,0|8
56,160,138141,1,0
200,208,138588,1,0
136,72,139036,6,0,B|208:32,1,75
256,88,139484,1,0
256,88,139708,1,8
328,56,139932,2,0,B|400:40,1,75
368,112,140379,2,0,B|392:192,1,75,0|8
376,256,140827,2,0,B|464:264|512:192,2,150
256,192,142170,5,0
256,192,142394,1,8
256,192,142618,1,0
184,320,143066,1,0
256,320,143290,1,8
328,320,143514,1,0
400,104,144185,5,8
400,104,144409,1,0
400,104,144633,2,0,B|360:40|240:32,1,150,4|8
232,96,145305,1,0
104,24,145752,1,0
16,144,146200,1,0
144,224,146648,1,0
208,256,146872,1,8
272,288,147096,1,0
336,320,147320,1,0
336,168,147767,6,0,B|416:160,1,75,8|0
464,208,148215,2,0,B|488:128|440:64,1,150,0|8
368,40,148887,1,0
256,144,149335,1,0
160,24,149782,1,0
48,128,150230,1,0
48,200,150454,1,8
48,272,150678,2,0,B|48:368,1,75
200,344,151349,6,0,B|256:288|352:328,1,150,8|0
464,240,152245,1,8
392,248,152469,2,0,B|392:160,1,75
320,200,152917,2,0,B|248:152,1,75,0|8
296,96,153364,2,0,B|216:104,1,75
144,104,153812,2,0,B|144:16,2,75,0|8|0
16,184,154708,5,0
16,184,154932,1,8
24,256,155155,2,0,B|40:344|104:368|216:344,1,225,0|8
197,347,156051,1,0
352,192,156723,1,8
352,192,156947,5,4
280,192,157394,1,0
208,192,157842,1,0
136,192,158290,1,0
64,192,158738,1,0
64,192,158961,1,4
412,115,173290,5,0
472,248,173738,2,0,B|320:248,1,150,0|8
232,368,174633,1,0
96,312,175081,2,0,B|88:232|0:208,1,150
54,155,175752,1,0
128,136,175976,2,0,B|208:120|224:24,1,150,8|0
368,64,176872,2,0,B|456:72|472:168,1,150
400,184,177544,1,0
328,208,177767,2,0,B|240:200|224:104,1,150,8|0
80,128,178663,2,0,B|216:160|128:296|296:320,1,300,0|8
272,168,180006,1,0
424,160,180454,1,0
424,160,180678,1,0
424,160,180902,6,0,B|416:80|336:32,1,150,0|8
224,120,181797,1,0
104,32,182245,2,0,B|40:88|88:176,1,150
83,168,182917,1,0
84,168,183141,2,0,B|136:240|77:312,1,150,8|0
144,344,183812,1,0
216,352,184036,2,0,B|304:368|360:272,1,150
464,384,184932,2,0,B|528:328|496:232,1,150,8|0
440,200,185603,1,0
400,136,185827,2,0,B|312:120|288:40,1,150
440,64,186723,1,8
440,64,187170,2,0,B|496:8,2,75,0|0|4
312,144,188066,5,0
312,144,188514,2,0,B|216:160|192:256,1,150,8|0
192,80,189409,1,0
192,80,189857,2,0,B|152:144|64:144,1,150,0|8
200,208,190752,1,0
200,208,190976,1,0
200,208,191200,2,0,B|272:240|264:336,1,150
328,296,191872,1,0
392,256,192096,1,8
392,256,192544,6,0,B|400:344|480:368,1,150
504,296,193215,1,0
512,224,193439,1,0
448,88,193887,1,8
328,176,194335,1,0
288,112,194558,1,0
272,40,194782,1,0
120,40,195230,5,0
120,40,195678,2,0,B|32:64|16:152,1,150,8|0
168,152,196573,1,0
168,152,197021,2,0,B|168:304,1,150,0|8
40,376,197917,1,0
192,368,198364,1,0
288,248,198812,2,0,B|296:168|368:128,1,150,0|8
416,272,199708,1,0
496,144,200155,2,0,B|472:64|376:48,1,150
240,56,201051,1,8
192,200,201499,1,0
136,336,201947,5,0
256,120,202842,1,2
336,352,203738,1,2
128,192,204633,1,2
368,224,205529,1,2
256,192,205976,12,0,208215
96,272,208663,5,0
96,272,208887,1,0
96,272,209111,2,0,B|96:192|176:144,1,150,4|0
240,120,209782,1,0
360,216,210230,1,0
416,72,210678,2,0,B|504:112|504:200,1,150
432,216,211350,1,2
408,288,211573,1,0
456,344,211797,1,0
304,328,212245,6,0,B|352:384,2,75,2|0|0
200,216,213141,1,2
136,256,213364,2,0,B|56:240|40:152,1,150
152,56,214260,2,0,B|208:16|320:24,1,150
304,96,214932,2,0,B|400:96,1,75,2|0
408,24,215379,1,0
432,168,215827,5,2
424,240,216051,1,0
464,304,216275,2,0,B|384:264|312:312,1,150,0|2
296,232,216947,2,0,B|216:256|152:200,1,150
80,328,217842,2,0,B|16:272|48:192,1,150
112,160,218514,1,2
96,88,218738,1,0
232,24,219185,5,0
296,64,219409,2,0,B|296:144,1,75,2|0
232,176,219857,2,0,B|312:216|392:168,1,150,0|2
440,144,220529,2,0,B|416:224|464:288,1,150
328,312,221424,1,8
328,312,221648,1,0
256,312,221872,1,8
256,312,222096,1,2
184,312,222320,1,8
40,144,222991,5,2
40,144,223215,1,0
112,112,223439,2,0,B|208:112|256:200,1,150,2|0
304,128,224111,1,2
304,128,224558,1,0
440,64,225006,2,0,B|488:144|448:216,1,150,2|0
392,168,225678,1,0
424,240,225902,1,0
392,312,226126,1,0
272,224,226573,5,0
256,296,226797,1,0
184,272,227021,2,0,B|104:232|32:280,1,150,2|0
104,320,227693,1,0
0,208,228141,1,0
144,160,228588,2,0,B|160:64|256:64,1,150,2|0
256,136,229260,1,2
328,112,229484,1,0
352,40,229708,1,2
440,160,230155,5,0
416,232,230379,1,0
480,272,230603,2,0,B|464:360|360:368,1,150,2|0
344,296,231275,2,0,B|256:256|200:320,1,150,2|0
136,352,231947,1,0
72,320,232170,2,0,B|88:224|16:184,1,150,2|0
23,188,232842,1,0
23,188,233066,1,2
104,64,233514,5,0
168,96,233738,1,0
224,48,233961,2,0,B|296:96|376:64,1,150,2|0
352,144,234633,1,0
424,160,234857,2,0,B|464:232|432:304,1,150,2|0
368,264,235529,1,0
328,328,235752,2,0,B|256:360|176:336,1,150,2|0
232,200,236648,2,0,B|168:152|88:184,1,150,2|0
24,48,237544,1,2
256,192,237767,12,0,240454
416,96,241350,5,0
296,184,241797,1,0
432,256,242245,2,0,B|384:248|360:272,1,75
312,328,242693,1,0
240,320,242917,2,0,B|160:320|112:248,1,150
184,224,243588,1,0
240,176,243812,2,0,B|272:88|240:24,1,150
168,56,244484,1,0
96,80,244708,1,0
72,152,244932,6,0,B|176:168|152:264|288:272,1,225
240,120,246051,1,0
312,112,246275,1,0
376,72,246499,2,0,B|456:24|512:96,1,150
424,216,247394,2,0,B|384:280|280:248,1,150
224,216,248066,2,0,B|144:168,1,75,0|0
96,136,248514,1,0
24,264,248961,1,0
152,336,249409,1,0
152,336,249633,1,0
304,320,250081,6,0,B|392:320|440:240,1,150
296,184,250976,1,0
360,48,251424,2,0,B|272:48,1,75,0|0
224,96,251872,1,0
256,192,252096,12,0,254782
