osu file format v14

[General]
AudioFilename: hitorigoto.mp3
AudioLeadIn: 0
PreviewTime: 54354
Countdown: 0
SampleSet: Soft
StackLeniency: 0.7
Mode: 0
LetterboxInBreaks: 0
WidescreenStoryboard: 0

[Editor]
DistanceSpacing: 1.6
BeatDivisor: 4
GridSize: 4
TimelineZoom: 2.5

[Metadata]
Title:Hitorigoto -TV MIX-
TitleUnicode:ヒトリゴト -TV MIX-
Artist:ClariS
ArtistUnicode:ClariS
Creator:Underforest
Version:Ezreal-sensei's Feelings
Source:エロマンガ先生
Tags:eromanga sensei opening tv size ver sacra music clara karen janpai hazu- proezreal shad0w1and
BeatmapID:1281708
BeatmapSetID:605323

[Difficulty]
HPDrainRate:6
CircleSize:4
OverallDifficulty:8.5
ApproachRate:9
SliderMultiplier:1.9
SliderTickRate:1

[Events]
//Background and Video events
Video,-250,"video.avi"
0,0,"bg2.jpg",0,0
//Break Periods
//Storyboard Layer 0 (Background)
//Storyboard Layer 1 (Fail)
//Storyboard Layer 2 (Pass)
//Storyboard Layer 3 (Foreground)
//Storyboard Sound Samples

[TimingPoints]
536,363.636363636364,4,2,1,80,1,0
899,-125,4,2,1,80,0,0
12172,-100,4,2,1,80,0,0
23808,-100,4,2,1,60,0,0
35445,-142.857142857143,4,2,1,50,0,0
41263,-100,4,2,1,60,0,0
53808,-133.333333333333,4,2,1,70,0,0
54354,-90.9090909090909,4,2,1,80,0,1
65626,-90.9090909090909,4,2,1,80,0,0
65990,-90.9090909090909,4,2,1,80,0,1
77263,-90.9090909090909,4,2,1,80,0,0
77626,-90.9090909090909,4,2,1,80,0,1
86354,-100,4,2,1,70,0,0
87717,-125,4,2,1,70,0,0
87808,-125,4,2,1,5,0,0
88536,-125,4,2,1,20,0,0

[Colours]
Combo1 : 177,245,50
Combo2 : 22,208,248
Combo3 : 255,136,196
Combo4 : 255,23,23
SliderTrackOverride : 16,34,47
SliderBorder : 206,225,0

[HitObjects]
348,272,536,5,4,1:2:0:0:
392,8,717,1,0,1:0:0:0:
378,188,899,6,0,P|420:217|439:262,1,76,0|0,0:0|0:0,0:0:0:0:
258,292,1263,2,0,P|262:242|292:202,1,76,0|2,0:0|0:0,0:0:0:0:
411,339,1626,2,0,P|365:361|316:355,1,76,0|0,0:0|0:0,0:0:0:0:
228,72,1990,5,0,1:0:0:0:
256,320,2172,1,0,1:0:0:0:
180,144,2354,6,0,L|260:152,1,76,0|0,0:0|0:0,0:0:0:0:
188,0,2717,2,0,L|141:65,1,76,0|2,0:0|0:0,0:0:0:0:
312,76,3081,2,0,L|278:2,1,76,0|0,0:0|0:0,0:0:0:0:
76,124,3445,5,0,1:0:0:0:
128,384,3626,1,0,1:0:0:0:
184,176,3808,1,0,0:0:0:0:
16,204,3990,1,0,0:0:0:0:
192,260,4172,1,0,0:0:0:0:
76,124,4354,1,2,0:0:0:0:
29,287,4536,2,0,L|104:275,1,76,0|0,0:0|0:0,0:0:0:0:
296,168,4899,5,4,1:2:0:0:
296,328,5081,2,0,L|308:160,1,152,0|0,0:0|0:0,0:0:0:0:
276,72,5626,6,0,P|316:68|356:84,1,76,4|0,3:0|0:0,0:0:0:0:
408,35,5869,2,0,P|372:52|343:89,1,76,4|0,3:0|0:0,0:0:0:0:
376,164,6111,1,4,3:0:0:0:
228,300,6354,5,4,1:2:0:0:
496,248,6536,1,0,1:0:0:0:
296,348,6717,6,0,L|305:268,1,76,0|0,0:0|0:0,0:0:0:0:
152,337,7081,2,0,L|216:385,1,76,0|2,0:0|0:0,0:0:0:0:
230,215,7444,2,0,L|155:247,1,76,0|0,0:0|0:0,0:0:0:0:
88,84,7808,5,0,1:0:0:0:
28,340,7990,1,0,1:0:0:0:
109,175,8172,6,0,P|58:172|18:144,1,76,0|0,0:0|0:0,0:0:0:0:
152,29,8536,2,0,P|175:73|171:123,1,76,0|2,0:0|0:0,0:0:0:0:
2,61,8899,2,0,P|29:18|74:-2,1,76,0|0,0:0|0:0,0:0:0:0:
296,76,9263,5,0,1:0:0:0:
224,340,9445,1,0,1:0:0:0:
200,140,9626,1,0,0:0:0:0:
348,256,9808,1,0,0:0:0:0:
200,140,9990,1,0,0:0:0:0:
380,148,10172,1,2,0:0:0:0:
216,240,10354,2,0,L|120:256,1,76
76,40,10717,5,4,1:2:0:0:
80,200,10899,2,0,L|64:40,1,152,0|0,0:0|0:0,0:0:0:0:
184,160,11445,6,0,P|196:120|224:96,1,76,4|0,3:0|0:0,0:0:0:0:
222,24,11687,2,0,P|212:60|231:112,1,76,4|0,3:0|0:0,0:0:0:0:
312,116,11929,1,0,0:0:0:0:
488,16,12172,6,0,P|496:80|488:116,1,95,6|0,0:0|0:0,0:0:0:0:
309,209,12536,2,0,P|302:162|311:115,1,95,10|0,0:0|0:0,0:0:0:0:
424,284,12899,1,2,0:0:0:0:
204,236,13081,1,0,0:0:0:0:
408,160,13263,1,10,0:0:0:0:
304,344,13445,6,0,L|208:352,1,95,2|0,0:0|0:0,0:0:0:0:
56,280,13808,2,0,L|72:392,1,95,2|8,0:0|0:0,0:0:0:0:
160,152,14172,2,0,L|168:52,1,95,2|0,0:0|0:0,0:0:0:0:
40,176,14536,1,2,0:0:0:0:
184,256,14717,1,8,0:0:0:0:
328,72,14899,1,0,0:0:0:0:
328,72,14990,1,0,0:0:0:0:
328,72,15081,6,0,P|304:116|320:180,1,95,4|0,0:0|0:0,0:0:0:0:
432,312,15445,2,0,P|405:269|342:251,1,95,10|0,0:0|0:0,0:0:0:0:
232,328,15808,1,2,0:0:0:0:
308,159,15990,1,0,0:0:0:0:
357,329,16172,1,10,0:0:0:0:
192,188,16354,6,0,L|96:184,1,95,2|0,0:0|0:0,0:0:0:0:
24,24,16717,2,0,L|120:28,1,95,2|8,0:0|0:0,0:0:0:0:
8,264,17081,2,0,L|0:160,1,95,2|0,0:0|0:0,0:0:0:0:
142,340,17445,1,2,0:0:0:0:
192,188,17626,1,8,0:0:0:0:
376,328,17808,1,2,0:0:0:0:
376,328,17899,1,0,0:0:0:0:
376,328,17990,6,0,P|348:288|356:212,1,95,4|0,0:0|0:0,0:0:0:0:
504,120,18354,2,0,P|508:168|463:230,1,95,10|0,0:0|0:0,0:0:0:0:
320,28,18717,1,2,0:0:0:0:
500,24,18899,1,0,0:0:0:0:
379,142,19081,1,10,0:0:0:0:
208,16,19263,6,0,L|220:124,1,95,2|0,0:0|0:0,0:0:0:0:
76,204,19626,2,0,L|88:96,1,95,2|8,0:0|0:0,0:0:0:0:
124,300,19990,2,0,L|-4:312,1,95,2|0,0:0|0:0,0:0:0:0:
180,212,20354,1,2,0:0:0:0:
268,376,20536,1,8,0:0:0:0:
444,204,20717,1,0,0:0:0:0:
444,204,20808,1,0,0:0:0:0:
444,204,20899,6,0,P|460:260|440:316,1,95,4|0,0:0|0:0,0:0:0:0:
296,224,21263,2,0,P|280:168|300:112,1,95,10|0,0:0|0:0,0:0:0:0:
448,36,21626,1,2,0:0:0:0:
280,20,21808,1,0,0:0:0:0:
376,172,21990,1,10,0:0:0:0:
170,131,22172,6,0,L|162:27,1,95,2|4,0:0|0:0,0:0:0:0:
16,248,22536,2,0,L|24:140,1,95,2|8,0:0|0:0,0:0:0:0:
168,288,22899,2,0,L|160:396,1,95,2|4,0:0|0:0,0:0:0:0:
360,128,23263,1,2,3:0:0:0:
360,128,23354,1,0,3:0:0:0:
360,128,23445,2,0,L|276:140,1,47.5,8|8,0:0|0:0,0:0:0:0:
204,216,23626,2,0,L|268:224,1,47.5,10|8,0:0|0:0,0:0:0:0:
436,276,23808,5,4,0:0:0:0:
428,184,23990,1,0,0:0:0:0:
368,336,24172,2,0,L|260:340,1,95,8|0,0:0|0:0,0:0:0:0:
92,232,24536,2,0,P|144:248|200:244,1,95,0|0,0:0|0:0,0:0:0:0:
332,96,24899,2,0,P|292:133|267:183,1,95,8|0,0:0|0:0,0:0:0:0:
476,124,25263,6,0,L|480:20,1,95,0|0,0:0|0:0,0:0:0:0:
376,212,25626,2,0,L|380:316,1,95,8|0,0:0|0:0,0:0:0:0:
252,112,25990,2,0,P|308:124|368:108,1,95,0|0,0:0|0:0,0:0:0:0:
152,204,26354,2,0,P|96:192|36:208,1,95,8|0,0:0|0:0,0:0:0:0:
96,320,26717,5,2,0:0:0:0:
276,268,26899,1,0,0:0:0:0:
96,320,27081,2,0,L|0:316,1,95,8|0,0:0|0:0,0:0:0:0:
152,204,27445,1,0,0:0:0:0:
208,372,27626,1,0,0:0:0:0:
320,176,27808,1,8,0:0:0:0:
316,364,27990,1,0,0:0:0:0:
448,184,28172,5,2,0:0:0:0:
452,292,28354,2,0,L|460:188,1,95,2|8,0:0|0:0,0:0:0:0:
304,80,28717,2,0,P|380:104|484:56,1,190,2|2,0:0|0:0,0:0:0:0:
292,68,29263,1,10,0:0:0:0:
272,276,29445,1,2,0:0:0:0:
272,276,29536,1,0,0:0:0:0:
272,276,29626,5,4,0:0:0:0:
344,216,29808,1,0,0:0:0:0:
184,248,29990,2,0,L|200:344,1,95,8|0,0:0|0:0,0:0:0:0:
64,156,30354,2,0,L|80:36,1,95,0|0,0:0|0:0,0:0:0:0:
288,132,30717,2,0,P|232:124|184:144,1,95,8|0,0:0|0:0,0:0:0:0:
424,176,31081,6,0,L|440:64,1,95,0|0,0:0|0:0,0:0:0:0:
360,288,31445,2,0,L|372:388,1,95,8|0,0:0|0:0,0:0:0:0:
197,149,31808,2,0,P|261:129|321:145,1,95,0|0,0:0|0:0,0:0:0:0:
176,336,32172,2,0,P|110:321|66:277,1,95,8|0,0:0|0:0,0:0:0:0:
120,96,32536,5,2,0:0:0:0:
24,248,32717,1,0,0:0:0:0:
120,96,32899,2,0,L|108:-4,1,95,8|0,0:0|0:0,0:0:0:0:
24,248,33263,1,0,0:0:0:0:
208,184,33445,1,0,0:0:0:0:
16,136,33626,1,8,0:0:0:0:
128,272,33808,1,0,0:0:0:0:
228,88,33990,5,2,0:0:0:0:
336,108,34172,2,0,L|232:104,1,95,0|8,0:0|0:0,0:0:0:0:
412,44,34536,2,0,P|436:120|364:204,1,190,2|2,0:0|0:0,0:0:0:0:
224,168,35081,1,10,0:0:0:0:
428,328,35263,1,2,0:0:0:0:
428,328,35354,1,0,0:0:0:0:
428,328,35445,6,0,P|360:308|284:336,1,132.999995941162,6|0,0:0|0:0,0:0:0:0:
88,360,36172,2,0,P|156:380|232:352,1,132.999995941162,8|2,0:0|0:0,0:0:0:0:
208,260,36717,1,2,0:0:0:0:
208,260,36899,2,0,L|200:180,2,66.4999979705811,2|0|0,0:0|0:0|0:0,0:0:0:0:
68,100,37626,2,0,P|140:116|216:92,1,132.999995941162,10|0,0:0|0:0,0:0:0:0:
292,56,38172,1,0,0:0:0:0:
300,204,38354,6,0,L|308:56,1,132.999995941162,6|0,0:0|0:0,0:0:0:0:
460,216,39081,2,0,L|452:364,1,132.999995941162,10|2,0:0|0:0,0:0:0:0:
352,320,39626,1,0,0:0:0:0:
352,320,39808,2,0,P|296:308|268:312,2,66.4999979705811,2|0|0,0:0|0:0|0:0,0:0:0:0:
140,284,40536,6,0,L|148:348,2,44.3333319803874,8|8|8,0:3|0:3|0:3,0:0:0:0:
72,232,40899,2,0,L|52:288,2,44.3333319803874,8|8|8,0:3|0:3|0:3,0:0:0:0:
44,152,41263,6,0,L|232:128,1,190,4|8,0:0|0:0,0:0:0:0:
336,212,41808,1,0,0:0:0:0:
284,336,41990,2,0,L|168:316,1,95,0|0,0:0|0:0,0:0:0:0:
336,212,42354,2,0,L|440:196,1,95,8|0,0:0|0:0,0:0:0:0:
300,128,42717,6,0,P|244:188|304:304,1,190,0|8,0:0|0:0,0:0:0:0:
384,352,43263,1,0,0:0:0:0:
384,352,43445,2,0,L|496:336,1,95,2|2,0:0|0:0,0:0:0:0:
336,212,43808,1,8,0:0:0:0:
276,356,43990,1,2,0:0:0:0:
440,184,44172,6,0,L|240:172,1,190,0|8,0:0|0:0,0:0:0:0:
144,252,44717,1,0,0:0:0:0:
84,132,44899,2,0,P|140:116|196:128,1,95,0|0,0:0|0:0,0:0:0:0:
144,252,45263,2,0,P|88:268|32:256,1,95,8|0,0:0|0:0,0:0:0:0:
240,168,45626,6,0,L|216:384,1,190,0|8,0:0|0:0,0:0:0:0:
332,288,46172,1,0,0:0:0:0:
332,288,46354,2,0,L|344:184,1,95,2|2,0:0|0:0,0:0:0:0:
436,344,46717,1,8,0:0:0:0:
412,136,46899,1,2,0:0:0:0:
412,136,46990,1,0,0:0:0:0:
412,136,47081,6,0,P|356:104|256:168,1,190,4|8,0:0|0:0,0:0:0:0:
136,212,47626,1,0,0:0:0:0:
8,180,47808,2,0,L|20:300,1,95,0|0,0:0|0:0,0:0:0:0:
136,212,48172,2,0,L|124:92,1,95,8|0,0:0|0:0,0:0:0:0:
240,248,48536,6,0,P|192:312|68:300,1,190,0|10,0:0|0:0,0:0:0:0:
135,120,49081,1,0,0:0:0:0:
135,120,49263,2,0,P|125:179|155:236,1,95,2|0,0:0|0:0,0:0:0:0:
320,200,49626,2,0,P|331:245|320:291,1,95,10|0,0:0|0:0,0:0:0:0:
228,96,49990,6,0,L|444:84,1,190,0|8,0:0|0:0,0:0:0:0:
488,252,50536,1,0,0:0:0:0:
488,252,50717,2,0,P|512:304|500:368,1,95,2|0,0:0|0:0,0:0:0:0:
364,264,51081,2,0,P|369:206|411:157,1,95,8|0,0:0|0:0,0:0:0:0:
280,24,51445,6,0,L|288:152,1,95,2|0,0:0|0:0,0:0:0:0:
144,184,51808,2,0,L|136:56,1,95,10|0,0:0|0:0,0:0:0:0:
200,272,52172,6,0,L|64:288,1,95,2|0,0:0|0:0,0:0:0:0:
285,118,52536,1,10,0:0:0:0:
352,328,52717,1,0,0:0:0:0:
352,328,52808,1,0,0:0:0:0:
352,328,52899,5,8,0:0:0:0:
392,84,53081,2,0,L|500:92,1,95
244,248,53445,2,0,L|100:256,1,142.5,8|0,0:0|0:0,0:0:0:0:
78,243,53808,6,0,P|66:302|26:235,1,178.12500679493,2|0,0:1|0:2,0:0:0:0:
68,148,54354,6,0,L|200:136,1,104.500003189087,6|0,0:0|0:0,0:0:0:0:
400,32,54717,2,0,L|268:20,1,104.500003189087,8|0,0:0|0:0,0:0:0:0:
292,228,55081,1,2,0:0:0:0:
156,28,55263,1,0,0:0:0:0:
156,264,55445,1,8,0:0:0:0:
376,128,55626,1,0,0:0:0:0:
152,40,55808,5,4,0:1:0:0:
292,228,55990,2,0,P|344:248|424:232,1,104.500003189087,0|8,0:0|0:0,0:0:0:0:
96,140,56354,2,0,P|40:148|-16:204,1,104.500003189087,0|4,0:0|0:1,0:0:0:0:
280,28,56717,1,2,0:0:0:0:
156,264,56899,1,10,0:0:0:0:
280,28,57081,1,2,0:0:0:0:
384,276,57263,5,6,0:0:0:0:
496,56,57445,2,0,L|500:176,1,104.500003189087,0|8,0:0|0:0,0:0:0:0:
392,288,57808,1,0,0:0:0:0:
260,92,57990,1,2,0:0:0:0:
264,328,58172,1,0,0:0:0:0:
400,132,58354,1,8,0:0:0:0:
164,220,58536,1,0,0:0:0:0:
400,132,58717,5,4,0:1:0:0:
264,328,58899,2,0,L|124:320,1,104.500003189087,0|8,0:0|0:0,0:0:0:0:
408,208,59263,2,0,L|524:212,1,104.500003189087,0|4,0:0|0:1,0:0:0:0:
248,112,59626,1,2,0:0:0:0:
380,364,59808,1,10,0:0:0:0:
248,112,59990,1,2,0:0:0:0:
144,368,60172,5,6,0:0:0:0:
32,200,60354,2,0,P|104:224|168:204,1,104.500003189087,0|8,0:0|0:0,0:0:0:0:
296,32,60717,1,0,0:0:0:0:
304,256,60899,1,0,0:0:0:0:
304,44,61081,1,0,0:0:0:0:
100,128,61263,1,0,0:0:0:0:
312,56,61445,1,0,0:0:0:0:
408,224,61626,6,0,P|420:176|400:104,1,104.500003189087,6|0,0:0|0:0,0:0:0:0:
304,256,61990,1,8,0:0:0:0:
484,360,62172,1,0,0:0:0:0:
304,256,62354,2,0,P|248:240|180:252,1,104.500003189087,2|0,0:0|0:0,0:0:0:0:
24,384,62717,2,0,P|82:379|141:345,1,104.500003189087,10|0,0:0|0:0,0:0:0:0:
48,168,63081,6,0,L|52:296,1,104.500003189087,4|0,0:0|0:0,0:0:0:0:
188,40,63445,2,0,L|184:168,1,104.500003189087,8|0,0:0|0:0,0:0:0:0:
444,16,63808,2,0,P|388:32|324:16,1,104.500003189087,4|0,0:0|0:0,0:0:0:0:
288,236,64172,2,0,P|344:216|408:236,1,104.500003189087,8|0,0:0|0:0,0:0:0:0:
456,100,64536,5,6,0:0:0:0:
412,360,64717,1,0,0:0:0:0:
268,100,64899,1,10,0:0:0:0:
224,360,65081,1,0,0:0:0:0:
140,192,65263,5,2,0:0:0:0:
408,224,65445,1,0,0:0:0:0:
176,40,65626,1,10,0:0:0:0:
312,348,65808,1,10,0:0:0:0:
368,68,65990,6,0,L|496:60,1,104.500003189087,6|0,0:0|0:0,0:0:0:0:
348,212,66354,2,0,L|220:204,1,104.500003189087,8|2,0:0|0:0,0:0:0:0:
156,24,66717,1,2,0:0:0:0:
64,280,66899,1,0,0:0:0:0:
20,40,67081,1,8,0:0:0:0:
264,124,67263,1,0,0:0:0:0:
8,164,67445,5,4,0:1:0:0:
256,216,67626,2,0,P|321:199|353:131,1,104.500003189087,0|8,0:0|0:0,0:0:0:0:
64,280,67990,2,0,P|16:332|28:404,1,104.500003189087,0|4,0:0|0:1,0:0:0:0:
124,104,68354,1,2,0:0:0:0:
200,352,68536,1,10,0:0:0:0:
124,104,68717,1,2,0:0:0:0:
332,252,68899,5,6,0:0:0:0:
68,204,69081,2,0,L|200:196,1,104.500003189087,0|8,0:0|0:0,0:0:0:0:
344,260,69445,1,0,0:0:0:0:
84,360,69626,1,2,0:0:0:0:
224,128,69808,1,0,0:0:0:0:
260,384,69990,1,8,0:0:0:0:
68,204,70172,1,0,0:0:0:0:
260,384,70354,5,4,0:1:0:0:
224,128,70536,2,0,L|236:248,1,104.500003189087,0|8,0:0|0:0,0:0:0:0:
420,108,70899,2,0,L|432:-8,1,104.500003189087,0|4,0:0|0:1,0:0:0:0:
236,28,71263,1,2,0:0:0:0:
388,272,71445,1,10,0:0:0:0:
236,28,71626,1,2,0:0:0:0:
144,216,71808,5,6,0:0:0:0:
352,164,71990,2,0,L|472:160,1,104.500003189087,0|8,0:0|0:0,0:0:0:0:
160,224,72354,1,0,0:0:0:0:
128,52,72536,1,2,0:0:0:0:
300,236,72717,1,0,0:0:0:0:
32,176,72899,1,8,0:0:0:0:
272,84,73081,1,0,0:0:0:0:
128,308,73263,5,6,0:0:0:0:
0,104,73445,2,0,P|60:100|108:160,1,104.500003189087,0|8,0:0|0:0,0:0:0:0:
232,16,73808,1,0,0:0:0:0:
121,203,73990,2,0,L|129:338,1,104.500003189087,2|0,0:0|0:0,0:0:0:0:
352,152,74354,2,0,L|348:36,1,104.500003189087,10|0,0:0|0:0,0:0:0:0:
272,312,74717,6,0,P|376:356|496:320,1,209.000006378174,4|8,0:1|0:0,0:0:0:0:
467,338,75263,1,0,0:0:0:0:
352,152,75445,2,0,P|248:108|128:144,1,209.000006378174,4|8,0:1|0:0,0:0:0:0:
156,125,75990,1,0,0:0:0:0:
192,340,76172,6,0,P|188:277|152:228,1,104.500003189087,4|0,0:1|0:0,0:0:0:0:
64,48,76536,2,0,P|36:104|44:164,1,104.500003189087,8|0,0:0|0:0,0:0:0:0:
8,340,76899,1,2,3:0:0:0:
8,340,76990,1,2,3:0:0:0:
8,340,77081,1,2,3:0:0:0:
136,140,77263,1,10,0:0:0:0:
180,122,77353,1,0,0:0:0:0:
226,116,77444,1,0,0:0:0:0:
274,120,77535,1,0,0:0:0:0:
318,136,77626,6,0,L|348:360,1,209.000006378174,6|0,0:0|0:0,0:0:0:0:
216,224,78172,1,0,0:0:0:0:
448,300,78354,1,2,0:0:0:0:
236,336,78536,1,0,0:0:0:0:
428,184,78717,1,8,0:0:0:0:
360,384,78899,1,0,0:0:0:0:
364,120,79081,6,0,P|416:96|516:200,1,209.000006378174,2|0,0:0|0:0,0:0:0:0:
332,232,79626,1,0,0:0:0:0:
252,44,79808,2,0,P|257:95|248:156,1,104.500003189087,2|0,0:0|0:0,0:0:0:0:
44,252,80172,1,10,0:0:0:0:
120,60,80354,1,0,0:0:0:0:
300,268,80536,6,0,P|203:271|120:192,1,209.000006378174,6|8,0:0|0:0,0:0:0:0:
384,184,81081,1,2,0:0:0:0:
384,184,81263,2,0,P|420:240|416:292,1,104.500003189087,2|2,0:0|0:0,0:0:0:0:
232,120,81626,2,0,P|264:64|312:40,1,104.500003189087,8|2,0:0|0:0,0:0:0:0:
276,272,81990,5,0,0:0:0:0:
60,228,82172,1,0,0:0:0:0:
276,272,82354,1,8,0:0:0:0:
60,228,82536,1,0,0:0:0:0:
128,120,82717,5,0,0:0:0:0:
144,344,82899,1,0,0:0:0:0:
268,156,83081,1,8,0:0:0:0:
60,228,83263,1,0,0:0:0:0:
330,101,83445,6,0,P|350:165|242:233,1,209.000006378174,4|10,0:0|0:0,0:0:0:0:
104,56,83990,1,0,0:0:0:0:
104,56,84172,2,0,L|232:36,1,104.500003189087,0|2,0:0|0:0,0:0:0:0:
163,238,84536,2,0,L|49:226,1,104.500003189087,8|2,0:0|0:0,0:0:0:0:
260,184,84899,6,0,P|276:244|240:316,1,104.500003189087,2|0,0:0|0:0,0:0:0:0:
32,356,85263,2,0,P|84:332|160:348,1,104.500003189087,10|0,0:0|0:0,0:0:0:0:
324,332,85626,5,0,3:0:0:0:
364,344,85716,1,0,3:0:0:0:
406,337,85807,1,0,3:0:0:0:
439,312,85898,1,0,3:0:0:0:
458,273,85990,2,0,P|452:240|456:208,1,52.2500015945435,8|8,0:0|0:0,0:0:0:0:
404,64,86172,2,0,P|392:95|369:123,1,52.2500015945435,8|8,0:0|0:0,0:0:0:0:
200,232,86354,5,4,0:0:0:0:
256,192,86445,12,0,87445,0:0:0:0:
196,124,87717,6,0,B|244:144|280:120|280:120|232:184|252:244|300:264|364:248|368:208|348:168|308:188,1,342,14|2,0:0|0:0,0:0:0:0:
