osu file format v14

[General]
AudioFilename: audio.mp3
AudioLeadIn: 0
PreviewTime: 54915
Countdown: 0
SampleSet: Normal
StackLeniency: 0.7
Mode: 1
LetterboxInBreaks: 0
WidescreenStoryboard: 0

[Editor]
DistanceSpacing: 0.5
BeatDivisor: 4
GridSize: 4
TimelineZoom: 1.4

[Metadata]
Title:Hitorigoto -TV MIX-
TitleUnicode:ヒトリゴト -TV MIX-
Artist:ClariS
ArtistUnicode:ClariS
Creator:Chocola_2287
Version:Oni
Source:エロマンガ先生
Tags:Opening Anime Eromanga Sensei ero manga eromanga-sensei tv size
BeatmapID:1266757
BeatmapSetID:599387

[Difficulty]
HPDrainRate:6
CircleSize:7
OverallDifficulty:6.3
ApproachRate:10
SliderMultiplier:1.4
SliderTickRate:1

[Events]
//Background and Video events
0,0,"thumb-1920-820984.png",0,0
//Break Periods
//Storyboard Layer 0 (Background)
//Storyboard Layer 1 (Fail)
//Storyboard Layer 2 (Pass)
//Storyboard Layer 3 (Foreground)
//Storyboard Sound Samples

[TimingPoints]
1104,363.636363636364,4,1,0,90,1,0
54922,-100,4,1,0,100,0,1
86922,-100,4,1,0,90,0,0

[HitObjects]
184,200,1104,5,4,0:0:0:0:
176,208,1285,1,4,0:0:0:0:
176,208,2013,1,12,0:0:0:0:
152,240,2558,1,4,0:0:0:0:
152,240,2740,1,4,0:0:0:0:
152,240,3467,1,12,0:0:0:0:
152,240,4013,1,4,0:0:0:0:
152,240,4194,1,4,0:0:0:0:
152,240,4922,1,12,0:0:0:0:
80,312,5467,2,4,P|68:164|336:124,1,420
184,200,6922,1,4,0:0:0:0:
176,208,7103,1,4,0:0:0:0:
176,208,7831,1,12,0:0:0:0:
152,240,8376,1,4,0:0:0:0:
152,240,8558,1,4,0:0:0:0:
152,240,9285,1,12,0:0:0:0:
152,240,9831,1,4,0:0:0:0:
152,240,10012,1,4,0:0:0:0:
152,240,10740,1,12,0:0:0:0:
136,328,11285,2,4,P|360:120|392:140,1,420
196,188,12740,5,4,0:0:0:0:
184,212,12922,1,8,0:0:0:0:
184,212,13104,1,0,0:0:0:0:
184,212,13467,1,0,0:0:0:0:
184,212,13649,1,0,0:0:0:0:
184,212,13740,1,0,0:0:0:0:
184,212,13831,1,8,0:0:0:0:
184,212,14013,1,8,0:0:0:0:
196,188,14376,1,8,0:0:0:0:
196,188,14740,1,0,0:0:0:0:
196,188,15104,1,8,0:0:0:0:
160,120,15467,1,8,0:0:0:0:
196,188,15649,1,0,0:0:0:0:
196,188,15831,1,0,0:0:0:0:
160,120,16013,1,8,0:0:0:0:
176,116,16376,1,0,0:0:0:0:
176,116,16558,1,0,0:0:0:0:
176,116,16649,1,0,0:0:0:0:
176,116,16740,1,8,0:0:0:0:
176,116,16922,1,8,0:0:0:0:
176,116,17285,1,8,0:0:0:0:
176,116,17649,1,0,0:0:0:0:
176,116,18013,1,8,0:0:0:0:
176,116,18194,1,0,0:0:0:0:
196,188,18558,1,4,0:0:0:0:
176,116,18740,1,0,0:0:0:0:
196,188,18922,1,8,0:0:0:0:
196,188,19285,1,0,0:0:0:0:
196,188,19467,1,0,0:0:0:0:
176,116,19558,1,0,0:0:0:0:
196,188,19649,1,8,0:0:0:0:
196,188,19831,1,8,0:0:0:0:
196,188,20194,1,8,0:0:0:0:
196,188,20558,1,0,0:0:0:0:
196,188,20922,1,8,0:0:0:0:
196,188,21285,1,8,0:0:0:0:
196,188,21467,1,0,0:0:0:0:
196,188,21649,1,0,0:0:0:0:
196,188,21831,1,8,0:0:0:0:
196,188,22194,1,0,0:0:0:0:
196,188,22376,1,0,0:0:0:0:
196,188,22467,1,0,0:0:0:0:
196,188,22558,1,8,0:0:0:0:
196,188,22740,1,8,0:0:0:0:
196,188,23104,1,8,0:0:0:0:
196,188,23467,1,0,0:0:0:0:
196,188,23831,1,8,0:0:0:0:
196,188,24013,1,0,0:0:0:0:
196,188,24376,1,4,0:0:0:0:
196,188,24558,1,0,0:0:0:0:
196,188,24740,1,8,0:0:0:0:
196,188,25104,1,0,0:0:0:0:
196,188,25285,1,0,0:0:0:0:
196,188,25467,1,8,0:0:0:0:
196,188,25649,1,8,0:0:0:0:
196,188,25740,1,8,0:0:0:0:
196,188,25831,1,0,0:0:0:0:
196,188,26013,1,0,0:0:0:0:
196,188,26194,1,8,0:0:0:0:
196,188,26376,1,8,0:0:0:0:
196,188,26558,1,0,0:0:0:0:
196,188,26740,1,0,0:0:0:0:
196,188,26922,1,8,0:0:0:0:
196,188,27285,1,0,0:0:0:0:
196,188,27467,1,8,0:0:0:0:
196,188,27649,1,0,0:0:0:0:
196,188,28013,1,0,0:0:0:0:
196,188,28194,1,8,0:0:0:0:
196,188,28285,1,0,0:0:0:0:
196,188,28376,1,8,0:0:0:0:
196,188,28558,1,8,0:0:0:0:
196,188,28740,1,0,0:0:0:0:
196,188,28922,1,8,0:0:0:0:
196,188,29285,1,0,0:0:0:0:
196,188,29649,1,8,0:0:0:0:
196,188,29831,1,0,0:0:0:0:
196,192,30013,1,8,0:0:0:0:
196,188,30194,1,4,0:0:0:0:
196,188,30376,1,0,0:0:0:0:
196,188,30558,1,8,0:0:0:0:
196,188,30922,1,0,0:0:0:0:
196,188,31104,1,0,0:0:0:0:
196,188,31285,1,8,0:0:0:0:
196,188,31467,1,8,0:0:0:0:
196,188,31558,1,8,0:0:0:0:
196,188,31649,1,0,0:0:0:0:
196,188,31831,1,0,0:0:0:0:
196,188,32013,1,8,0:0:0:0:
196,188,32194,1,8,0:0:0:0:
196,188,32376,1,0,0:0:0:0:
196,188,32558,1,0,0:0:0:0:
196,188,32740,1,8,0:0:0:0:
200,152,33104,1,0,0:0:0:0:
200,152,33285,1,8,0:0:0:0:
200,152,33467,1,0,0:0:0:0:
200,152,33831,1,0,0:0:0:0:
200,192,34013,1,8,0:0:0:0:
200,192,34104,1,0,0:0:0:0:
200,192,34194,1,8,0:0:0:0:
200,192,34376,1,8,0:0:0:0:
200,152,34558,1,0,0:0:0:0:
196,188,34740,1,8,0:0:0:0:
200,192,35104,1,0,0:0:0:0:
200,192,35467,1,8,0:0:0:0:
200,192,35649,1,0,0:0:0:0:
224,188,35831,1,8,0:0:0:0:
196,188,36013,1,4,0:0:0:0:
256,156,36558,1,0,0:0:0:0:
256,156,36740,1,8,0:0:0:0:
256,156,37104,1,0,0:0:0:0:
256,156,37285,1,8,0:0:0:0:
256,156,37467,1,0,0:0:0:0:
256,156,37831,1,0,0:0:0:0:
256,156,38194,1,8,0:0:0:0:
256,156,38558,1,0,0:0:0:0:
256,156,38922,1,0,0:0:0:0:
256,156,39467,1,0,0:0:0:0:
256,156,39649,1,8,0:0:0:0:
256,156,40013,1,0,0:0:0:0:
296,120,40194,1,8,0:0:0:0:
256,156,40376,1,0,0:0:0:0:
176,192,40740,1,0,0:0:0:0:
296,116,41104,1,0,0:0:0:0:
220,168,41225,1,0,0:0:0:0:
220,168,41346,1,0,0:0:0:0:
220,168,41467,1,8,0:0:0:0:
176,192,41831,1,0,0:0:0:0:
160,188,42194,1,8,0:0:0:0:
160,188,42558,1,0,0:0:0:0:
160,188,42740,1,0,0:0:0:0:
160,188,42922,1,8,0:0:0:0:
160,184,43285,1,0,0:0:0:0:
160,184,43467,1,8,0:0:0:0:
148,164,43558,1,8,0:0:0:0:
160,184,43649,1,0,0:0:0:0:
160,184,43831,1,8,0:0:0:0:
160,184,44013,1,0,0:0:0:0:
148,164,44194,1,8,0:0:0:0:
148,164,44285,1,8,0:0:0:0:
148,164,44376,1,8,0:0:0:0:
180,200,44558,1,8,0:0:0:0:
160,184,44740,1,0,0:0:0:0:
160,180,45104,1,8,0:0:0:0:
156,176,45467,1,0,0:0:0:0:
156,176,45649,1,0,0:0:0:0:
156,176,45831,1,8,0:0:0:0:
156,176,46194,1,0,0:0:0:0:
148,164,46376,1,8,0:0:0:0:
148,164,46467,1,8,0:0:0:0:
148,164,46558,1,0,0:0:0:0:
152,176,46740,1,8,0:0:0:0:
152,176,46922,1,0,0:0:0:0:
148,164,47104,1,8,0:0:0:0:
148,164,47194,1,0,0:0:0:0:
148,164,47285,1,8,0:0:0:0:
180,200,47467,1,8,0:0:0:0:
152,172,47649,1,0,0:0:0:0:
152,168,48013,1,8,0:0:0:0:
148,164,48376,1,0,0:0:0:0:
148,164,48558,1,0,0:0:0:0:
148,164,48740,1,8,0:0:0:0:
148,164,49104,1,0,0:0:0:0:
148,164,49285,1,8,0:0:0:0:
148,164,49376,1,8,0:0:0:0:
148,164,49467,1,0,0:0:0:0:
148,164,49649,1,8,0:0:0:0:
148,164,49831,1,0,0:0:0:0:
148,164,50013,1,8,0:0:0:0:
148,164,50104,1,8,0:0:0:0:
148,164,50194,1,8,0:0:0:0:
172,156,50376,1,8,0:0:0:0:
148,164,50558,1,0,0:0:0:0:
148,164,50922,1,8,0:0:0:0:
148,164,51104,1,8,0:0:0:0:
136,168,51285,1,0,0:0:0:0:
136,168,51376,1,0,0:0:0:0:
136,168,51467,1,0,0:0:0:0:
136,168,51649,1,8,0:0:0:0:
148,164,52013,1,0,0:0:0:0:
148,164,52194,1,8,0:0:0:0:
136,168,52376,1,0,0:0:0:0:
136,168,52467,1,0,0:0:0:0:
136,168,52558,1,0,0:0:0:0:
148,164,52740,1,8,0:0:0:0:
148,164,52922,1,0,0:0:0:0:
148,164,53104,1,8,0:0:0:0:
132,212,53467,5,4,0:0:0:0:
132,212,53649,1,4,0:0:0:0:
168,296,54013,2,4,P|144:120|196:80,1,210
160,176,54922,1,4,0:0:0:0:
160,176,55285,1,0,0:0:0:0:
160,176,55467,1,8,0:0:0:0:
160,176,55649,1,0,0:0:0:0:
160,176,55831,1,0,0:0:0:0:
160,176,55922,1,0,0:0:0:0:
160,176,56013,1,8,0:0:0:0:
160,176,56194,1,8,0:0:0:0:
160,176,56376,1,0,0:0:0:0:
160,176,56558,1,8,0:0:0:0:
160,176,56649,1,8,0:0:0:0:
160,176,56740,1,0,0:0:0:0:
160,176,56922,1,8,0:0:0:0:
160,176,57104,1,0,0:0:0:0:
160,176,57285,1,8,0:0:0:0:
160,176,57376,1,8,0:0:0:0:
160,176,57467,1,0,0:0:0:0:
160,176,57558,1,8,0:0:0:0:
160,176,57649,1,0,0:0:0:0:
160,176,57831,1,4,0:0:0:0:
160,176,58194,1,0,0:0:0:0:
160,176,58376,1,8,0:0:0:0:
160,176,58558,1,0,0:0:0:0:
160,176,58740,1,0,0:0:0:0:
160,176,58831,1,0,0:0:0:0:
160,176,58922,1,8,0:0:0:0:
160,176,59104,1,8,0:0:0:0:
160,176,59285,1,0,0:0:0:0:
160,176,59467,1,8,0:0:0:0:
160,176,59558,1,8,0:0:0:0:
160,176,59649,1,0,0:0:0:0:
160,176,59831,1,8,0:0:0:0:
160,176,60013,1,0,0:0:0:0:
160,176,60194,1,8,0:0:0:0:
160,176,60285,1,0,0:0:0:0:
160,176,60376,1,8,0:0:0:0:
160,176,60467,1,8,0:0:0:0:
160,176,60558,1,0,0:0:0:0:
160,176,60740,1,4,0:0:0:0:
160,176,61104,1,0,0:0:0:0:
160,176,61285,1,8,0:0:0:0:
160,176,61467,1,0,0:0:0:0:
160,176,61649,1,0,0:0:0:0:
160,176,61740,1,0,0:0:0:0:
160,176,61831,1,8,0:0:0:0:
160,176,62013,1,8,0:0:0:0:
160,176,62194,1,0,0:0:0:0:
160,176,62376,1,0,0:0:0:0:
176,192,62467,1,0,0:0:0:0:
160,176,62558,1,8,0:0:0:0:
160,176,62740,1,0,0:0:0:0:
160,176,62922,1,0,0:0:0:0:
160,176,63104,1,8,0:0:0:0:
160,176,63194,1,0,0:0:0:0:
160,176,63285,1,8,0:0:0:0:
160,176,63467,1,8,0:0:0:0:
160,176,63649,1,4,0:0:0:0:
160,176,64013,1,8,0:0:0:0:
160,176,64194,1,8,0:0:0:0:
160,176,64285,1,8,0:0:0:0:
160,176,64376,1,0,0:0:0:0:
160,176,64558,1,0,0:0:0:0:
160,176,64740,1,8,0:0:0:0:
160,176,64922,1,0,0:0:0:0:
160,176,65013,1,8,0:0:0:0:
188,156,65104,1,0,0:0:0:0:
160,176,65285,1,0,0:0:0:0:
160,176,65467,1,8,0:0:0:0:
160,176,65649,1,0,0:0:0:0:
160,176,66013,1,8,0:0:0:0:
160,176,66104,1,8,0:0:0:0:
160,176,66194,1,8,0:0:0:0:
160,176,66376,1,8,0:0:0:0:
160,176,66558,1,4,0:0:0:0:
160,176,66921,1,0,0:0:0:0:
160,176,67103,1,8,0:0:0:0:
160,176,67285,1,0,0:0:0:0:
160,176,67467,1,0,0:0:0:0:
160,176,67558,1,0,0:0:0:0:
160,176,67649,1,8,0:0:0:0:
160,176,67830,1,8,0:0:0:0:
160,176,68012,1,0,0:0:0:0:
160,176,68194,1,8,0:0:0:0:
160,176,68285,1,8,0:0:0:0:
160,176,68376,1,0,0:0:0:0:
160,176,68558,1,8,0:0:0:0:
160,176,68740,1,0,0:0:0:0:
160,176,68921,1,8,0:0:0:0:
160,176,69012,1,0,0:0:0:0:
160,176,69103,1,8,0:0:0:0:
160,176,69194,1,8,0:0:0:0:
160,176,69285,1,0,0:0:0:0:
160,176,69467,1,4,0:0:0:0:
160,176,69830,1,0,0:0:0:0:
160,176,70012,1,8,0:0:0:0:
160,176,70194,1,0,0:0:0:0:
160,176,70376,1,0,0:0:0:0:
160,176,70467,1,0,0:0:0:0:
160,176,70558,1,8,0:0:0:0:
160,176,70740,1,8,0:0:0:0:
160,176,70921,1,0,0:0:0:0:
160,176,71103,1,8,0:0:0:0:
160,176,71194,1,8,0:0:0:0:
160,176,71285,1,0,0:0:0:0:
160,176,71467,1,8,0:0:0:0:
160,176,71649,1,0,0:0:0:0:
160,176,71830,1,8,0:0:0:0:
160,176,71921,1,8,0:0:0:0:
160,176,72012,1,0,0:0:0:0:
160,176,72103,1,8,0:0:0:0:
160,176,72194,1,0,0:0:0:0:
160,176,72376,1,4,0:0:0:0:
160,176,72740,1,0,0:0:0:0:
160,176,72921,1,8,0:0:0:0:
160,176,73103,1,0,0:0:0:0:
160,176,73285,1,0,0:0:0:0:
160,176,73376,1,0,0:0:0:0:
160,176,73467,1,8,0:0:0:0:
160,176,73649,1,8,0:0:0:0:
160,176,73830,1,0,0:0:0:0:
160,176,74012,1,0,0:0:0:0:
108,172,74104,1,0,0:0:0:0:
160,176,74194,1,8,0:0:0:0:
160,176,74376,1,0,0:0:0:0:
160,176,74558,1,0,0:0:0:0:
160,176,74740,1,8,0:0:0:0:
160,176,74830,1,0,0:0:0:0:
160,176,74921,1,8,0:0:0:0:
160,176,75103,1,8,0:0:0:0:
160,176,75285,1,4,0:0:0:0:
160,176,75649,1,8,0:0:0:0:
160,176,75740,1,8,0:0:0:0:
160,176,75830,1,8,0:0:0:0:
160,176,76012,1,4,0:0:0:0:
160,176,76376,1,8,0:0:0:0:
160,176,76467,1,8,0:0:0:0:
128,180,76558,1,8,0:0:0:0:
196,200,76740,1,4,0:0:0:0:
196,200,76922,1,8,0:0:0:0:
196,200,77104,1,4,0:0:0:0:
196,200,77285,1,8,0:0:0:0:
196,200,77467,1,4,0:0:0:0:
196,200,77649,1,8,0:0:0:0:
196,200,77831,1,4,0:0:0:0:
196,200,78013,1,8,0:0:0:0:
220,200,78194,5,4,0:0:0:0:
216,180,78558,1,8,0:0:0:0:
216,180,78740,1,8,0:0:0:0:
216,180,78831,1,8,0:0:0:0:
216,180,78922,1,0,0:0:0:0:
216,180,79104,1,0,0:0:0:0:
216,180,79285,1,8,0:0:0:0:
216,180,79467,1,0,0:0:0:0:
216,180,79558,1,8,0:0:0:0:
216,180,79649,1,0,0:0:0:0:
216,180,79831,1,0,0:0:0:0:
216,180,80013,1,8,0:0:0:0:
216,180,80194,1,8,0:0:0:0:
216,180,80285,1,8,0:0:0:0:
216,180,80376,1,0,0:0:0:0:
216,180,80558,1,0,0:0:0:0:
216,180,80740,1,8,0:0:0:0:
216,180,80922,1,8,0:0:0:0:
216,180,81104,1,0,0:0:0:0:
216,180,81467,1,8,0:0:0:0:
216,180,81649,1,8,0:0:0:0:
216,180,81740,1,8,0:0:0:0:
216,180,81831,1,0,0:0:0:0:
216,180,82013,1,0,0:0:0:0:
216,180,82194,1,8,0:0:0:0:
216,180,82376,1,0,0:0:0:0:
216,180,82467,1,8,0:0:0:0:
216,180,82558,1,0,0:0:0:0:
216,180,82740,1,0,0:0:0:0:
216,180,82922,1,8,0:0:0:0:
216,180,83104,1,8,0:0:0:0:
216,180,83194,1,0,0:0:0:0:
216,180,83285,1,0,0:0:0:0:
216,180,83376,1,8,0:0:0:0:
216,180,83467,1,0,0:0:0:0:
216,180,83649,1,8,0:0:0:0:
216,180,83831,1,8,0:0:0:0:
216,180,84013,1,4,0:0:0:0:
216,180,84376,1,8,0:0:0:0:
216,180,84558,1,8,0:0:0:0:
216,180,84649,1,8,0:0:0:0:
216,180,84740,1,0,0:0:0:0:
216,180,84922,1,0,0:0:0:0:
216,180,85104,1,8,0:0:0:0:
216,180,85285,1,0,0:0:0:0:
216,180,85376,1,8,0:0:0:0:
216,180,85467,1,0,0:0:0:0:
216,180,85649,1,0,0:0:0:0:
216,180,85831,1,8,0:0:0:0:
216,180,86013,1,8,0:0:0:0:
216,180,86104,1,8,0:0:0:0:
216,180,86194,1,0,0:0:0:0:
216,180,86376,1,0,0:0:0:0:
216,180,86558,1,8,0:0:0:0:
256,192,86922,12,0,88285,0:0:0:0:
