osu file format v14

[General]
AudioFilename: audio.mp3
AudioLeadIn: 0
PreviewTime: 54915
Countdown: 0
SampleSet: Normal
StackLeniency: 0.7
Mode: 1
LetterboxInBreaks: 0
WidescreenStoryboard: 0

[Editor]
DistanceSpacing: 0.5
BeatDivisor: 4
GridSize: 4
TimelineZoom: 1.1

[Metadata]
Title:Hitorigoto -TV MIX-
TitleUnicode:ヒトリゴト -TV MIX-
Artist:ClariS
ArtistUnicode:ClariS
Creator:Chocola_2287
Version:Muzukashii
Source:エロマンガ先生
Tags:Opening Anime Eromanga Sensei ero manga eromanga-sensei tv size
BeatmapID:1266756
BeatmapSetID:599387

[Difficulty]
HPDrainRate:5
CircleSize:7
OverallDifficulty:5
ApproachRate:10
SliderMultiplier:1.4
SliderTickRate:1

[Events]
//Background and Video events
0,0,"thumb-1920-820984.png",0,0
//Break Periods
//Storyboard Layer 0 (Background)
//Storyboard Layer 1 (Fail)
//Storyboard Layer 2 (Pass)
//Storyboard Layer 3 (Foreground)
//Storyboard Sound Samples

[TimingPoints]
1104,363.636363636364,4,1,0,90,1,0
54922,-100,4,1,0,100,0,1
86922,-100,4,1,0,90,0,0

[HitObjects]
184,200,1104,5,4,0:0:0:0:
176,208,1285,1,4,0:0:0:0:
176,208,2013,1,12,0:0:0:0:
152,240,2558,1,4,0:0:0:0:
152,240,2740,1,4,0:0:0:0:
152,240,3467,1,12,0:0:0:0:
152,240,4013,1,4,0:0:0:0:
152,240,4194,1,4,0:0:0:0:
152,240,4922,1,12,0:0:0:0:
80,312,5467,2,4,P|68:164|336:124,1,420
184,200,6922,1,4,0:0:0:0:
176,208,7103,1,4,0:0:0:0:
176,208,7831,1,12,0:0:0:0:
152,240,8376,1,4,0:0:0:0:
152,240,8558,1,4,0:0:0:0:
152,240,9285,1,12,0:0:0:0:
152,240,9831,1,4,0:0:0:0:
152,240,10012,1,4,0:0:0:0:
152,240,10740,1,12,0:0:0:0:
92,284,11285,2,4,P|92:164|344:152,1,420
196,188,12740,5,4,0:0:0:0:
196,188,13104,1,8,0:0:0:0:
196,188,13467,1,0,0:0:0:0:
196,188,13649,1,0,0:0:0:0:
196,188,13831,1,8,0:0:0:0:
196,188,14013,1,8,0:0:0:0:
196,188,14376,1,8,0:0:0:0:
196,188,14740,1,0,0:0:0:0:
196,188,15104,1,8,0:0:0:0:
196,188,15649,1,0,0:0:0:0:
196,188,16013,1,8,0:0:0:0:
196,188,16376,1,0,0:0:0:0:
196,188,16558,1,8,0:0:0:0:
196,188,16740,1,8,0:0:0:0:
196,188,16922,1,0,0:0:0:0:
196,188,17285,1,8,0:0:0:0:
76,184,17649,1,0,0:0:0:0:
76,184,18013,1,8,0:0:0:0:
76,184,18194,1,0,0:0:0:0:
196,188,18558,1,4,0:0:0:0:
196,188,18922,1,8,0:0:0:0:
196,188,19285,1,0,0:0:0:0:
196,188,19467,1,0,0:0:0:0:
196,188,19649,1,8,0:0:0:0:
196,188,19831,1,8,0:0:0:0:
196,188,20194,1,8,0:0:0:0:
196,188,20558,1,0,0:0:0:0:
196,188,20922,1,8,0:0:0:0:
196,188,21467,1,0,0:0:0:0:
196,188,21831,1,8,0:0:0:0:
196,188,22194,1,0,0:0:0:0:
196,188,22376,1,8,0:0:0:0:
196,188,22558,1,8,0:0:0:0:
196,188,22740,1,0,0:0:0:0:
196,188,23104,1,8,0:0:0:0:
72,180,23467,1,0,0:0:0:0:
72,180,23831,1,8,0:0:0:0:
72,180,24013,1,0,0:0:0:0:
196,188,24376,1,4,0:0:0:0:
72,212,24740,1,0,0:0:0:0:
72,212,25104,1,8,0:0:0:0:
72,212,25467,1,8,0:0:0:0:
196,188,25831,1,0,0:0:0:0:
196,188,26013,1,0,0:0:0:0:
72,212,26194,1,0,0:0:0:0:
72,212,26558,1,8,0:0:0:0:
116,192,26922,1,8,0:0:0:0:
196,188,27285,1,0,0:0:0:0:
196,188,27649,1,8,0:0:0:0:
196,188,28013,1,0,0:0:0:0:
136,200,28194,1,0,0:0:0:0:
160,160,28376,1,8,0:0:0:0:
196,188,28740,1,0,0:0:0:0:
196,188,28922,1,8,0:0:0:0:
196,188,29285,1,0,0:0:0:0:
56,188,29649,1,8,0:0:0:0:
196,188,29831,1,0,0:0:0:0:
196,188,30194,1,4,0:0:0:0:
160,160,30558,1,0,0:0:0:0:
160,160,30922,1,8,0:0:0:0:
160,160,31285,1,8,0:0:0:0:
196,188,31649,1,0,0:0:0:0:
196,188,31831,1,0,0:0:0:0:
160,160,32013,1,0,0:0:0:0:
160,160,32376,1,8,0:0:0:0:
160,104,32740,1,8,0:0:0:0:
196,188,33104,1,0,0:0:0:0:
196,188,33467,1,8,0:0:0:0:
196,188,33831,1,0,0:0:0:0:
224,200,34013,1,0,0:0:0:0:
160,160,34194,1,8,0:0:0:0:
196,188,34558,1,0,0:0:0:0:
196,188,34740,1,8,0:0:0:0:
196,188,35104,1,0,0:0:0:0:
120,168,35467,1,8,0:0:0:0:
120,168,35649,1,0,0:0:0:0:
196,188,36013,1,4,0:0:0:0:
196,188,36740,1,8,0:0:0:0:
176,192,37467,1,0,0:0:0:0:
176,192,37831,1,0,0:0:0:0:
176,192,38194,1,8,0:0:0:0:
152,180,38558,1,8,0:0:0:0:
196,188,38922,1,0,0:0:0:0:
196,188,39649,1,8,0:0:0:0:
164,200,40013,1,8,0:0:0:0:
196,188,40376,1,0,0:0:0:0:
168,108,40740,1,8,0:0:0:0:
176,208,41104,1,0,0:0:0:0:
176,208,41225,1,0,0:0:0:0:
176,208,41346,1,0,0:0:0:0:
176,208,41467,1,0,0:0:0:0:
176,192,41831,1,0,0:0:0:0:
176,192,42194,1,8,0:0:0:0:
176,192,42558,1,0,0:0:0:0:
176,192,42740,1,0,0:0:0:0:
176,192,42922,1,8,0:0:0:0:
176,192,43285,1,0,0:0:0:0:
176,192,43649,1,8,0:0:0:0:
176,192,44013,1,0,0:0:0:0:
176,192,44194,1,8,0:0:0:0:
176,192,44558,1,8,0:0:0:0:
176,192,44740,1,0,0:0:0:0:
176,192,45104,1,8,0:0:0:0:
176,192,45467,1,0,0:0:0:0:
176,192,45649,1,0,0:0:0:0:
176,192,45831,1,8,0:0:0:0:
160,152,46194,1,0,0:0:0:0:
160,152,46558,1,8,0:0:0:0:
160,152,46922,1,0,0:0:0:0:
160,152,47104,1,8,0:0:0:0:
160,152,47467,1,8,0:0:0:0:
160,152,47649,1,0,0:0:0:0:
160,152,48013,1,8,0:0:0:0:
160,152,48376,1,0,0:0:0:0:
160,152,48558,1,0,0:0:0:0:
160,152,48740,1,8,0:0:0:0:
160,152,49104,1,0,0:0:0:0:
160,152,49467,1,8,0:0:0:0:
160,152,49831,1,0,0:0:0:0:
160,152,50013,1,8,0:0:0:0:
160,152,50376,1,8,0:0:0:0:
160,152,50558,1,0,0:0:0:0:
160,152,50922,1,8,0:0:0:0:
160,152,51285,1,0,0:0:0:0:
160,152,51467,1,0,0:0:0:0:
160,152,51649,1,8,0:0:0:0:
160,152,52013,1,0,0:0:0:0:
160,152,52194,1,8,0:0:0:0:
160,152,52376,1,0,0:0:0:0:
160,152,52740,1,8,0:0:0:0:
160,152,52922,1,0,0:0:0:0:
160,152,53104,1,8,0:0:0:0:
132,212,53467,1,4,0:0:0:0:
132,212,53649,1,4,0:0:0:0:
168,296,54013,2,4,P|144:120|196:80,1,210
176,188,54922,1,4,0:0:0:0:
188,156,55285,1,8,0:0:0:0:
188,156,55649,1,0,0:0:0:0:
188,156,55831,1,0,0:0:0:0:
188,156,56013,1,8,0:0:0:0:
188,156,56376,1,0,0:0:0:0:
188,156,56558,1,0,0:0:0:0:
188,156,56740,1,8,0:0:0:0:
188,156,56922,1,0,0:0:0:0:
188,156,57103,1,0,0:0:0:0:
188,156,57194,1,0,0:0:0:0:
188,156,57285,1,0,0:0:0:0:
188,156,57467,1,8,0:0:0:0:
188,156,57831,1,4,0:0:0:0:
188,156,58194,1,8,0:0:0:0:
188,156,58558,1,0,0:0:0:0:
188,156,58740,1,0,0:0:0:0:
188,156,58922,1,8,0:0:0:0:
188,156,59285,1,0,0:0:0:0:
188,156,59467,1,8,0:0:0:0:
188,156,59649,1,0,0:0:0:0:
188,156,59831,1,8,0:0:0:0:
188,156,60012,1,0,0:0:0:0:
188,156,60103,1,0,0:0:0:0:
188,156,60194,1,0,0:0:0:0:
188,156,60376,1,8,0:0:0:0:
188,156,60740,1,4,0:0:0:0:
188,156,61104,1,8,0:0:0:0:
188,156,61467,1,0,0:0:0:0:
188,156,61649,1,0,0:0:0:0:
188,156,61831,1,8,0:0:0:0:
188,156,62194,1,0,0:0:0:0:
188,156,62376,1,0,0:0:0:0:
188,156,62558,1,8,0:0:0:0:
188,156,62740,1,0,0:0:0:0:
188,156,62923,1,0,0:0:0:0:
188,156,63013,1,0,0:0:0:0:
188,156,63104,1,0,0:0:0:0:
188,156,63285,1,8,0:0:0:0:
188,156,63649,1,4,0:0:0:0:
188,156,64013,1,8,0:0:0:0:
188,156,64376,1,0,0:0:0:0:
188,156,64558,1,0,0:0:0:0:
188,156,64740,1,8,0:0:0:0:
188,156,65104,1,0,0:0:0:0:
188,156,65194,1,0,0:0:0:0:
188,156,65285,1,0,0:0:0:0:
188,156,65467,1,8,0:0:0:0:
188,156,65649,1,0,0:0:0:0:
176,188,66558,1,4,0:0:0:0:
188,156,66921,1,8,0:0:0:0:
188,156,67285,1,0,0:0:0:0:
188,156,67467,1,0,0:0:0:0:
188,156,67649,1,8,0:0:0:0:
188,156,68012,1,0,0:0:0:0:
188,156,68194,1,0,0:0:0:0:
188,156,68376,1,8,0:0:0:0:
188,156,68558,1,0,0:0:0:0:
188,156,68740,1,0,0:0:0:0:
188,156,68831,1,0,0:0:0:0:
188,156,68922,1,0,0:0:0:0:
188,156,69104,1,8,0:0:0:0:
188,156,69467,1,4,0:0:0:0:
188,156,69830,1,8,0:0:0:0:
188,156,70194,1,0,0:0:0:0:
188,156,70376,1,0,0:0:0:0:
188,156,70558,1,8,0:0:0:0:
188,156,70921,1,0,0:0:0:0:
188,156,71103,1,8,0:0:0:0:
188,156,71285,1,0,0:0:0:0:
188,156,71467,1,8,0:0:0:0:
188,156,71649,1,0,0:0:0:0:
188,156,71740,1,0,0:0:0:0:
188,156,71831,1,0,0:0:0:0:
188,156,72013,1,8,0:0:0:0:
188,156,72376,1,4,0:0:0:0:
188,156,72740,1,8,0:0:0:0:
188,156,73103,1,0,0:0:0:0:
188,156,73285,1,0,0:0:0:0:
188,156,73467,1,8,0:0:0:0:
188,156,73830,1,0,0:0:0:0:
188,156,74012,1,0,0:0:0:0:
188,156,74194,1,8,0:0:0:0:
188,156,74376,1,0,0:0:0:0:
188,156,74559,1,0,0:0:0:0:
188,156,74649,1,0,0:0:0:0:
188,156,74740,1,0,0:0:0:0:
124,172,74922,1,8,0:0:0:0:
188,156,75285,1,4,0:0:0:0:
188,156,75649,1,8,0:0:0:0:
64,176,75831,1,8,0:0:0:0:
188,156,76012,1,4,0:0:0:0:
144,184,76376,1,8,0:0:0:0:
52,160,76558,1,8,0:0:0:0:
188,156,76740,1,4,0:0:0:0:
188,156,77103,1,12,0:0:0:0:
188,156,77467,1,4,0:0:0:0:
188,156,77830,1,12,0:0:0:0:
220,200,78194,1,4,0:0:0:0:
220,200,78558,1,8,0:0:0:0:
220,200,78740,1,0,0:0:0:0:
220,200,78922,1,0,0:0:0:0:
220,200,79285,1,8,0:0:0:0:
220,200,79649,1,0,0:0:0:0:
220,200,80013,1,8,0:0:0:0:
220,200,80376,1,0,0:0:0:0:
220,200,80467,1,0,0:0:0:0:
220,200,80558,1,0,0:0:0:0:
220,200,80740,1,8,0:0:0:0:
220,200,80922,1,8,0:0:0:0:
220,200,81104,1,0,0:0:0:0:
220,200,81467,1,8,0:0:0:0:
220,200,81649,1,0,0:0:0:0:
220,200,81831,1,0,0:0:0:0:
220,200,82194,1,8,0:0:0:0:
220,200,82558,1,0,0:0:0:0:
220,200,82922,1,8,0:0:0:0:
220,200,83104,1,8,0:0:0:0:
220,200,83285,1,0,0:0:0:0:
220,200,83467,1,8,0:0:0:0:
220,200,83558,1,8,0:0:0:0:
220,200,83649,1,8,0:0:0:0:
220,200,84013,1,4,0:0:0:0:
220,200,84376,1,8,0:0:0:0:
220,200,84558,1,0,0:0:0:0:
220,200,84740,1,0,0:0:0:0:
220,200,85104,1,8,0:0:0:0:
220,200,85467,1,0,0:0:0:0:
220,200,85831,1,8,0:0:0:0:
220,200,86194,1,0,0:0:0:0:
220,200,86285,1,0,0:0:0:0:
220,200,86376,1,0,0:0:0:0:
220,200,86558,1,8,0:0:0:0:
256,192,86922,12,0,88285,0:0:0:0:
