osu file format v14

[General]
AudioFilename: audio.mp3
AudioLeadIn: 0
PreviewTime: 54915
Countdown: 0
SampleSet: Normal
StackLeniency: 0.7
Mode: 1
LetterboxInBreaks: 0
WidescreenStoryboard: 0

[Editor]
DistanceSpacing: 0.5
BeatDivisor: 2
GridSize: 4
TimelineZoom: 0.5999999

[Metadata]
Title:Hitorigoto -TV MIX-
TitleUnicode:ヒトリゴト -TV MIX-
Artist:ClariS
ArtistUnicode:ClariS
Creator:Chocola_2287
Version:Kantan
Source:エロマンガ先生
Tags:Opening Anime Eromanga Sensei ero manga eromanga-sensei tv size
BeatmapID:1266755
BeatmapSetID:599387

[Difficulty]
HPDrainRate:8
CircleSize:7
OverallDifficulty:3
ApproachRate:10
SliderMultiplier:1.4
SliderTickRate:1

[Events]
//Background and Video events
0,0,"thumb-1920-820984.png",0,0
//Break Periods
//Storyboard Layer 0 (Background)
//Storyboard Layer 1 (Fail)
//Storyboard Layer 2 (Pass)
//Storyboard Layer 3 (Foreground)
//Storyboard Sound Samples

[TimingPoints]
1104,363.636363636364,4,1,0,90,1,0
1104,-111.111111111111,4,1,0,90,0,0
54922,-111.111111111111,4,1,0,100,0,1
86922,-111.111111111111,4,1,0,90,0,0

[HitObjects]
128,168,1104,5,4,0:0:0:0:
192,200,2558,1,4,0:0:0:0:
196,196,4013,1,4,0:0:0:0:
128,256,5467,2,4,P|112:112|344:76,1,377.999988464356
84,224,6922,1,4,0:0:0:0:
80,216,8376,1,4,0:0:0:0:
108,236,9831,1,4,0:0:0:0:
156,256,11285,2,4,L|460:12,1,377.999988464356
232,148,12740,5,4,0:0:0:0:
232,148,13467,1,8,0:0:0:0:
232,148,14194,1,0,0:0:0:0:
192,188,14558,1,8,0:0:0:0:
188,188,14922,1,0,0:0:0:0:
232,148,15649,1,0,0:0:0:0:
232,148,16376,1,0,0:0:0:0:
232,148,17104,1,8,0:0:0:0:
232,148,18558,1,4,0:0:0:0:
232,148,19285,1,8,0:0:0:0:
232,148,20013,1,0,0:0:0:0:
164,168,20376,1,8,0:0:0:0:
164,168,20740,1,0,0:0:0:0:
232,148,21467,1,0,0:0:0:0:
232,148,22194,1,8,0:0:0:0:
232,148,22922,1,8,0:0:0:0:
128,148,23649,1,8,0:0:0:0:
232,148,24376,1,4,0:0:0:0:
232,148,25831,1,8,0:0:0:0:
192,168,26558,1,8,0:0:0:0:
232,148,27285,1,0,0:0:0:0:
232,148,28013,1,8,0:0:0:0:
232,148,28740,1,0,0:0:0:0:
176,168,29831,1,8,0:0:0:0:
232,148,30194,1,4,0:0:0:0:
220,152,31649,1,8,0:0:0:0:
168,184,32376,1,0,0:0:0:0:
232,148,33104,1,8,0:0:0:0:
232,148,33831,1,8,0:0:0:0:
232,148,34558,1,0,0:0:0:0:
176,168,35649,1,8,0:0:0:0:
232,148,36013,1,4,0:0:0:0:
232,148,37467,1,8,0:0:0:0:
232,148,38922,1,0,0:0:0:0:
232,148,39649,1,0,0:0:0:0:
176,148,40376,1,8,0:0:0:0:
172,160,41831,1,0,0:0:0:0:
172,160,42558,1,8,0:0:0:0:
172,160,43285,1,0,0:0:0:0:
172,160,44013,1,8,0:0:0:0:
144,148,44376,1,8,0:0:0:0:
144,148,44740,1,0,0:0:0:0:
144,148,45467,1,0,0:0:0:0:
144,148,46194,1,8,0:0:0:0:
144,148,47649,1,0,0:0:0:0:
144,148,48376,1,8,0:0:0:0:
144,148,49104,1,0,0:0:0:0:
144,148,49831,1,8,0:0:0:0:
144,148,50194,1,8,0:0:0:0:
144,148,50558,1,0,0:0:0:0:
144,148,51285,1,0,0:0:0:0:
144,148,52013,1,8,0:0:0:0:
188,192,52740,1,8,0:0:0:0:
140,176,53467,1,4,0:0:0:0:
184,204,54922,1,4,0:0:0:0:
184,204,55649,1,8,0:0:0:0:
184,204,56376,1,0,0:0:0:0:
172,148,56740,1,8,0:0:0:0:
172,148,57104,1,0,0:0:0:0:
172,148,57467,1,8,0:0:0:0:
184,204,57831,1,4,0:0:0:0:
184,204,58558,1,0,0:0:0:0:
172,148,59285,1,8,0:0:0:0:
172,148,59649,1,8,0:0:0:0:
172,148,60013,1,8,0:0:0:0:
184,204,60740,1,4,0:0:0:0:
156,168,61467,1,8,0:0:0:0:
172,148,62194,1,0,0:0:0:0:
172,148,62558,1,0,0:0:0:0:
172,148,62922,1,8,0:0:0:0:
172,148,63285,1,8,0:0:0:0:
172,148,63649,1,0,0:0:0:0:
172,148,64376,1,8,0:0:0:0:
172,148,65104,1,0,0:0:0:0:
184,204,66558,1,4,0:0:0:0:
172,148,67285,1,8,0:0:0:0:
184,204,68012,1,0,0:0:0:0:
172,148,68376,1,8,0:0:0:0:
172,148,68740,1,0,0:0:0:0:
172,148,69104,1,8,0:0:0:0:
172,148,69467,1,4,0:0:0:0:
184,204,70194,1,0,0:0:0:0:
164,76,70922,1,8,0:0:0:0:
164,76,71285,1,8,0:0:0:0:
164,76,71649,1,8,0:0:0:0:
184,204,72376,1,4,0:0:0:0:
184,204,73103,1,8,0:0:0:0:
184,204,73830,1,0,0:0:0:0:
184,204,74194,1,0,0:0:0:0:
184,204,74558,1,8,0:0:0:0:
184,204,75285,1,4,0:0:0:0:
184,204,76012,1,12,0:0:0:0:
100,176,76740,1,4,0:0:0:0:
100,176,77467,1,12,0:0:0:0:
100,176,78194,1,4,0:0:0:0:
100,176,78922,1,8,0:0:0:0:
100,176,79649,1,0,0:0:0:0:
100,176,80376,1,8,0:0:0:0:
100,176,80740,1,8,0:0:0:0:
100,176,81104,1,0,0:0:0:0:
100,176,81831,1,8,0:0:0:0:
96,292,82558,2,0,P|88:144|288:104,1,377.999988464356
108,192,84013,1,4,0:0:0:0:
108,192,84740,1,8,0:0:0:0:
108,192,85467,1,0,0:0:0:0:
108,192,86194,1,8,0:0:0:0:
108,192,86558,1,8,0:0:0:0:
256,192,86922,12,0,88285,0:0:0:0:
