osu file format v14

[General]
AudioFilename: audio.mp3
AudioLeadIn: 0
PreviewTime: 54915
Countdown: 0
SampleSet: Normal
StackLeniency: 0.7
Mode: 1
LetterboxInBreaks: 0
WidescreenStoryboard: 0

[Editor]
DistanceSpacing: 0.5
BeatDivisor: 2
GridSize: 4
TimelineZoom: 1.2

[Metadata]
Title:Hitorigoto -TV MIX-
TitleUnicode:ヒトリゴト -TV MIX-
Artist:ClariS
ArtistUnicode:ClariS
Creator:Chocola_2287
Version:Futsuu
Source:エロマンガ先生
Tags:Opening Anime Eromanga Sensei ero manga eromanga-sensei tv size
BeatmapID:1266754
BeatmapSetID:599387

[Difficulty]
HPDrainRate:7
CircleSize:7
OverallDifficulty:4
ApproachRate:10
SliderMultiplier:1.4
SliderTickRate:1

[Events]
//Background and Video events
0,0,"thumb-1920-820984.png",0,0
//Break Periods
//Storyboard Layer 0 (Background)
//Storyboard Layer 1 (Fail)
//Storyboard Layer 2 (Pass)
//Storyboard Layer 3 (Foreground)
//Storyboard Sound Samples

[TimingPoints]
1104,363.636363636364,4,1,0,90,1,0
54922,-100,4,1,0,100,0,1
86922,-100,4,1,0,90,0,0

[HitObjects]
184,200,1104,5,4,0:0:0:0:
176,208,1285,1,4,0:0:0:0:
176,208,2013,1,12,0:0:0:0:
152,240,2558,1,4,0:0:0:0:
152,240,2740,1,4,0:0:0:0:
152,240,3467,1,12,0:0:0:0:
152,240,4013,1,4,0:0:0:0:
152,240,4194,1,4,0:0:0:0:
152,240,4922,1,12,0:0:0:0:
80,312,5467,2,4,P|68:164|336:124,1,420
184,200,6922,1,4,0:0:0:0:
176,208,7103,1,4,0:0:0:0:
176,208,7831,1,12,0:0:0:0:
152,240,8376,1,4,0:0:0:0:
152,240,8558,1,4,0:0:0:0:
152,240,9285,1,12,0:0:0:0:
152,240,9831,1,4,0:0:0:0:
152,240,10012,1,4,0:0:0:0:
152,240,10740,1,12,0:0:0:0:
80,312,11285,2,4,P|68:164|336:124,1,420
196,188,12740,5,4,0:0:0:0:
196,188,13104,1,8,0:0:0:0:
196,188,13467,1,0,0:0:0:0:
196,188,13831,1,8,0:0:0:0:
196,188,14013,1,8,0:0:0:0:
196,188,14376,1,8,0:0:0:0:
196,188,14740,1,0,0:0:0:0:
196,188,15104,1,8,0:0:0:0:
196,188,15649,1,0,0:0:0:0:
196,188,16013,1,8,0:0:0:0:
196,188,16376,1,0,0:0:0:0:
196,188,16740,1,8,0:0:0:0:
196,188,16922,1,0,0:0:0:0:
196,188,17285,1,8,0:0:0:0:
196,188,17649,1,8,0:0:0:0:
196,188,18013,1,0,0:0:0:0:
196,188,18558,1,4,0:0:0:0:
196,188,18922,1,8,0:0:0:0:
196,188,19285,1,0,0:0:0:0:
196,188,19649,1,8,0:0:0:0:
196,188,19831,1,8,0:0:0:0:
196,188,20194,1,8,0:0:0:0:
196,188,20558,1,0,0:0:0:0:
196,188,20922,1,8,0:0:0:0:
196,188,21467,1,0,0:0:0:0:
196,188,21831,1,8,0:0:0:0:
196,188,22194,1,0,0:0:0:0:
196,188,22558,1,8,0:0:0:0:
196,188,22740,1,0,0:0:0:0:
196,188,23104,1,8,0:0:0:0:
196,188,23467,1,8,0:0:0:0:
196,188,23831,1,0,0:0:0:0:
196,188,24376,1,4,0:0:0:0:
196,188,25104,1,8,0:0:0:0:
196,188,25831,1,0,0:0:0:0:
196,188,26194,1,0,0:0:0:0:
196,188,26558,1,8,0:0:0:0:
92,184,26922,1,8,0:0:0:0:
196,188,27285,1,0,0:0:0:0:
60,160,28013,1,0,0:0:0:0:
196,188,28740,1,8,0:0:0:0:
196,188,29104,1,8,0:0:0:0:
196,188,29467,1,8,0:0:0:0:
196,188,30194,1,4,0:0:0:0:
196,188,30922,1,8,0:0:0:0:
196,188,31649,1,0,0:0:0:0:
196,188,32013,1,0,0:0:0:0:
196,188,32376,1,8,0:0:0:0:
124,192,32740,1,8,0:0:0:0:
196,188,33104,1,0,0:0:0:0:
196,188,33831,1,0,0:0:0:0:
196,188,34558,1,8,0:0:0:0:
196,188,34922,1,8,0:0:0:0:
196,188,35285,1,0,0:0:0:0:
196,188,36013,1,4,0:0:0:0:
196,188,36740,1,8,0:0:0:0:
176,192,37467,1,0,0:0:0:0:
240,196,37831,1,0,0:0:0:0:
176,192,38194,1,8,0:0:0:0:
196,188,38922,1,0,0:0:0:0:
196,188,39649,1,8,0:0:0:0:
232,176,40013,1,8,0:0:0:0:
196,188,40376,1,0,0:0:0:0:
164,172,41104,1,8,0:0:0:0:
176,192,41831,1,0,0:0:0:0:
176,192,42194,1,8,0:0:0:0:
176,192,42558,1,0,0:0:0:0:
176,192,43285,1,0,0:0:0:0:
192,172,43649,1,0,0:0:0:0:
192,172,43831,1,0,0:0:0:0:
236,184,44013,1,8,0:0:0:0:
236,184,44376,1,8,0:0:0:0:
176,192,44740,1,0,0:0:0:0:
176,192,45104,1,8,0:0:0:0:
176,192,45467,1,0,0:0:0:0:
160,152,46194,1,0,0:0:0:0:
160,152,46558,1,8,0:0:0:0:
68,160,46740,1,8,0:0:0:0:
160,152,46922,1,8,0:0:0:0:
160,152,47649,1,0,0:0:0:0:
160,152,48013,1,8,0:0:0:0:
160,152,48376,1,0,0:0:0:0:
160,152,49104,1,0,0:0:0:0:
160,152,49467,1,0,0:0:0:0:
120,164,49649,1,0,0:0:0:0:
160,152,49831,1,8,0:0:0:0:
120,164,50194,1,8,0:0:0:0:
160,152,50558,1,0,0:0:0:0:
160,152,50922,1,8,0:0:0:0:
160,152,51285,1,0,0:0:0:0:
160,152,52013,1,0,0:0:0:0:
160,152,52376,1,0,0:0:0:0:
160,152,52740,1,8,0:0:0:0:
132,212,53467,1,4,0:0:0:0:
132,212,53649,1,4,0:0:0:0:
168,296,54013,2,4,P|144:120|196:80,1,210
176,188,54922,1,4,0:0:0:0:
188,156,55285,1,8,0:0:0:0:
188,156,55649,1,0,0:0:0:0:
188,156,55831,1,0,0:0:0:0:
188,156,56013,1,8,0:0:0:0:
228,176,56376,1,0,0:0:0:0:
228,176,56740,1,8,0:0:0:0:
228,176,56922,1,8,0:0:0:0:
228,176,57467,1,8,0:0:0:0:
228,176,57831,1,4,0:0:0:0:
228,176,58194,1,8,0:0:0:0:
228,176,58558,1,0,0:0:0:0:
228,176,58740,1,8,0:0:0:0:
228,176,58922,1,0,0:0:0:0:
228,176,59285,1,0,0:0:0:0:
228,176,59649,1,8,0:0:0:0:
228,176,59831,1,8,0:0:0:0:
228,176,60376,1,8,0:0:0:0:
228,176,60740,1,4,0:0:0:0:
228,176,61104,1,8,0:0:0:0:
228,176,61467,1,0,0:0:0:0:
228,176,61649,1,0,0:0:0:0:
108,136,61831,1,8,0:0:0:0:
228,176,62194,1,0,0:0:0:0:
228,176,62558,1,0,0:0:0:0:
228,176,62922,1,8,0:0:0:0:
228,176,63649,1,0,0:0:0:0:
228,176,64013,1,8,0:0:0:0:
228,176,64376,1,0,0:0:0:0:
200,156,64558,1,0,0:0:0:0:
228,176,64740,1,8,0:0:0:0:
228,176,65104,1,0,0:0:0:0:
208,184,65467,1,8,0:0:0:0:
200,156,65649,1,0,0:0:0:0:
176,188,66558,1,4,0:0:0:0:
188,156,66921,1,8,0:0:0:0:
188,156,67285,1,0,0:0:0:0:
188,156,67467,1,0,0:0:0:0:
188,156,67649,1,8,0:0:0:0:
228,176,68012,1,0,0:0:0:0:
228,176,68376,1,8,0:0:0:0:
228,176,68558,1,8,0:0:0:0:
228,176,69104,1,8,0:0:0:0:
228,176,69467,1,4,0:0:0:0:
228,176,69830,1,8,0:0:0:0:
228,176,70194,1,0,0:0:0:0:
228,176,70376,1,8,0:0:0:0:
228,176,70558,1,0,0:0:0:0:
228,176,70921,1,0,0:0:0:0:
228,176,71285,1,8,0:0:0:0:
228,176,71467,1,8,0:0:0:0:
228,176,72013,1,8,0:0:0:0:
228,176,72376,1,4,0:0:0:0:
228,176,72740,1,8,0:0:0:0:
228,176,73103,1,0,0:0:0:0:
128,144,73285,1,0,0:0:0:0:
228,176,73467,1,8,0:0:0:0:
228,176,73830,1,0,0:0:0:0:
112,168,74194,1,8,0:0:0:0:
128,156,74376,1,8,0:0:0:0:
112,168,74558,1,8,0:0:0:0:
228,176,75285,1,4,0:0:0:0:
228,176,76012,1,12,0:0:0:0:
228,176,76740,1,4,0:0:0:0:
152,108,77104,1,12,0:0:0:0:
152,108,77467,1,4,0:0:0:0:
128,92,77831,1,12,0:0:0:0:
220,200,78194,5,4,0:0:0:0:
220,200,78740,1,0,0:0:0:0:
220,200,78922,1,0,0:0:0:0:
24,168,79285,1,8,0:0:0:0:
220,200,79649,1,0,0:0:0:0:
220,200,80013,1,8,0:0:0:0:
220,200,80194,1,0,0:0:0:0:
220,200,80376,1,8,0:0:0:0:
232,136,80740,1,8,0:0:0:0:
220,200,81104,1,0,0:0:0:0:
220,200,81649,1,0,0:0:0:0:
220,200,81831,1,0,0:0:0:0:
232,136,82194,1,8,0:0:0:0:
220,200,82558,1,0,0:0:0:0:
160,160,82922,1,8,0:0:0:0:
232,136,83285,1,0,0:0:0:0:
232,136,83467,1,8,0:0:0:0:
232,136,83649,1,8,0:0:0:0:
220,200,84013,1,4,0:0:0:0:
220,200,84558,1,0,0:0:0:0:
220,200,84740,1,0,0:0:0:0:
164,148,85104,1,8,0:0:0:0:
220,200,85467,1,0,0:0:0:0:
220,200,85831,1,8,0:0:0:0:
220,200,86013,1,0,0:0:0:0:
164,148,86194,1,8,0:0:0:0:
164,148,86558,1,8,0:0:0:0:
256,192,86922,12,0,88285,0:0:0:0:
