osu file format v14

[General]
AudioFilename: audio.mp3
AudioLeadIn: 0
PreviewTime: 54354
Countdown: 0
SampleSet: Soft
StackLeniency: 0.7
Mode: 3
LetterboxInBreaks: 0
SpecialStyle: 0
WidescreenStoryboard: 0

[Editor]
DistanceSpacing: 1
BeatDivisor: 4
GridSize: 4
TimelineZoom: 1.4

[Metadata]
Title:Hitorigoto -TV MIX-
TitleUnicode:ヒトリゴト -TV MIX-
Artist:ClariS
ArtistUnicode:ClariS
Creator:[Harlequin]
Version:Harlequin vs. V's Easy
Source:エロマンガ先生
Tags:eromanga sensei opening tv size Virtue
BeatmapID:1302400
BeatmapSetID:616149

[Difficulty]
HPDrainRate:6
CircleSize:4
OverallDifficulty:7
ApproachRate:5
SliderMultiplier:1.4
SliderTickRate:1

[Events]
//Background and Video events
0,0,"BG_1.png",0,0
//Break Periods
//Storyboard Layer 0 (Background)
//Storyboard Layer 1 (Fail)
//Storyboard Layer 2 (Pass)
//Storyboard Layer 3 (Foreground)
//Storyboard Sound Samples
Sample,13626,0,"bell.wav",100
Sample,13990,0,"bell.wav",100
Sample,14354,0,"bell.wav",100
Sample,14717,0,"bell.wav",100
Sample,16536,0,"bell.wav",100
Sample,16899,0,"bell.wav",100
Sample,17263,0,"bell.wav",100
Sample,17626,0,"bell.wav",100
Sample,19081,0,"bell.wav",100
Sample,19445,0,"bell.wav",100
Sample,19808,0,"bell.wav",100
Sample,20172,0,"bell.wav",100
Sample,20536,0,"bell.wav",100
Sample,20899,0,"bell.wav",100
Sample,21263,0,"bell.wav",100
Sample,22354,0,"bell.wav",100
Sample,22717,0,"bell.wav",100
Sample,23990,0,"sel_l.wav",70
Sample,24354,0,"sel_l.wav",70
Sample,24717,0,"sel_l.wav",70
Sample,25081,0,"sel_l.wav",70
Sample,25445,0,"sel_l.wav",70
Sample,25808,0,"sel_l.wav",70
Sample,26172,0,"sel_l.wav",70
Sample,26536,0,"sel_l.wav",70
Sample,26899,0,"sel_l.wav",70
Sample,27263,0,"sel_l.wav",70
Sample,27626,0,"sel_l.wav",70
Sample,27990,0,"sel_l.wav",70
Sample,29808,0,"sel_l.wav",70
Sample,30172,0,"sel_l.wav",70
Sample,30536,0,"sel_l.wav",70
Sample,30899,0,"sel_l.wav",70
Sample,31263,0,"sel_l.wav",70
Sample,31626,0,"sel_l.wav",70
Sample,31990,0,"sel_l.wav",70
Sample,32354,0,"sel_l.wav",70
Sample,32717,0,"sel_l.wav",70
Sample,33081,0,"sel_l.wav",70
Sample,33445,0,"sel_l.wav",70
Sample,33808,0,"sel_l.wav",70
Sample,35808,0,"sel_l.wav",70
Sample,36536,0,"sel_l.wav",70
Sample,37990,0,"sel_l.wav",70
Sample,38717,0,"sel_l.wav",70
Sample,39445,0,"sel_l.wav",70
Sample,40172,0,"sel_l.wav",70
Sample,41445,0,"sel_l.wav",70
Sample,41808,0,"sel_l.wav",70
Sample,42172,0,"sel_l.wav",70
Sample,42536,0,"sel_l.wav",70
Sample,42899,0,"sel_l.wav",70
Sample,43263,0,"sel_l.wav",70
Sample,44354,0,"sel_l.wav",70
Sample,44717,0,"sel_l.wav",70
Sample,45081,0,"sel_l.wav",70
Sample,45445,0,"sel_l.wav",70
Sample,45808,0,"sel_l.wav",70
Sample,46172,0,"sel_l.wav",70
Sample,46899,0,"sel_l.wav",70
Sample,47263,0,"sel_l.wav",70
Sample,47626,0,"sel_l.wav",70
Sample,47990,0,"sel_l.wav",70
Sample,48354,0,"sel_l.wav",70
Sample,48717,0,"sel_l.wav",70
Sample,49081,0,"sel_l.wav",70
Sample,49445,0,"sel_l.wav",70
Sample,49808,0,"sel_l.wav",70
Sample,50172,0,"sel_l.wav",70
Sample,50536,0,"sel_l.wav",70
Sample,50899,0,"sel_l.wav",70
Sample,51263,0,"sel_l.wav",70
Sample,51626,0,"sel_l.wav",70
Sample,51990,0,"sel_l.wav",70
Sample,52354,0,"sel_l.wav",70
Sample,85748,0,"bell.wav",70
Sample,85869,0,"bell.wav",70
Sample,86111,0,"bell.wav",70
Sample,86232,0,"bell.wav",70

[TimingPoints]
536,363.636363636364,4,2,1,50,1,0
54354,-100,4,2,1,50,0,1
64536,-100,4,2,1,50,0,0
65990,-100,4,2,1,50,0,1
77626,-100,4,2,1,50,0,0

[HitObjects]
64,192,536,5,8,0:0:0:0:
448,192,717,1,8,0:0:0:0:
192,192,1445,128,0,1990:0:0:0:0:
448,192,1990,1,8,0:0:0:0:
64,192,2172,1,8,0:0:0:0:
448,192,2899,128,0,3445:0:0:0:0:
64,192,3445,1,8,0:0:0:0:
192,192,3626,1,8,0:0:0:0:
64,192,4354,128,0,4899:0:0:0:0:
320,192,4899,1,2,0:0:0:0:
448,192,4899,128,4,5626:0:0:0:0:
192,192,5626,128,8,6354:0:0:0:0:
64,192,5626,1,0,0:0:0:0:
448,192,6354,1,8,0:0:0:0:
64,192,6536,1,8,0:0:0:0:
448,192,7263,128,0,7808:0:0:0:0:
320,192,7808,1,8,0:0:0:0:
64,192,7990,1,8,0:0:0:0:
64,192,8717,128,0,9263:0:0:0:0:
192,192,9263,1,8,0:0:0:0:
448,192,9445,1,8,0:0:0:0:
192,192,10172,128,0,10717:0:0:0:0:
64,192,10717,1,4,0:0:0:0:
448,192,10717,128,2,11445:0:0:0:0:
192,192,11445,128,8,12172:0:0:0:0:
64,192,11445,1,0,0:0:0:0:
448,192,12172,1,0,0:0:0:100:bell.wav
320,192,12172,1,4,0:0:0:0:
64,192,12536,1,0,0:0:0:100:bell.wav
448,192,12899,1,0,0:0:0:100:bell.wav
320,192,13081,1,0,0:0:0:0:
192,192,13263,1,0,0:0:0:100:bell.wav
448,192,13445,1,0,0:0:0:0:
64,192,13808,1,0,0:0:0:0:
192,192,14172,1,0,0:0:0:0:
448,192,14536,1,0,0:0:0:0:
320,192,14899,1,0,0:0:0:0:
64,192,15081,1,2,0:0:0:0:
192,192,15081,1,0,0:0:0:100:bell.wav
448,192,15445,1,0,0:0:0:100:bell.wav
64,192,15808,1,0,0:0:0:100:bell.wav
320,192,15990,1,0,0:0:0:0:
192,192,16172,1,0,0:0:0:100:bell.wav
448,192,16354,1,0,0:0:0:0:
320,192,16717,1,0,0:0:0:0:
192,192,17081,1,0,0:0:0:0:
64,192,17445,1,0,0:0:0:0:
448,192,17808,1,8,0:0:0:0:
64,192,17990,1,0,0:0:0:100:bell.wav
192,192,17990,1,2,0:0:0:0:
320,192,18354,1,0,0:0:0:100:bell.wav
64,192,18717,1,0,0:0:0:100:bell.wav
192,192,18899,1,0,0:0:0:0:
448,192,19081,1,8,0:0:0:0:
320,192,19263,1,0,0:0:0:0:
192,192,19626,1,0,0:0:0:0:
64,192,19990,1,0,0:0:0:0:
448,192,20354,1,0,0:0:0:0:
192,192,20717,1,0,0:0:0:0:
320,192,20899,1,2,0:0:0:0:
448,192,20899,1,4,0:0:0:0:
192,192,21263,1,8,0:0:0:0:
64,192,21626,1,0,0:0:0:100:bell.wav
192,192,21808,1,0,0:0:0:0:
320,192,21990,1,0,0:0:0:100:bell.wav
448,192,22172,1,0,0:0:0:0:
192,192,22536,1,0,0:0:0:0:
64,192,22899,1,0,0:0:0:0:
448,192,23263,1,8,0:0:0:0:
320,192,23626,1,2,0:0:0:0:
64,192,23808,1,2,0:0:0:0:
192,192,23808,1,4,0:0:0:0:
448,192,24172,1,8,0:0:0:0:
320,192,24536,1,2,0:0:0:0:
64,192,24899,1,8,0:0:0:0:
320,192,25263,1,2,0:0:0:0:
192,192,25626,1,8,0:0:0:0:
448,192,25990,1,2,0:0:0:0:
64,192,26354,1,8,0:0:0:0:
448,192,26717,128,2,28172:0:0:0:0:
64,192,27081,1,8,0:0:0:0:
192,192,27445,1,2,0:0:0:0:
320,192,27808,1,8,0:0:0:0:
64,192,28172,1,2,0:0:0:0:
320,192,28354,1,0,0:0:0:70:sel_l.wav
192,192,28717,1,0,0:0:0:70:sel_l.wav
64,192,29081,1,0,0:0:0:70:sel_l.wav
192,192,29263,1,8,0:0:0:0:
320,192,29445,1,8,0:0:0:0:
64,192,29626,1,2,0:0:0:0:
448,192,29626,1,4,0:0:0:0:
192,192,29990,1,8,0:0:0:0:
320,192,30354,1,2,0:0:0:0:
64,192,30717,1,8,0:0:0:0:
448,192,31081,1,2,0:0:0:0:
192,192,31445,1,8,0:0:0:0:
320,192,31808,1,2,0:0:0:0:
448,192,32172,1,8,0:0:0:0:
64,192,32536,128,2,33990:0:0:0:0:
448,192,32899,1,8,0:0:0:0:
320,192,33263,1,2,0:0:0:0:
192,192,33626,1,8,0:0:0:0:
448,192,33990,1,2,0:0:0:0:
192,192,34172,1,0,0:0:0:70:sel_l.wav
64,192,34536,1,0,0:0:0:70:sel_l.wav
448,192,34899,1,0,0:0:0:70:sel_l.wav
320,192,35081,1,8,0:0:0:0:
192,192,35263,1,8,0:0:0:0:
64,192,35445,128,2,36899:0:0:0:0:
448,192,35445,1,4,0:0:0:0:
448,192,36172,1,8,0:0:0:0:
192,192,36899,128,2,38354:0:0:0:0:
320,192,37263,1,2,0:0:0:0:
64,192,37626,1,8,0:0:0:0:
320,192,38354,128,2,39081:0:0:0:0:
448,192,39081,128,8,39808:0:0:0:0:
192,192,39626,1,8,0:0:0:0:
64,192,39808,1,2,0:0:0:0:
320,192,39990,1,8,0:0:0:0:
448,192,40172,1,2,0:0:0:0:
192,192,40536,128,8,41263:0:0:0:0:
320,192,41263,1,2,0:0:0:0:
448,192,41263,1,4,0:0:0:0:
64,192,41626,1,8,0:0:0:0:
448,192,41990,1,2,0:0:0:0:
64,192,42354,1,8,0:0:0:0:
320,192,42717,1,2,0:0:0:0:
192,192,43081,1,8,0:0:0:0:
448,192,43445,1,2,0:0:0:0:
64,192,43626,1,0,0:0:0:70:sel_l.wav
320,192,43990,1,0,0:0:0:70:sel_l.wav
64,192,44536,1,8,0:0:0:0:
320,192,44899,1,2,0:0:0:0:
448,192,45263,1,8,0:0:0:0:
192,192,45626,1,2,0:0:0:0:
64,192,45990,1,8,0:0:0:0:
448,192,46354,1,2,0:0:0:0:
192,192,46536,1,0,0:0:0:70:sel_l.wav
320,192,46899,1,2,0:0:0:0:
64,192,47081,1,2,0:0:0:0:
192,192,47081,1,4,0:0:0:0:
448,192,47445,1,8,0:0:0:0:
192,192,47808,1,2,0:0:0:0:
320,192,48172,1,8,0:0:0:0:
64,192,48536,1,2,0:0:0:0:
192,192,48899,128,8,49263:0:0:0:0:
448,192,49263,128,2,49626:0:0:0:0:
64,192,49626,128,8,49990:0:0:0:0:
320,192,49990,128,2,50717:0:0:0:0:
448,192,50354,1,8,0:0:0:0:
192,192,50717,128,2,51445:0:0:0:0:
64,192,51081,1,8,0:0:0:0:
448,192,51445,128,2,52172:0:0:0:0:
320,192,51808,1,8,0:0:0:0:
64,192,52172,128,2,52536:0:0:0:0:
192,192,52536,128,8,52899:0:0:0:0:
320,192,52899,1,8,0:0:0:0:
448,192,53081,1,8,0:0:0:0:
64,192,53445,128,8,54354:0:0:0:0:
448,192,54354,1,2,0:0:0:0:
320,192,54354,1,4,0:0:0:0:
192,192,54717,1,8,0:0:0:0:
448,192,55081,1,2,0:0:0:0:
64,192,55445,1,8,0:0:0:0:
320,192,55808,128,2,56536:0:0:0:0:
448,192,56172,1,8,0:0:0:0:
192,192,56536,128,2,57263:0:0:0:0:
64,192,56899,1,8,0:0:0:0:
320,192,57263,1,2,0:0:0:0:
448,192,57263,1,4,0:0:0:0:
64,192,57626,1,8,0:0:0:0:
192,192,57990,1,2,0:0:0:0:
320,192,58354,1,8,0:0:0:0:
448,192,58717,128,2,59445:0:0:0:0:
64,192,59081,1,8,0:0:0:0:
192,192,59445,128,2,60172:0:0:0:0:
320,192,59808,1,8,0:0:0:0:
64,192,60172,1,2,0:0:0:0:
448,192,60172,1,4,0:0:0:0:
320,192,60536,1,8,0:0:0:0:
64,192,60899,1,2,0:0:0:0:
448,192,61263,1,8,0:0:0:0:
320,192,61626,1,4,0:0:0:0:
192,192,61626,1,2,0:0:0:0:
64,192,61990,1,8,0:0:0:0:
448,192,62354,1,2,0:0:0:0:
192,192,62717,1,8,0:0:0:0:
64,192,63081,128,2,63445:0:0:0:0:
320,192,63081,1,4,0:0:0:0:
448,192,63445,128,8,63808:0:0:0:0:
192,192,63808,128,2,64172:0:0:0:0:
64,192,63808,1,4,0:0:0:0:
320,192,64172,128,8,64536:0:0:0:0:
448,192,64536,128,2,65263:0:0:0:0:
64,192,65263,128,2,65990:0:0:0:0:
448,192,65990,1,2,0:0:0:0:
320,192,65990,1,4,0:0:0:0:
64,192,66354,1,8,0:0:0:0:
448,192,66717,1,2,0:0:0:0:
320,192,67081,1,8,0:0:0:0:
192,192,67445,128,2,68172:0:0:0:0:
64,192,67808,1,8,0:0:0:0:
320,192,68172,128,2,68899:0:0:0:0:
448,192,68536,1,8,0:0:0:0:
192,192,68899,1,4,0:0:0:0:
64,192,68899,1,2,0:0:0:0:
448,192,69263,1,8,0:0:0:0:
192,192,69626,1,2,0:0:0:0:
320,192,69990,1,8,0:0:0:0:
64,192,70354,128,2,71081:0:0:0:0:
448,192,70717,1,8,0:0:0:0:
320,192,71081,128,2,71808:0:0:0:0:
192,192,71445,1,8,0:0:0:0:
64,192,71808,1,4,0:0:0:0:
448,192,71808,1,2,0:0:0:0:
192,192,72172,1,8,0:0:0:0:
320,192,72536,1,2,0:0:0:0:
448,192,72899,1,8,0:0:0:0:
64,192,73263,1,4,0:0:0:0:
192,192,73263,1,2,0:0:0:0:
320,192,73626,1,8,0:0:0:0:
448,192,73990,1,2,0:0:0:0:
64,192,74354,1,8,0:0:0:0:
320,192,74717,128,4,75445:0:0:0:0:
192,192,74717,1,2,0:0:0:0:
448,192,75081,1,8,0:0:0:0:
192,192,75445,1,4,0:0:0:0:
64,192,75445,128,2,75808:0:0:0:0:
320,192,75808,1,2,0:0:0:0:
448,192,76172,128,8,76536:0:0:0:0:
64,192,76536,128,2,76899:0:0:0:0:
320,192,76899,128,8,77263:0:0:0:0:
192,192,77263,128,8,77626:0:0:0:0:
64,192,77626,1,4,0:0:0:0:
448,192,77626,1,8,0:0:0:0:
320,192,77990,1,8,0:0:0:0:
192,192,78354,1,2,0:0:0:0:
448,192,78717,1,8,0:0:0:0:
64,192,79081,128,2,79445:0:0:0:0:
192,192,79445,128,8,79808:0:0:0:0:
448,192,79808,128,2,80172:0:0:0:0:
320,192,80172,128,8,80536:0:0:0:0:
64,192,80536,1,4,0:0:0:0:
192,192,80536,1,2,0:0:0:0:
448,192,80899,1,8,0:0:0:0:
320,192,81263,1,2,0:0:0:0:
192,192,81626,1,8,0:0:0:0:
320,192,81990,128,2,83081:0:0:0:0:
64,192,82354,1,8,0:0:0:0:
192,192,82717,1,2,0:0:0:0:
448,192,83081,1,8,0:0:0:0:
64,192,83445,1,2,0:0:0:0:
192,192,83445,1,4,0:0:0:0:
448,192,83808,1,8,0:0:0:0:
64,192,84172,1,2,0:0:0:0:
192,192,84536,1,8,0:0:0:0:
448,192,84899,128,2,85263:0:0:0:0:
320,192,85263,128,8,85626:0:0:0:0:
192,192,85626,128,8,85990:0:0:0:0:
64,192,85990,128,0,86354:0:0:0:0:
448,192,86354,128,4,87445:0:0:0:0:
320,192,86354,1,2,0:0:0:0:
192,192,87445,1,0,0:0:0:0:
64,192,87717,128,0,88536:0:0:0:0:
320,192,87717,1,0,0:0:0:0:
