osu file format v14

[General]
AudioFilename: audio.mp3
AudioLeadIn: 0
PreviewTime: 54354
Countdown: 0
SampleSet: Soft
StackLeniency: 0.7
Mode: 3
LetterboxInBreaks: 0
SpecialStyle: 0
WidescreenStoryboard: 0

[Editor]
DistanceSpacing: 1
BeatDivisor: 4
GridSize: 4
TimelineZoom: 1.6

[Metadata]
Title:Hitorigoto -TV MIX-
TitleUnicode:ヒトリゴト -TV MIX-
Artist:ClariS
ArtistUnicode:ClariS
Creator:[Harlequin]
Version:Hard
Source:エロマンガ先生
Tags:eromanga sensei opening tv size Virtue
BeatmapID:1301459
BeatmapSetID:616149

[Difficulty]
HPDrainRate:7.5
CircleSize:4
OverallDifficulty:7.5
ApproachRate:5
SliderMultiplier:1.4
SliderTickRate:1

[Events]
//Background and Video events
0,0,"BG_3.png",0,0
//Break Periods
//Storyboard Layer 0 (Background)
//Storyboard Layer 1 (Fail)
//Storyboard Layer 2 (Pass)
//Storyboard Layer 3 (Foreground)
//Storyboard Sound Samples
Sample,13626,0,"bell.wav",100
Sample,14354,0,"bell.wav",100
Sample,16536,0,"bell.wav",100
Sample,19445,0,"bell.wav",100
Sample,20172,0,"bell.wav",100

[TimingPoints]
536,363.636363636364,4,2,1,50,1,0
54354,-100,4,2,1,50,0,1
64536,-100,4,2,1,50,0,0
65990,-100,4,2,1,50,0,1
77626,-100,4,2,1,50,0,0

[HitObjects]
64,192,172,128,0,536:0:0:0:0:
448,192,536,1,8,0:0:0:0:
320,192,536,1,0,0:0:0:0:
192,192,717,1,8,0:0:0:0:
64,192,717,1,0,0:0:0:0:
448,192,1445,128,0,1990:0:0:0:0:
64,192,1990,1,8,0:0:0:0:
320,192,1990,1,0,0:0:0:0:
448,192,2172,1,8,0:0:0:0:
192,192,2172,1,0,0:0:0:0:
320,192,2717,1,0,0:0:0:0:
64,192,2899,128,0,3445:0:0:0:0:
448,192,3445,1,8,0:0:0:0:
192,192,3445,1,0,0:0:0:0:
64,192,3626,1,8,0:0:0:0:
320,192,3626,1,0,0:0:0:0:
448,192,4354,128,0,4899:0:0:0:0:
320,192,4899,1,2,0:0:0:0:
64,192,4899,128,4,5626:0:0:0:0:
192,192,4899,1,0,0:0:0:0:
448,192,5626,128,8,5869:0:0:0:0:
320,192,5626,1,0,0:0:0:0:
192,192,5869,128,8,6111:0:0:0:0:
64,192,5869,1,0,0:0:0:0:
320,192,6111,128,8,6354:0:0:0:0:
448,192,6111,1,0,0:0:0:0:
192,192,6354,1,8,0:0:0:0:
64,192,6354,1,0,0:0:0:0:
448,192,6536,1,8,0:0:0:0:
320,192,6536,1,0,0:0:0:0:
192,192,7263,128,0,7808:0:0:0:0:
320,192,7808,1,8,0:0:0:0:
448,192,7808,1,0,0:0:0:0:
192,192,7990,1,8,0:0:0:0:
64,192,7990,1,0,0:0:0:0:
64,192,8536,1,0,0:0:0:0:
320,192,8717,128,0,9263:0:0:0:0:
192,192,9263,1,8,0:0:0:0:
64,192,9263,1,0,0:0:0:0:
320,192,9445,1,8,0:0:0:0:
448,192,9445,1,0,0:0:0:0:
64,192,10172,128,0,10717:0:0:0:0:
320,192,10717,128,4,11445:0:0:0:0:
448,192,10717,1,2,0:0:0:0:
192,192,10717,1,0,0:0:0:0:
64,192,11081,1,4,0:0:0:0:
192,192,11445,1,8,0:0:0:0:
64,192,11445,1,0,0:0:0:0:
448,192,11626,1,0,0:0:0:0:
192,192,11717,1,8,0:0:0:0:
320,192,11808,1,8,0:0:0:0:
64,192,11899,1,8,0:0:0:0:
192,192,11990,1,8,0:0:0:0:
320,192,12081,1,8,0:0:0:0:
64,192,12172,1,0,0:0:0:100:bell.wav
448,192,12172,128,4,12354:0:0:0:0:
192,192,12172,1,8,0:0:0:0:
320,192,12354,1,0,0:0:0:0:
192,192,12536,128,0,12717:0:0:0:100:bell.wav
64,192,12536,1,8,0:0:0:0:
320,192,12717,1,0,0:0:0:0:
448,192,12899,128,0,13081:0:0:0:100:bell.wav
64,192,12899,1,2,0:0:0:0:
320,192,13081,128,0,13263:0:0:0:0:
192,192,13263,128,0,13445:0:0:0:100:bell.wav
448,192,13263,1,8,0:0:0:0:
64,192,13445,128,0,13626:0:0:0:0:
320,192,13626,1,2,0:0:0:0:
64,192,13808,128,0,13990:0:0:0:0:
192,192,13990,1,8,0:0:0:0:
448,192,13990,1,0,0:0:0:100:bell.wav
320,192,14172,128,0,14354:0:0:0:0:
192,192,14354,1,2,0:0:0:0:
448,192,14536,128,0,14899:0:0:0:0:
64,192,14717,1,8,0:0:0:0:
192,192,14899,1,0,0:0:0:0:
320,192,15081,1,2,0:0:0:0:
64,192,15081,1,0,0:0:0:100:bell.wav
448,192,15081,1,4,0:0:0:0:
192,192,15263,1,0,0:0:0:0:
448,192,15445,128,0,15626:0:0:0:100:bell.wav
320,192,15445,1,8,0:0:0:0:
64,192,15626,1,0,0:0:0:0:
192,192,15808,128,0,15990:0:0:0:100:bell.wav
448,192,15808,1,2,0:0:0:0:
320,192,15990,128,0,16172:0:0:0:0:
64,192,16172,128,0,16354:0:0:0:100:bell.wav
192,192,16172,1,8,0:0:0:0:
448,192,16354,128,0,16536:0:0:0:0:
320,192,16536,1,2,0:0:0:0:
448,192,16717,128,0,16899:0:0:0:0:
64,192,16899,1,8,0:0:0:0:
192,192,16899,1,0,0:0:0:100:bell.wav
320,192,17081,128,0,17263:0:0:0:0:
448,192,17263,1,0,0:0:0:100:bell.wav
192,192,17445,128,0,17626:0:0:0:0:
64,192,17626,1,8,0:0:0:0:
448,192,17626,1,0,0:0:0:100:bell.wav
320,192,17808,1,8,0:0:0:0:
192,192,17808,1,0,0:0:0:0:
64,192,17990,1,0,0:0:0:100:bell.wav
320,192,17990,1,2,0:0:0:0:
448,192,17990,1,4,0:0:0:0:
192,192,18172,1,0,0:0:0:0:
448,192,18354,128,0,18536:0:0:0:100:bell.wav
320,192,18354,1,8,0:0:0:0:
64,192,18536,1,0,0:0:0:0:
320,192,18717,128,0,18899:0:0:0:100:bell.wav
192,192,18717,1,2,0:0:0:0:
64,192,18899,128,0,19081:0:0:0:0:
192,192,19081,128,8,19263:0:0:0:0:
448,192,19081,1,0,0:0:0:100:bell.wav
320,192,19263,128,0,19445:0:0:0:0:
64,192,19445,1,2,0:0:0:0:
320,192,19626,128,0,19808:0:0:0:0:
448,192,19808,1,8,0:0:0:0:
64,192,19808,1,0,0:0:0:100:bell.wav
192,192,19990,128,0,20172:0:0:0:0:
320,192,20172,1,2,0:0:0:0:
64,192,20354,128,0,20717:0:0:0:0:
192,192,20536,1,8,0:0:0:0:
320,192,20717,1,0,0:0:0:0:
192,192,20899,1,2,0:0:0:0:
448,192,20899,1,4,0:0:0:0:
64,192,20899,1,0,0:0:0:100:bell.wav
320,192,21081,1,0,0:0:0:0:
64,192,21263,128,8,21445:0:0:0:0:
448,192,21263,1,0,0:0:0:100:bell.wav
192,192,21445,1,0,0:0:0:0:
448,192,21626,128,0,21808:0:0:0:100:bell.wav
320,192,21626,1,2,0:0:0:0:
64,192,21808,128,0,21990:0:0:0:0:
320,192,21990,128,0,22172:0:0:0:100:bell.wav
448,192,21990,1,8,0:0:0:0:
192,192,22172,128,0,22354:0:0:0:0:
64,192,22354,1,0,0:0:0:100:bell.wav
448,192,22354,1,6,0:0:0:0:
192,192,22536,128,0,22717:0:0:0:0:
320,192,22717,1,0,0:0:0:100:bell.wav
448,192,22717,1,12,0:0:0:0:
64,192,22899,128,0,23081:0:0:0:0:
320,192,23081,1,2,0:0:0:0:
192,192,23081,1,4,0:0:0:0:
448,192,23263,1,8,0:0:0:0:
64,192,23354,1,8,0:0:0:0:
320,192,23445,1,8,0:0:0:0:
192,192,23536,1,8,0:0:0:0:
448,192,23626,1,2,0:0:0:0:
320,192,23717,1,2,0:0:0:0:
192,192,23808,1,2,0:0:0:0:
448,192,23808,1,4,0:0:0:0:
64,192,23808,1,0,0:0:0:0:
320,192,23990,1,0,0:0:0:70:sel_l.wav
64,192,24172,1,8,0:0:0:0:
448,192,24172,1,0,0:0:0:0:
192,192,24354,1,0,0:0:0:70:sel_l.wav
320,192,24536,1,2,0:0:0:0:
64,192,24536,1,0,0:0:0:0:
448,192,24717,1,0,0:0:0:70:sel_l.wav
192,192,24899,1,8,0:0:0:0:
320,192,24899,1,0,0:0:0:0:
64,192,25081,1,0,0:0:0:70:sel_l.wav
448,192,25263,1,2,0:0:0:0:
192,192,25263,1,0,0:0:0:0:
320,192,25445,1,0,0:0:0:70:sel_l.wav
64,192,25626,1,8,0:0:0:0:
448,192,25626,1,0,0:0:0:0:
192,192,25808,1,0,0:0:0:70:sel_l.wav
64,192,25990,1,2,0:0:0:0:
320,192,25990,1,0,0:0:0:0:
448,192,26172,1,0,0:0:0:70:sel_l.wav
192,192,26354,1,8,0:0:0:0:
64,192,26354,1,0,0:0:0:0:
320,192,26536,1,0,0:0:0:70:sel_l.wav
192,192,26717,1,0,0:0:0:0:
448,192,26717,128,2,27990:0:0:0:0:
64,192,26899,1,0,0:0:0:70:sel_l.wav
320,192,27081,1,8,0:0:0:0:
64,192,27263,1,0,0:0:0:70:sel_l.wav
192,192,27445,1,2,0:0:0:0:
64,192,27626,1,0,0:0:0:70:sel_l.wav
320,192,27808,1,8,0:0:0:0:
192,192,27990,1,0,0:0:0:70:sel_l.wav
320,192,28172,128,2,28354:0:0:0:0:
64,192,28172,1,0,0:0:0:0:
192,192,28354,128,0,28536:0:0:0:70:sel_l.wav
64,192,28536,1,8,0:0:0:0:
448,192,28536,1,0,0:0:0:0:
320,192,28717,128,0,28899:0:0:0:70:sel_l.wav
192,192,28899,1,2,0:0:0:0:
64,192,29081,128,0,29263:0:0:0:70:sel_l.wav
448,192,29263,128,8,29445:0:0:0:0:
192,192,29263,1,0,0:0:0:0:
320,192,29445,1,8,0:0:0:0:
192,192,29536,1,8,0:0:0:0:
64,192,29626,1,2,0:0:0:0:
448,192,29626,1,4,0:0:0:0:
320,192,29626,1,0,0:0:0:0:
192,192,29808,1,0,0:0:0:70:sel_l.wav
64,192,29990,1,8,0:0:0:0:
448,192,29990,1,0,0:0:0:0:
320,192,30172,1,0,0:0:0:70:sel_l.wav
192,192,30354,1,2,0:0:0:0:
64,192,30354,1,0,0:0:0:0:
448,192,30536,1,0,0:0:0:70:sel_l.wav
320,192,30717,1,8,0:0:0:0:
192,192,30717,1,0,0:0:0:0:
64,192,30899,1,0,0:0:0:70:sel_l.wav
320,192,31081,1,2,0:0:0:0:
448,192,31081,1,0,0:0:0:0:
192,192,31263,1,0,0:0:0:70:sel_l.wav
64,192,31445,1,8,0:0:0:0:
448,192,31445,1,0,0:0:0:0:
320,192,31626,1,0,0:0:0:70:sel_l.wav
192,192,31808,1,2,0:0:0:0:
448,192,31808,1,0,0:0:0:0:
320,192,31990,1,0,0:0:0:70:sel_l.wav
64,192,32172,1,8,0:0:0:0:
192,192,32172,1,0,0:0:0:0:
448,192,32354,1,0,0:0:0:70:sel_l.wav
320,192,32536,1,0,0:0:0:0:
64,192,32536,128,2,33808:0:0:0:0:
192,192,32717,1,0,0:0:0:70:sel_l.wav
448,192,32899,1,8,0:0:0:0:
192,192,33081,1,0,0:0:0:70:sel_l.wav
320,192,33263,1,2,0:0:0:0:
448,192,33445,1,0,0:0:0:70:sel_l.wav
192,192,33626,1,8,0:0:0:0:
320,192,33808,1,0,0:0:0:70:sel_l.wav
448,192,33990,128,2,34172:0:0:0:0:
192,192,33990,1,0,0:0:0:0:
64,192,34172,128,0,34354:0:0:0:70:sel_l.wav
448,192,34354,1,8,0:0:0:0:
192,192,34354,1,0,0:0:0:0:
320,192,34536,128,0,34717:0:0:0:70:sel_l.wav
64,192,34717,1,2,0:0:0:0:
192,192,34899,128,0,35081:0:0:0:70:sel_l.wav
448,192,35081,128,8,35263:0:0:0:0:
320,192,35081,1,0,0:0:0:0:
64,192,35263,1,8,0:0:0:0:
192,192,35354,1,8,0:0:0:0:
64,192,35445,1,2,0:0:0:0:
448,192,35445,1,4,0:0:0:0:
320,192,35445,128,0,36172:0:0:0:0:
192,192,35808,1,0,0:0:0:70:sel_l.wav
448,192,36172,1,8,0:0:0:0:
64,192,36172,128,0,36899:0:0:0:0:
192,192,36536,1,0,0:0:0:70:sel_l.wav
320,192,36717,1,2,0:0:0:0:
192,192,36899,1,2,0:0:0:0:
448,192,36899,128,0,37445:0:0:0:0:
64,192,37263,1,2,0:0:0:0:
192,192,37445,128,0,37990:0:0:0:0:
320,192,37626,1,8,0:0:0:0:
448,192,37990,128,0,38354:0:0:0:70:sel_l.wav
64,192,38172,1,0,0:0:0:0:
320,192,38354,128,2,39081:0:0:0:0:
192,192,38354,1,4,0:0:0:0:
64,192,38717,1,0,0:0:0:70:sel_l.wav
448,192,39081,1,8,0:0:0:0:
192,192,39081,128,0,39445:0:0:0:0:
64,192,39445,128,0,39808:0:0:0:70:sel_l.wav
448,192,39626,1,8,0:0:0:0:
320,192,39808,1,2,0:0:0:0:
192,192,39990,1,8,0:0:0:0:
64,192,39990,1,0,0:0:0:0:
448,192,40172,1,2,0:0:0:0:
320,192,40172,1,0,0:0:0:70:sel_l.wav
192,192,40354,1,0,0:0:0:0:
64,192,40536,1,8,0:0:0:0:
448,192,40536,1,0,0:0:0:0:
320,192,40657,1,8,0:0:0:0:
192,192,40778,1,8,0:0:0:0:
448,192,40899,1,8,0:0:0:0:
64,192,41020,1,8,0:0:0:0:
192,192,41142,1,8,0:0:0:0:
320,192,41263,1,2,0:0:0:0:
448,192,41263,1,4,0:0:0:0:
64,192,41263,1,0,0:0:0:0:
192,192,41445,1,0,0:0:0:70:sel_l.wav
448,192,41626,1,8,0:0:0:0:
320,192,41626,1,0,0:0:0:0:
64,192,41808,1,0,0:0:0:70:sel_l.wav
320,192,41990,1,2,0:0:0:0:
192,192,41990,1,0,0:0:0:0:
448,192,42172,1,0,0:0:0:70:sel_l.wav
64,192,42354,1,8,0:0:0:0:
192,192,42354,1,0,0:0:0:0:
320,192,42536,1,0,0:0:0:70:sel_l.wav
448,192,42717,1,2,0:0:0:0:
64,192,42717,1,0,0:0:0:0:
192,192,42899,1,0,0:0:0:70:sel_l.wav
448,192,43081,1,8,0:0:0:0:
320,192,43081,1,0,0:0:0:0:
64,192,43263,1,0,0:0:0:70:sel_l.wav
448,192,43445,128,2,43626:0:0:0:0:
192,192,43445,1,0,0:0:0:0:
64,192,43626,128,0,43808:0:0:0:70:sel_l.wav
320,192,43808,1,8,0:0:0:0:
448,192,43808,1,0,0:0:0:0:
192,192,43990,128,0,44172:0:0:0:70:sel_l.wav
64,192,44172,1,2,0:0:0:0:
320,192,44354,1,0,0:0:0:70:sel_l.wav
64,192,44536,1,8,0:0:0:0:
448,192,44536,1,0,0:0:0:0:
192,192,44717,1,0,0:0:0:70:sel_l.wav
64,192,44899,1,2,0:0:0:0:
320,192,44899,1,0,0:0:0:0:
448,192,45081,1,0,0:0:0:70:sel_l.wav
320,192,45263,1,8,0:0:0:0:
192,192,45263,1,0,0:0:0:0:
64,192,45445,1,0,0:0:0:70:sel_l.wav
320,192,45626,1,2,0:0:0:0:
448,192,45626,1,0,0:0:0:0:
192,192,45808,1,0,0:0:0:70:sel_l.wav
64,192,45990,1,8,0:0:0:0:
448,192,45990,1,0,0:0:0:0:
320,192,46172,1,0,0:0:0:70:sel_l.wav
192,192,46354,1,2,0:0:0:0:
64,192,46354,128,0,46536:0:0:0:0:
320,192,46536,128,0,46717:0:0:0:70:sel_l.wav
448,192,46717,1,2,0:0:0:0:
64,192,46717,1,0,0:0:0:0:
192,192,46899,128,2,47081:0:0:0:0:
320,192,46899,1,0,0:0:0:70:sel_l.wav
448,192,47081,1,2,0:0:0:0:
64,192,47081,1,4,0:0:0:0:
192,192,47263,1,0,0:0:0:70:sel_l.wav
64,192,47445,1,8,0:0:0:0:
320,192,47445,1,0,0:0:0:0:
448,192,47626,1,0,0:0:0:70:sel_l.wav
192,192,47808,1,2,0:0:0:0:
64,192,47808,1,0,0:0:0:0:
320,192,47990,1,0,0:0:0:70:sel_l.wav
192,192,48172,1,8,0:0:0:0:
448,192,48172,1,0,0:0:0:0:
64,192,48354,1,0,0:0:0:70:sel_l.wav
448,192,48536,1,2,0:0:0:0:
320,192,48536,1,0,0:0:0:0:
192,192,48717,1,0,0:0:0:70:sel_l.wav
448,192,48899,1,8,0:0:0:0:
64,192,48899,128,0,49081:0:0:0:0:
192,192,49081,1,0,0:0:0:70:sel_l.wav
320,192,49263,128,2,49445:0:0:0:0:
64,192,49263,1,0,0:0:0:0:
448,192,49445,1,0,0:0:0:70:sel_l.wav
64,192,49626,128,8,49808:0:0:0:0:
192,192,49626,1,0,0:0:0:0:
448,192,49808,1,0,0:0:0:70:sel_l.wav
320,192,49990,128,0,50717:0:0:0:0:
192,192,49990,1,2,0:0:0:0:
448,192,50172,1,0,0:0:0:70:sel_l.wav
64,192,50354,1,8,0:0:0:0:
192,192,50536,1,0,0:0:0:70:sel_l.wav
448,192,50717,1,0,0:0:0:0:
64,192,50717,128,2,51445:0:0:0:0:
192,192,50899,1,0,0:0:0:70:sel_l.wav
448,192,51081,1,8,0:0:0:0:
320,192,51263,1,0,0:0:0:70:sel_l.wav
448,192,51445,128,2,52172:0:0:0:0:
192,192,51445,1,0,0:0:0:0:
64,192,51626,1,0,0:0:0:70:sel_l.wav
192,192,51808,1,8,0:0:0:0:
320,192,51990,1,0,0:0:0:70:sel_l.wav
64,192,52172,1,2,0:0:0:0:
192,192,52172,128,0,52536:0:0:0:0:
320,192,52354,1,0,0:0:0:70:sel_l.wav
64,192,52536,1,8,0:0:0:0:
448,192,52536,1,0,0:0:0:0:
192,192,52717,1,8,0:0:0:0:
320,192,52808,1,8,0:0:0:0:
64,192,52899,128,0,52990:0:0:0:0:
448,192,52899,128,8,52990:0:0:0:0:
64,192,53081,128,0,53172:0:0:0:0:
448,192,53081,128,8,53172:0:0:0:0:
320,192,53263,1,2,0:0:0:0:
192,192,53263,1,0,0:0:0:0:
192,192,53445,1,8,0:0:0:0:
64,192,53445,1,0,0:0:0:0:
448,192,53445,128,0,53808:0:0:0:0:
64,192,53808,128,0,54354:0:0:0:0:
192,192,53808,1,0,0:0:0:0:
320,192,53899,1,0,0:0:0:0:
192,192,53990,1,0,0:0:0:0:
448,192,54081,1,0,0:0:0:0:
320,192,54172,1,0,0:0:0:0:
192,192,54263,1,0,0:0:0:0:
320,192,54354,1,2,0:0:0:0:
448,192,54354,1,4,0:0:0:0:
192,192,54536,128,0,54717:0:0:0:0:
64,192,54717,1,8,0:0:0:0:
448,192,54717,128,0,54899:0:0:0:0:
320,192,54899,1,0,0:0:0:0:
448,192,55081,1,2,0:0:0:0:
64,192,55081,128,0,55263:0:0:0:0:
320,192,55263,128,0,55445:0:0:0:0:
448,192,55445,1,8,0:0:0:0:
192,192,55445,128,0,55626:0:0:0:0:
64,192,55626,128,0,55808:0:0:0:0:
320,192,55808,1,2,0:0:0:0:
448,192,55808,128,0,55990:0:0:0:0:
192,192,55990,128,0,56172:0:0:0:0:
320,192,56172,1,8,0:0:0:0:
64,192,56172,1,0,0:0:0:0:
448,192,56354,128,0,56536:0:0:0:0:
192,192,56536,1,2,0:0:0:0:
320,192,56536,1,0,0:0:0:0:
64,192,56717,128,0,56899:0:0:0:0:
192,192,56899,128,8,57081:0:0:0:0:
320,192,56899,1,0,0:0:0:0:
448,192,57081,128,2,57263:0:0:0:0:
320,192,57263,1,2,0:0:0:0:
64,192,57263,1,4,0:0:0:0:
192,192,57445,128,0,57626:0:0:0:0:
448,192,57626,1,8,0:0:0:0:
320,192,57626,128,0,57808:0:0:0:0:
64,192,57808,128,0,57990:0:0:0:0:
192,192,57990,1,2,0:0:0:0:
448,192,57990,128,0,58172:0:0:0:0:
320,192,58172,128,0,58354:0:0:0:0:
64,192,58354,128,8,58536:0:0:0:0:
448,192,58354,1,0,0:0:0:0:
192,192,58536,128,0,58717:0:0:0:0:
448,192,58717,1,2,0:0:0:0:
320,192,58717,128,0,58899:0:0:0:0:
64,192,58899,128,0,59081:0:0:0:0:
192,192,59081,1,8,0:0:0:0:
320,192,59081,1,0,0:0:0:0:
448,192,59263,128,0,59445:0:0:0:0:
320,192,59445,1,2,0:0:0:0:
64,192,59445,1,0,0:0:0:0:
192,192,59626,128,2,59808:0:0:0:0:
64,192,59808,1,8,0:0:0:0:
320,192,59808,128,0,59990:0:0:0:0:
448,192,59990,128,0,60172:0:0:0:0:
192,192,60172,1,2,0:0:0:0:
64,192,60172,1,4,0:0:0:0:
320,192,60354,128,0,60536:0:0:0:0:
64,192,60536,128,8,60717:0:0:0:0:
448,192,60536,1,0,0:0:0:0:
192,192,60717,1,0,0:0:0:0:
64,192,60899,1,2,0:0:0:0:
448,192,60899,128,0,61081:0:0:0:0:
192,192,61081,128,0,61263:0:0:0:0:
320,192,61263,128,8,61445:0:0:0:0:
448,192,61263,1,0,0:0:0:0:
64,192,61445,128,0,61626:0:0:0:0:
192,192,61626,1,4,0:0:0:0:
448,192,61626,1,2,0:0:0:0:
320,192,61808,128,0,61990:0:0:0:0:
64,192,61990,1,8,0:0:0:0:
192,192,61990,128,0,62172:0:0:0:0:
448,192,62172,128,0,62354:0:0:0:0:
320,192,62354,1,2,0:0:0:0:
64,192,62354,128,0,62717:0:0:0:0:
192,192,62536,1,0,0:0:0:0:
320,192,62717,1,8,0:0:0:0:
448,192,62717,1,0,0:0:0:0:
64,192,62899,1,0,0:0:0:0:
192,192,63081,128,2,63445:0:0:0:0:
448,192,63081,1,4,0:0:0:0:
320,192,63081,1,0,0:0:0:0:
320,192,63445,128,8,63808:0:0:0:0:
64,192,63445,1,0,0:0:0:0:
448,192,63808,128,2,64172:0:0:0:0:
192,192,63808,1,4,0:0:0:0:
64,192,63808,1,0,0:0:0:0:
320,192,64172,1,8,0:0:0:0:
64,192,64172,128,0,64536:0:0:0:0:
192,192,64536,128,0,64899:0:0:0:0:
448,192,64536,1,2,0:0:0:0:
320,192,64717,128,0,64899:0:0:0:0:
64,192,64899,1,8,0:0:0:0:
448,192,64899,128,0,65263:0:0:0:0:
320,192,65081,128,0,65263:0:0:0:0:
64,192,65263,128,2,65626:0:0:0:0:
192,192,65445,128,0,65626:0:0:0:0:
320,192,65626,1,8,0:0:0:0:
448,192,65626,128,0,65990:0:0:0:0:
64,192,65808,128,0,65990:0:0:0:0:
192,192,65990,1,2,0:0:0:0:
320,192,65990,1,4,0:0:0:0:
320,192,66172,128,0,66354:0:0:0:0:
64,192,66354,128,8,66536:0:0:0:0:
448,192,66354,1,0,0:0:0:0:
192,192,66536,128,0,66717:0:0:0:0:
320,192,66717,128,2,66899:0:0:0:0:
448,192,66717,1,0,0:0:0:0:
64,192,66899,128,0,67081:0:0:0:0:
448,192,67081,128,8,67263:0:0:0:0:
192,192,67081,1,0,0:0:0:0:
320,192,67263,128,0,67445:0:0:0:0:
64,192,67445,128,2,67626:0:0:0:0:
192,192,67445,1,0,0:0:0:0:
320,192,67626,128,0,67808:0:0:0:0:
192,192,67808,128,8,67990:0:0:0:0:
64,192,67808,1,0,0:0:0:0:
448,192,67990,128,0,68172:0:0:0:0:
320,192,68172,1,2,0:0:0:0:
64,192,68172,1,0,0:0:0:0:
192,192,68354,128,0,68536:0:0:0:0:
320,192,68536,128,8,68717:0:0:0:0:
448,192,68536,1,0,0:0:0:0:
192,192,68717,128,0,68899:0:0:0:0:
448,192,68899,1,4,0:0:0:0:
64,192,68899,1,2,0:0:0:0:
320,192,69081,128,0,69263:0:0:0:0:
192,192,69263,128,8,69445:0:0:0:0:
64,192,69263,1,0,0:0:0:0:
448,192,69445,128,0,69626:0:0:0:0:
64,192,69626,128,2,69808:0:0:0:0:
320,192,69626,1,0,0:0:0:0:
448,192,69808,128,0,69990:0:0:0:0:
320,192,69990,128,8,70172:0:0:0:0:
64,192,69990,1,0,0:0:0:0:
192,192,70172,128,2,70354:0:0:0:0:
448,192,70354,1,2,0:0:0:0:
64,192,70354,128,0,70536:0:0:0:0:
320,192,70536,128,0,70717:0:0:0:0:
192,192,70717,128,8,70899:0:0:0:0:
64,192,70717,1,0,0:0:0:0:
448,192,70899,128,0,71081:0:0:0:0:
64,192,71081,1,2,0:0:0:0:
320,192,71081,1,0,0:0:0:0:
192,192,71263,128,0,71445:0:0:0:0:
448,192,71445,128,8,71626:0:0:0:0:
320,192,71445,1,0,0:0:0:0:
64,192,71626,128,0,71808:0:0:0:0:
192,192,71808,1,4,0:0:0:0:
320,192,71808,1,2,0:0:0:0:
448,192,71990,128,0,72172:0:0:0:0:
192,192,72172,1,8,0:0:0:0:
64,192,72172,1,0,0:0:0:0:
320,192,72354,128,0,72536:0:0:0:0:
192,192,72536,128,2,72717:0:0:0:0:
448,192,72536,1,0,0:0:0:0:
64,192,72717,128,0,72899:0:0:0:0:
448,192,72899,128,8,73081:0:0:0:0:
320,192,72899,1,0,0:0:0:0:
192,192,73081,128,0,73263:0:0:0:0:
64,192,73263,1,4,0:0:0:0:
448,192,73263,1,2,0:0:0:0:
320,192,73445,128,0,73808:0:0:0:0:
192,192,73626,1,8,0:0:0:0:
448,192,73626,1,0,0:0:0:0:
64,192,73808,128,0,73990:0:0:0:0:
448,192,73990,1,2,0:0:0:0:
192,192,73990,128,0,74172:0:0:0:0:
320,192,74172,1,0,0:0:0:0:
64,192,74354,1,8,0:0:0:0:
448,192,74354,128,0,74536:0:0:0:0:
192,192,74536,1,0,0:0:0:0:
64,192,74717,128,4,75445:0:0:0:0:
320,192,74717,1,2,0:0:0:0:
448,192,74899,1,0,0:0:0:0:
320,192,75081,1,8,0:0:0:0:
192,192,75263,1,0,0:0:0:0:
320,192,75445,128,4,75808:0:0:0:0:
448,192,75445,1,2,0:0:0:0:
192,192,75626,1,0,0:0:0:0:
448,192,75808,1,2,0:0:0:0:
64,192,75808,1,0,0:0:0:0:
192,192,75990,128,0,76172:0:0:0:0:
448,192,76172,1,8,0:0:0:0:
64,192,76172,128,0,76536:0:0:0:0:
192,192,76354,1,0,0:0:0:0:
320,192,76536,1,2,0:0:0:0:
448,192,76536,128,0,76899:0:0:0:0:
192,192,76717,1,0,0:0:0:0:
64,192,76899,1,8,0:0:0:0:
320,192,76899,1,0,0:0:0:0:
192,192,76990,1,8,0:0:0:0:
320,192,77081,1,8,0:0:0:0:
64,192,77263,1,8,0:0:0:0:
192,192,77354,1,8,0:0:0:0:
448,192,77445,1,8,0:0:0:0:
320,192,77536,1,8,0:0:0:0:
64,192,77626,1,4,0:0:0:0:
192,192,77626,1,8,0:0:0:0:
448,192,77626,128,0,78172:0:0:0:0:
320,192,77808,1,0,0:0:0:0:
64,192,77990,1,8,0:0:0:0:
320,192,78172,128,0,78354:0:0:0:0:
64,192,78354,1,2,0:0:0:0:
192,192,78354,128,0,78717:0:0:0:0:
448,192,78536,1,0,0:0:0:0:
64,192,78717,1,8,0:0:0:0:
320,192,78717,1,0,0:0:0:0:
448,192,78899,128,0,79081:0:0:0:0:
64,192,79081,128,2,79445:0:0:0:0:
192,192,79081,1,0,0:0:0:0:
320,192,79263,1,0,0:0:0:0:
192,192,79445,1,8,0:0:0:0:
448,192,79445,128,0,79808:0:0:0:0:
64,192,79626,1,0,0:0:0:0:
192,192,79808,128,2,80172:0:0:0:0:
320,192,79808,1,0,0:0:0:0:
64,192,79990,1,0,0:0:0:0:
448,192,80172,1,8,0:0:0:0:
320,192,80172,128,0,80354:0:0:0:0:
192,192,80354,128,0,80536:0:0:0:0:
448,192,80536,1,4,0:0:0:0:
64,192,80536,128,2,81081:0:0:0:0:
320,192,80717,1,0,0:0:0:0:
192,192,80899,1,8,0:0:0:0:
320,192,81081,128,0,81263:0:0:0:0:
64,192,81263,1,2,0:0:0:0:
192,192,81263,128,0,81445:0:0:0:0:
448,192,81445,1,0,0:0:0:0:
320,192,81626,1,8,0:0:0:0:
64,192,81626,128,0,81990:0:0:0:0:
448,192,81990,1,2,0:0:0:0:
320,192,81990,1,0,0:0:0:0:
192,192,81990,128,0,82899:0:0:0:0:
64,192,82172,1,0,0:0:0:0:
320,192,82354,1,8,0:0:0:0:
448,192,82536,1,0,0:0:0:0:
64,192,82717,1,2,0:0:0:0:
320,192,82899,1,0,0:0:0:0:
448,192,83081,1,8,0:0:0:0:
64,192,83081,1,0,0:0:0:0:
192,192,83263,1,0,0:0:0:0:
448,192,83445,1,2,0:0:0:0:
64,192,83445,1,4,0:0:0:0:
320,192,83445,128,0,83990:0:0:0:0:
192,192,83626,1,0,0:0:0:0:
448,192,83808,1,8,0:0:0:0:
64,192,83990,128,0,84172:0:0:0:0:
320,192,84172,1,2,0:0:0:0:
448,192,84172,128,0,84536:0:0:0:0:
192,192,84354,1,0,0:0:0:0:
64,192,84536,1,8,0:0:0:0:
320,192,84536,1,0,0:0:0:0:
192,192,84717,128,0,84899:0:0:0:0:
64,192,84899,128,2,85263:0:0:0:0:
448,192,84899,1,0,0:0:0:0:
192,192,85081,1,0,0:0:0:0:
320,192,85263,1,8,0:0:0:0:
448,192,85263,128,0,85626:0:0:0:0:
192,192,85445,1,0,0:0:0:0:
320,192,85626,1,8,0:0:0:0:
64,192,85626,1,0,0:0:0:0:
192,192,85748,1,8,0:0:0:0:
448,192,85990,1,0,0:0:0:0:
64,192,85990,1,8,0:0:0:0:
320,192,86111,1,8,0:0:0:0:
64,192,86232,1,8,0:0:0:0:
192,192,86354,1,4,0:0:0:0:
320,192,86354,128,0,87445:0:0:0:0:
448,192,86354,128,2,87445:0:0:0:0:
192,192,86899,128,0,87081:0:0:0:0:
64,192,87081,128,0,87445:0:0:0:0:
192,192,87445,1,0,0:0:0:0:
64,192,87717,128,8,88536:0:0:0:0:
448,192,87717,128,0,88536:0:0:0:0:
320,192,87717,128,0,88081:0:0:0:0:
