osu file format v14

[General]
AudioFilename: 04 - Connect -TV MIX-.mp3
AudioLeadIn: 1500
PreviewTime: 66416
Countdown: 0
SampleSet: Soft
StackLeniency: 0.7
Mode: 0
LetterboxInBreaks: 0
WidescreenStoryboard: 0

[Editor]
DistanceSpacing: 1
BeatDivisor: 4
GridSize: 4
TimelineZoom: 0.9999996

[Metadata]
Title:Connect -TV MIX-
TitleUnicode:コネクト -TV MIX-
Artist:ClariS
ArtistUnicode:ClariS
Creator:captin1
Version:Beginner
Source:魔法少女まどか☆マギカ
Tags:Mahou Shoujo Madoka Magika Puella Magi no_gu mmzz karia xinely spectator momochikun kantokun rumia- alice clara
BeatmapID:500702
BeatmapSetID:203567

[Difficulty]
HPDrainRate:2
CircleSize:3
OverallDifficulty:1
ApproachRate:2
SliderMultiplier:0.8
SliderTickRate:1

[Events]
//Background and Video events
0,0,"standard.jpg",0,0
Video,480,"connect.avi"
//Break Periods
//Storyboard Layer 0 (Background)
//Storyboard Layer 1 (Fail)
//Storyboard Layer 2 (Pass)
//Storyboard Layer 3 (Foreground)
//Storyboard Sound Samples

[TimingPoints]
1359,342.857142857143,4,2,1,40,1,0
10787,-100,4,2,1,30,0,0
11644,-100,4,2,1,5,0,0
12330,-100,4,2,6,60,0,1
12501,-100,4,2,1,60,0,0
20559,-100,4,2,1,50,0,0
21930,-100,4,2,1,30,0,0
23644,-100,4,2,1,40,0,0
60159,-100,4,2,1,35,0,0
60330,-100,4,2,1,45,0,0
64959,-100,4,2,1,60,0,0
65816,-100,4,1,1,30,0,0
67187,-100,4,2,1,65,0,1
80044,-100,4,2,1,65,0,0
80730,-100,4,2,1,65,0,1
87759,-100,4,2,1,65,0,1
88101,-100,4,2,1,5,0,1
89130,-100,4,2,1,5,0,0

[Colours]
Combo1 : 79,0,157
Combo2 : 255,128,255
Combo3 : 0,98,196
Combo4 : 242,24,57
Combo5 : 255,192,0

[HitObjects]
80,240,1359,6,0,P|128:272|240:256,1,160,2|0,0:0|0:0,0:0:0:0:
332,144,2730,2,0,B|388:120|388:120|464:128,2,120,2|2|0,0:0|0:0|0:0,0:0:0:0:
252,160,4101,2,0,P|208:164|144:64,1,160,2|0,0:0|0:0,0:0:0:0:
296,40,5473,2,0,B|320:80|324:116|324:116|360:132|360:132|360:196|284:236,1,240,2|0,0:0|0:0,0:0:0:0:
220,236,6844,6,0,P|236:276|352:288,1,160,2|0,0:0|0:0,0:0:0:0:
452,180,8216,2,0,L|456:48,2,120,2|2|0,0:0|0:0|0:0,0:0:0:0:
416,252,9587,2,0,B|360:276|340:340|340:340|294:320|244:340,1,200,2|0,0:0|0:0,0:0:0:0:
188,360,10787,2,0,P|128:344|88:212,1,200,2|0,0:0|0:0,0:0:0:0:
160,84,12330,5,12,0:0:0:0:
212,232,13016,2,0,P|272:216|336:240,2,120,0|4|0,0:0|0:0|1:0,0:0:0:0:
144,276,14387,1,0,0:0:0:0:
28,164,15073,1,4,1:0:0:0:
144,52,15759,2,0,P|192:72|272:68,2,120,0|4|0,0:0|0:0|1:0,0:0:0:0:
76,92,17130,2,0,L|88:176,1,80,0|0,1:0|1:0,0:0:0:0:
72,248,17816,5,4,0:0:0:0:
216,320,18501,2,0,P|256:308|344:312,2,120,2|4|0,0:0|0:0|1:0,0:0:0:0:
168,256,19873,1,0,1:0:0:0:
260,123,20559,2,0,P|363:119|337:219,1,240,4|0,0:0|1:0,0:0:0:0:
260,204,21930,2,0,B|224:228|224:228|96:192,2,160,4|0|4,1:0|1:0|0:0,0:0:0:0:
316,144,23644,6,0,B|360:152|392:132|392:132|452:200|416:296,1,240,0|2,0:0|0:0,0:0:0:0:
260,296,25359,2,0,P|236:288|192:244,1,80,0|0,0:0|0:0,0:0:0:0:
116,236,26044,2,0,P|112:184|180:100,1,160,2|0,0:0|0:0,0:0:0:0:
324,160,27416,2,0,B|384:176|384:176|452:160,2,120,2|2|0,0:0|0:0|0:0,0:0:0:0:
260,108,28787,6,0,P|240:152|304:240,1,160,2|0,0:0|0:0,0:0:0:0:
424,332,30159,2,0,B|364:332|364:332|312:360|312:360|264:336|192:352,1,240,2|0,0:0|0:0,0:0:0:0:
116,332,31530,2,0,P|88:292|108:184,1,160,2|0,0:0|0:0,0:0:0:0:
232,88,32901,1,2,0:0:0:0:
320,224,33587,2,0,P|364:200|472:208,1,160,2|2,0:0|0:0,0:0:0:0:
476,288,34616,6,0,B|440:312|436:356|436:356|364:308|272:332,1,240,0|2,0:0|0:0,0:0:0:0:
128,356,36330,2,0,P|108:320|104:280,1,80,0|0,0:0|0:0,0:0:0:0:
144,212,37016,2,0,P|160:164|132:52,1,160,2|0,0:0|0:0,0:0:0:0:
44,188,38387,2,0,L|36:316,2,120,2|2|0,0:0|0:0|0:0,0:0:0:0:
116,156,39759,6,0,P|144:172|276:168,1,160,2|0,0:0|0:0,0:0:0:0:
420,122,41130,2,0,P|457:135|482:165,1,80,2|0,0:0|0:0,0:0:0:0:
411,201,41816,2,0,P|431:228|448:276,1,80,2|0,0:0|0:0,0:0:0:0:
401,337,42501,2,0,P|369:329|273:337,2,120,2|0|0,0:0|0:0|0:0,0:0:0:0:
476,364,43873,1,2,0:0:0:0:
484,204,44559,1,2,0:0:0:0:
360,104,45244,6,0,P|316:88|224:220,1,240,4|0,1:0|1:0,0:0:0:0:
260,288,46616,1,0,1:0:0:0:
108,336,47301,2,0,L|104:248,1,80,0|0,1:0|1:0,0:0:0:0:
144,184,47987,2,0,P|140:136|144:56,2,120,2|0|0,1:2|0:0|1:0,0:0:0:0:
216,216,49359,1,0,1:0:0:0:
372,180,50044,1,0,1:0:0:0:
264,64,50730,6,0,L|128:52,2,120,2|0|0,1:2|0:0|1:0,0:0:0:0:
380,36,52273,1,0,0:0:0:0:
396,156,52787,2,0,L|404:240,1,80,0|0,1:0|1:0,0:0:0:0:
460,292,53473,2,0,B|416:324|416:324|316:280|236:316,1,240,2|0,1:2|1:0,0:0:0:0:
160,344,54844,2,0,P|120:316|108:204,1,160,0|0,1:0|1:0,0:0:0:0:
160,152,55873,1,2,1:2:0:0:
236,172,56216,6,0,B|288:200|352:196|352:196|348:264|376:328,1,240,4|0,1:2|1:0,0:0:0:0:
448,336,57587,1,0,1:0:0:0:
468,176,58273,2,0,P|439:136|422:96,1,80,0|0,1:0|1:0,0:0:0:0:
348,104,58959,2,0,P|292:112|216:104,2,120,2|0|0,1:2|0:0|1:0,0:0:0:0:
348,184,60330,2,0,L|356:268,1,80,0|0,1:0|1:0,0:0:0:0:
276,268,61016,2,0,L|284:352,1,80,0|0,1:0|1:0,0:0:0:0:
204,352,61701,6,0,B|152:356|132:332|132:332|164:236|113:178,1,240,4|0,1:0|1:0,0:0:0:0:
160,111,63073,2,0,P|256:52|353:112,1,240,4|0,1:0|1:0,0:0:0:0:
398,178,64444,2,0,B|348:236|380:332|380:332|360:356|308:352,1,240,4|0,1:0|0:3,0:0:0:0:
256,292,65816,2,2,B|260:261|244:240|244:240|272:224|272:224|256:185|256:153,1,160,4|2,2:0|2:0,0:0:0:0:
360,32,67187,5,4,1:0:0:0:
424,180,67873,1,0,0:0:0:0:
288,264,68559,2,0,P|240:260|160:232,2,120,0|2|0,0:0|0:0|1:0,0:0:0:0:
368,260,69930,2,0,P|360:302|253:337,1,160,2|0,0:0|0:0,0:0:0:0:
112,288,71301,2,0,B|69:217|108:135|108:135|180:175,1,240,0|0,0:0|1:0,0:0:0:0:
204,248,72673,5,4,0:0:0:0:
356,196,73359,1,0,0:0:0:0:
444,332,74044,2,0,L|324:356,2,120,0|2|0,0:0|0:0|1:0,0:0:0:0:
468,256,75416,2,0,B|496:168|432:152|468:60|468:60|421:77|372:64,1,280,4|4,0:0|0:0,0:0:0:0:
192,88,77473,2,0,P|208:124|212:172,1,80,2|0,1:2|1:0,0:0:0:0:
164,228,78159,5,4,0:0:0:0:
288,332,78844,1,0,0:0:0:0:
424,244,79530,2,0,P|384:208|312:200,1,120,0|0,1:2|1:0,0:0:0:0:
256,244,80387,1,0,1:0:0:0:
192,296,80730,2,0,B|56:288|56:288|24:228,1,200,4|0,1:0|0:0,0:0:0:0:
108,96,82273,2,0,P|156:60|224:76,2,120,2|4|0,0:0|0:0|1:0,0:0:0:0:
176,140,83644,5,4,0:0:0:0:
256,280,84330,1,0,0:0:0:0:
336,140,85016,2,0,P|388:160|460:160,2,120,2|2|0,0:0|0:0|1:0,0:0:0:0:
318,61,86387,2,0,B|292:28|256:12|256:12|220:28|194:60,1,160,2|0,0:0|1:0,0:0:0:0:
256,112,87416,1,2,0:0:0:0:
256,192,87759,12,0,89130,0:0:0:0:
