osu file format v9

[General]
AudioFilename: Connect.mp3
AudioLeadIn: 2000
PreviewTime: 143658
Countdown: 0
SampleSet: Soft
StackLeniency: 0.7
Mode: 0
LetterboxInBreaks: 1

[Editor]
DistanceSpacing: 1
BeatDivisor: 4
GridSize: 8

[Metadata]
Title:Connect
Artist:ClariS
Creator:haha5957
Version:ClariS
Source:Puella Magi Madoka Magica
Tags:Mahou Shoujo

[Difficulty]
HPDrainRate:6
CircleSize:4
OverallDifficulty:7
ApproachRate:7
SliderMultiplier:1.5
SliderTickRate:0.5

[Events]
//Background and Video events
0,0,"Connect.jpg"
//Break Periods
2,92429,99901
2,169229,176015
2,198029,209272
//Storyboard Layer 0 (Background)
//Storyboard Layer 1 (Fail)
//Storyboard Layer 2 (Pass)
//Storyboard Layer 3 (Foreground)
//Storyboard Sound Samples
//Background Colour Transformations
3,100,163,162,255

[TimingPoints]
344,342.857142857143,4,2,1,70,1,0
21258,-100,4,2,1,80,0,0
21601,-100,4,2,1,90,0,0
21944,-100,4,2,1,100,0,0
22287,-100,4,2,1,70,0,0
66858,-100,4,1,1,70,0,0
67544,-100,4,1,1,70,0,1
89487,-100,4,2,1,70,0,0
143658,-100,4,1,1,70,0,0
144344,-100,4,1,1,70,0,1
166287,-100,4,2,1,70,0,0
212230,-100,4,2,1,70,0,0
215487,-100,4,1,1,70,0,1
234858,-100,4,2,1,70,0,0

[Colours]
Combo1 : 255,128,128
Combo2 : 0,128,128

[HitObjects]
40,256,1029,1,2
80,320,1201,1,0
152,320,1372,1,0
184,256,1544,1,0
112,256,1715,2,0,B|112:96,2,150,2|0|2
240,328,2744,1,0
384,328,3087,1,2
440,280,3258,2,0,B|504:216|440:144,2,150,0|0|0
312,200,4287,1,0
272,264,4458,2,0,B|240:360|128:312,1,150,2|0
88,288,4972,5,0
56,216,5144,1,2
88,144,5315,2,0,B|152:72|216:144,1,150,0|0
152,184,5829,2,0,B|152:344,2,150,2|0|2
152,112,6687,5,0
216,80,6858,1,0
288,80,7029,1,0
352,112,7201,2,0,B|416:176|352:248,1,150,2|0
288,280,7715,1,0
216,280,7887,1,2
144,248,8058,2,0,B|120:360|240:360,1,150
288,360,8572,5,2
360,360,8744,2,0,B|456:344|424:224,2,150,0|2|0
208,360,9772,1,0
80,288,10115,5,0
64,216,10287,1,0
88,144,10458,1,0
144,96,10629,1,0
208,64,10801,1,0
280,48,10972,1,0
352,64,11144,2,0,B|432:72|472:144,2,150,2|0|0
200,232,12344,5,0
200,232,12430,1,0
200,232,12515,1,0
200,232,12601,1,0
200,232,12687,2,0,B|200:72,2,150,6|0|2
56,272,13715,5,0
56,272,13887,2,0,B|56:120,2,150,2|0|2
56,272,14744,1,0
200,328,15087,1,0
344,272,15430,5,2
344,128,15772,2,0,B|504:128,2,150,0|2|0
272,128,16630,2,0,B|96:128,2,150,2|0|2
344,128,17487,1,0
344,280,17830,5,0
344,280,17915,1,0
344,280,18001,1,0
344,280,18087,1,0
344,280,18172,2,0,B|192:352,2,150,2|0|2
344,128,19201,5,0
344,128,19372,2,0,B|488:56,2,150,2|0|2
344,128,20230,1,0
224,32,20572,1,0
80,72,20915,5,0
32,128,21087,1,0
16,200,21258,1,0
40,272,21430,1,0
88,328,21601,1,0
160,352,21772,1,0
232,344,21944,1,0
296,304,22115,1,0
256,192,22287,12,0,23658
432,136,24001,6,0,B|384:48|296:32,1,150,2|0
432,136,24687,2,0,B|384:224|296:240,1,150,2|0
208,136,25372,2,0,B|48:136,2,150,2|0|2
328,48,26401,5,0
400,64,26572,1,0
448,120,26744,1,2
480,192,26915,1,0
448,264,27087,1,0
400,320,27258,1,0
328,336,27429,1,0
256,320,27601,1,0
208,264,27772,2,0,B|144:200|200:112,1,150,2|0
224,56,28286,1,2
368,104,28630,6,0,B|368:256,1,150
296,256,29144,2,0,B|296:88,1,150,2|0
144,104,29830,1,0
144,104,30001,2,0,B|72:160|144:232,2,150,0|2|0
184,168,30858,1,2
224,232,31030,2,0,B|296:175|224:104,2,150,0|0|2
184,296,31887,6,0,B|120:360,1,75
256,304,32230,2,0,B|256:384,1,75,2|0
328,296,32572,2,0,B|384:352,1,75
376,248,32915,2,0,B|448:184|376:120,2,150,2|0|2
240,184,33944,1,0
90,184,34287,2,0,B|240:184,1,150,2|0
208,336,34972,6,0,B|112:336|88:208,1,150,2|0
208,48,35658,2,0,B|112:48|88:176,1,150,2|0
240,192,36344,2,0,B|400:192,2,150,2|0|2
144,80,37372,5,0
72,104,37544,1,0
16,160,37715,1,2
16,232,37887,1,0
72,280,38058,1,0
144,304,38229,1,0
248,192,38572,2,0,B|72:192,2,150,2|0|2
400,296,39601,6,0,B|400:144,1,150
296,64,40115,2,0,B|296:256,1,150,0|2
144,264,40801,1,0
144,264,40972,2,0,B|88:200|144:128,2,150,0|0|0
182,198,41829,2,0,B|270:198,2,75,2|0|2
312,128,42515,5,0
440,48,42858,2,0,B|360:104,1,75
480,128,43201,2,0,B|400:160,1,75,2|0
480,256,43544,2,0,B|400:224,1,75
440,336,43887,2,0,B|360:280,1,75,2|0
312,256,44229,2,0,B|240:192|312:128,2,150,2|0|2
176,192,45258,6,0,B|56:192,2,75,0|0|2
328,192,45944,2,0,B|496:192,1,150,0|2
360,104,46629,1,0
360,104,46801,2,0,B|200:104,2,150,2|0|2
360,104,47658,1,0
480,192,48001,1,2
360,280,48344,6,0,B|200:280,2,150,0|2|0
240,192,49372,1,2
104,128,49715,1,0
40,160,49887,1,0
40,232,50058,1,2
104,272,50229,1,0
104,200,50401,2,0,B|256:200,1,150,0|2
392,136,51087,6,0,B|464:200|392:264,2,150,0|2|0
256,200,52115,1,2
120,256,52458,2,0,B|48:192|120:128,2,150,0|2|0
256,200,53487,1,2
336,72,53829,6,0,B|504:72,2,150,0|2|0
184,72,54858,1,0
184,72,55029,2,0,B|16:72,2,150,2|0|2
184,72,55887,1,0
256,208,56229,5,0
256,208,56401,1,0
296,144,56572,2,0,B|368:72,1,75
336,208,56915,2,0,B|416:208,1,75,2|0
296,272,57258,2,0,B|368:344,1,75
256,208,57601,1,0
256,208,57772,6,0,B|80:208,2,150,2|0|2
256,208,58629,1,0
384,288,58972,1,0
256,360,59315,1,2
128,288,59658,1,0
128,136,60001,1,2
256,64,60344,1,0
256,64,60515,6,0,B|256:224,2,150,2|0|2
256,64,61372,1,0
384,136,61715,1,2
384,288,62058,1,0
256,360,62401,6,0,B|256:256,1,75,2|0
144,312,62744,2,0,B|208:248,1,75
88,200,63087,2,0,B|184:200,1,75,2|0
144,88,63429,2,0,B|224:168,1,75
256,40,63772,2,0,B|256:136,1,75,2|0
368,88,64115,2,0,B|288:168,1,75
424,200,64458,2,0,B|312:200,1,75,2|0
256,192,64801,12,4,66172
32,128,66858,5,0
72,64,67029,1,0
144,64,67201,1,0
176,128,67372,1,0
104,136,67544,2,0,B|104:296,1,150,0|8
168,328,68058,1,0
240,352,68229,1,0
312,328,68401,2,0,B|384:288|384:184,1,150,8|8
352,136,68915,5,0
296,88,69087,2,0,B|232:24|160:88,2,150,0|8|0
384,208,70115,1,0
384,208,70287,2,0,B|200:208,1,150,0|8
192,144,70801,1,0
152,208,70972,1,0
192,272,71144,2,0,B|352:272,1,150,8|8
416,272,71658,5,0
456,208,71829,1,0
416,144,72001,1,8
384,208,72172,1,0
304,80,72515,5,0
240,40,72687,1,0
168,40,72858,1,0
104,80,73029,2,0,B|32:144|104:208,1,150,0|8
168,240,73544,1,0
240,240,73715,1,0
304,208,73887,2,0,B|376:144|304:80,1,150,8|8
240,48,74401,5,0
168,48,74572,1,0
208,192,74915,2,0,B|208:352,2,150,8|8|8
272,152,75772,2,0,B|352:112,1,75
208,120,76115,2,0,B|208:45,1,75,8|0
144,152,76458,2,0,B|64:112,1,75
208,192,76801,1,8
208,192,76972,2,0,B|208:344,2,150,0|0|8
208,120,77829,5,0
240,56,78001,1,0
312,56,78172,1,8
352,120,78344,1,0
280,128,78515,2,0,B|280:280,1,150,0|8
344,320,79029,1,0
280,352,79201,1,0
216,320,79372,1,8
216,168,79715,5,8
280,128,79887,1,0
344,168,80058,1,0
88,312,80401,5,12
256,64,80744,1,12
424,312,81087,1,12
256,64,81772,5,0
184,40,81944,1,0
112,64,82115,2,0,B|40:128|112:208,1,150,8|0
168,232,82629,1,8
240,248,82801,1,0
312,232,82972,1,8
376,200,83144,2,0,B|448:136|376:56,1,150,0|8
312,40,83658,1,0
240,24,83829,6,0,B|240:176,2,150,0|8|0
168,40,84687,2,0,B|168:216,1,150,0|8
312,240,85372,2,0,B|248:312|184:240,1,150,0|8
248,200,85887,2,0,B|248:48,2,150,0|8|0
216,264,86744,6,0,B|136:264,1,75
280,264,87087,2,0,B|360:264,1,75,8|0
176,328,87430,2,0,B|80:328,1,75
320,328,87772,2,0,B|408:328,1,75,8|0
248,336,88115,1,0
248,32,88801,1,8
256,192,89486,12,0,92229
168,48,100801,6,0,B|64:48|64:184,1,150,2|0
272,48,101487,2,0,B|376:48|376:184,1,150,2|0
224,144,102172,2,0,B|224:304,2,150,2|0|2
360,72,103201,5,0
432,96,103372,1,0
488,152,103544,1,2
488,224,103715,1,0
432,272,103887,1,0
360,296,104058,1,0
296,256,104229,1,0
264,184,104401,2,0,B|88:184,2,150,2|0|2
400,120,105430,6,0,B|240:120,1,150
248,248,105944,2,0,B|424:248,1,150,0|2
264,184,106630,1,0
264,184,106801,2,0,B|472:184,2,150
192,184,107658,1,2
192,184,107830,2,0,B|32:184,2,150,0|0|2
208,248,108687,6,0,B|208:328,1,75
264,184,109030,2,0,B|264:272,1,75,2|0
320,112,109372,2,0,B|320:200,1,75
320,112,109715,2,0,B|384:40|448:112,2,150,2|0|2
448,192,110744,1,0
320,192,111087,2,0,B|384:264|448:192,1,150
312,264,111772,6,0,B|144:264,1,150,2|0
160,112,112458,2,0,B|328:112,1,150,2|0
184,184,113144,2,0,B|344:184,2,150,2|0|2
288,72,114172,5,0
360,96,114344,1,0
416,152,114515,1,2
416,224,114687,1,0
360,272,114858,1,0
288,296,115030,1,0
232,248,115201,1,0
192,184,115372,2,0,B|16:184,2,150,2|0|2
488,200,116401,6,0,B|488:48,1,150
376,48,116915,2,0,B|376:240,1,150,0|2
480,336,117601,1,0
480,336,117772,2,0,B|416:392|344:336,2,150,0|0|0
412,300,118630,2,0,B|412:204,2,75,2|0|2
412,148,119315,1,0
288,72,119658,6,0,B|208:128,1,75
328,152,120001,2,0,B|248:184,1,75,2|0
328,280,120344,2,0,B|248:248,1,75
288,360,120687,2,0,B|208:312,1,75,2|0
160,280,121030,2,0,B|88:216|160:152,2,150,2|0|2
296,216,122058,6,0,B|176:216,2,75,0|0|2
432,280,122744,2,0,B|504:216|424:152,1,150
288,104,123430,1,0
288,104,123601,2,0,B|128:104,2,150,2|0|2
288,104,124458,1,0
408,192,124801,1,2
288,280,125144,6,0,B|128:280,2,150,0|2|0
168,192,126172,1,2
320,192,126515,1,0
352,128,126687,1,0
424,128,126858,1,2
464,192,127030,1,0
392,192,127201,2,0,B|392:344,1,150,0|2
240,336,127887,6,0,B|143:341|149:245,2,150,0|2|0
288,192,128915,1,2
336,48,129258,2,0,B|432:42|426:138,2,150,0|2|0
184,48,130287,1,2
208,192,130630,6,0,B|40:192,2,150,0|2|0
360,192,131658,1,0
360,192,131830,2,0,B|528:192,2,150,2|0|2
360,192,132687,1,0
272,312,133030,5,0
272,312,133201,1,0
208,272,133372,2,0,B|128:272,1,75
344,232,133715,2,0,B|264:232,1,75,2|0
480,192,134058,2,0,B|384:192,1,75
408,120,134401,1,0
344,80,134572,6,0,B|168:80,2,150,2|0|2
392,144,135430,1,0
392,296,135772,1,0
264,368,136115,1,2
136,296,136458,1,0
136,144,136801,1,2
264,72,137144,1,0
264,72,137315,6,0,B|264:232,2,150,2|0|2
264,72,138172,1,0
392,144,138515,1,2
392,296,138858,1,0
272,200,139201,6,0,B|272:304,1,75,2|0
272,200,139544,2,0,B|200:272,1,75
272,200,139887,2,0,B|176:200,1,75,2|0
272,200,140230,2,0,B|216:144,1,75
272,200,140572,2,0,B|272:104,1,75,2|0
272,200,140915,2,0,B|336:136,1,75
272,200,141258,2,0,B|384:200,1,75,2|0
256,192,141601,12,4,142972
488,264,143658,5,0
448,328,143830,1,0
376,328,144001,1,0
344,264,144172,1,0
416,256,144344,2,0,B|416:96,1,150,0|8
344,72,144858,1,0
272,72,145030,1,0
208,104,145201,2,0,B|208:256,1,150,8|8
208,328,145715,5,0
144,288,145887,2,0,B|80:352|8:288,2,150,0|8|0
128,216,146744,1,0
144,144,146915,1,0
144,144,147087,2,0,B|184:48|312:72,1,150,0|8
336,64,147601,1,0
400,104,147772,1,0
424,176,147944,2,0,B|384:264|296:256,1,150,8|0
232,256,148458,5,0
160,256,148630,1,0
88,256,148801,1,8
16,256,148972,1,0
24,176,149144,1,0
88,120,149315,5,0
144,72,149487,1,0
216,56,149658,1,0
288,56,149830,2,0,B|392:56|400:208,1,150,0|8
392,224,150344,1,0
344,280,150515,1,0
272,280,150687,2,0,B|192:256|160:168,1,150,8|8
176,104,151201,5,0
240,64,151372,1,0
352,168,151715,2,0,B|352:320,2,150,8|8|8
288,128,152572,2,0,B|208:88,1,75
352,21,152915,2,0,B|352:96,1,75,8|0
416,128,153258,2,0,B|496:88,1,75
352,168,153601,1,8
352,168,153772,2,0,B|352:320,2,150,0|0|8
288,120,154630,5,0
224,80,154801,1,0
152,96,154972,1,8
112,160,155144,1,0
128,232,155315,2,0,B|168:312|280:312,1,150,0|8
320,312,155830,1,0
376,264,156001,1,0
392,192,156172,1,8
328,152,156344,1,0
264,112,156515,5,8
200,152,156687,1,0
184,224,156858,1,0
432,64,157201,5,12
256,304,157544,1,12
80,64,157887,1,12
192,344,158401,5,0
256,304,158572,1,0
320,344,158744,1,0
392,320,158915,2,0,B|464:256|392:176,1,150,8|0
344,144,159430,1,8
280,184,159601,1,0
216,224,159772,1,8
152,264,159944,2,0,B|80:200|152:120,1,150,0|8
200,88,160458,1,0
272,104,160630,6,0,B|336:40|408:104,2,150,0|8|0
296,176,161487,2,0,B|104:176,1,150,0|8
272,248,162172,2,0,B|336:312|408:248,1,150,0|8
336,176,162687,2,0,B|496:176,2,150,0|8|0
304,112,163544,6,0,B|376:40,1,75
184,112,163887,2,0,B|120:48,1,75,8|0
184,240,164230,2,0,B|120:304,1,75
304,240,164572,2,0,B|392:312,1,75,8|0
248,176,164915,1,4
248,176,165601,1,8
256,192,166287,12,4,169029
432,192,176915,5,0
432,192,177001,1,0
432,192,177087,1,0
432,192,177172,1,0
432,192,177258,2,0,B|432:32,2,150,2|0|2
432,344,178287,5,0
280,344,178630,2,0,B|280:104,1,225
128,120,179487,1,0
280,120,179830,2,0,B|440:120,2,150,2|0|2
208,120,180687,2,0,B|40:120,2,150,0|0|2
208,192,181544,1,0
208,264,181715,1,0
208,336,181887,1,0
432,336,182230,5,0
432,336,182401,1,0
432,336,182572,1,2
432,336,182744,2,0,B|432:280|512:240,1,75
464,200,183086,2,0,B|424:184|408:88,1,75,2|0
296,64,183601,1,0
224,64,183772,1,2
72,64,184115,6,0,B|96:168|-16:184,1,150,0|2
7,179,184629,1,0
72,312,184972,1,0
72,312,185144,1,2
304,312,185486,6,0,B|408:312,1,75
208,312,185829,2,0,B|112:312,1,75,2|0
328,232,186172,2,0,B|424:232,1,75
184,232,186515,2,0,B|88:232,1,75,2|0
352,144,186858,2,0,B|448:144,1,75
160,144,187201,2,0,B|64:144,1,75,2|0
256,40,187544,1,0
256,40,187715,1,0
256,112,187887,5,2
256,128,187972,1,0
256,144,188058,1,0
256,160,188144,1,0
256,176,188230,2,0,B|256:328,1,150,4|2
328,344,188744,1,0
256,328,188915,1,0
184,344,189087,1,2
184,64,189430,5,0
256,96,189601,1,2
328,64,189772,1,0
416,304,190115,5,4
248,56,190458,1,4
80,304,190801,1,4
256,176,191144,5,0
224,248,191315,1,2
256,320,191487,1,0
320,360,191658,1,0
392,328,191830,2,0,B|464:264|392:184,1,150,2|0
344,152,192344,1,2
272,120,192515,1,0
200,152,192687,1,0
136,192,192858,2,0,B|64:256|136:336,1,150,2|0
256,144,193715,5,0
280,216,193886,1,0
264,288,194058,2,0,B|264:344|184:384,1,75,2|0
336,264,194400,2,0,B|344:304|392:320,1,75,0|2
384,317,194744,1,0
256,144,195086,5,0
104,144,195429,1,2
104,144,195601,1,0
104,296,195943,1,2
256,296,196286,1,0
296,232,196458,5,0
216,232,196629,1,0
328,160,196801,1,2
184,160,196972,1,0
344,88,197144,1,0
168,88,197315,1,0
448,72,197487,1,2
472,96,197572,1,0
488,128,197658,1,0
488,152,197744,1,0
480,176,197829,1,6
256,192,210172,12,0,211887
336,72,212230,6,0,B|456:72,1,75
152,72,212572,2,0,B|72:72,1,75
248,40,212915,1,0
248,280,213430,2,0,B|248:416,2,75
368,160,214115,5,0
248,160,214287,1,0
128,160,214458,1,0
248,32,214801,1,0
248,336,215144,1,0
448,328,215487,5,0
448,304,215572,1,0
448,280,215658,2,0,B|448:128,1,150,0|8
408,64,216172,1,0
336,64,216344,1,0
304,128,216515,2,0,B|288:176|232:176,1,75,8|0
176,168,216858,1,0
40,96,217030,5,0
168,16,217201,1,0
176,168,217372,1,8
40,96,217544,1,0
16,248,217715,1,0
16,252,217801,1,0
16,256,217887,1,0
16,260,217972,1,0
16,264,218058,2,0,B|16:352,1,75,8|0
88,352,218401,6,0,B|184:352|216:232,1,150,0|8
176,200,218915,1,0
104,184,219087,1,0
120,256,219258,2,0,B|144:352|304:352,1,150,8|8
304,344,219772,1,0
376,344,219944,1,0
448,344,220115,1,0
344,192,220287,6,0,B|184:192,2,150,8|8|8
384,128,221144,2,0,B|432:64,1,75
296,256,221487,2,0,B|344:328,1,75,8|0
208,128,221830,2,0,B|256:56,1,75
168,192,222172,1,8
240,192,222344,2,0,B|392:192,1,150
464,192,222858,5,8
464,192,222944,1,0
464,192,223030,1,0
464,192,223115,1,0
464,192,223201,1,0
496,120,223372,1,0
464,48,223544,1,8
392,48,223715,1,0
320,48,223887,2,0,B|168:48,1,150,0|8
128,104,224401,5,0
96,168,224572,1,0
128,232,224744,1,8
280,232,224915,1,0
432,232,225087,5,8
472,168,225258,1,0
432,104,225430,1,0
64,320,225772,5,12
448,320,226115,1,12
256,40,226458,1,12
256,112,226629,1,0
256,184,226801,1,0
360,272,226972,5,8
432,224,227144,1,0
464,152,227315,1,0
432,80,227487,2,0,B|248:80,1,150,8|0
208,80,228001,1,0
168,152,228172,1,0
168,152,228258,1,0
168,152,228344,1,8
200,224,228515,2,0,B|360:224,1,150,0|8
424,224,229030,1,0
392,152,229201,6,0,B|200:152,2,150,0|8|0
264,80,230058,2,0,B|472:80,1,150,0|8
392,296,230744,2,0,B|232:296,1,150,0|8
216,224,231258,2,0,B|368:224,2,150,0|8|0
360,160,232115,6,0,B|408:72,1,75
288,288,232458,2,0,B|328:360,1,75,8|0
224,160,232801,2,0,B|272:72,1,75
152,288,233144,2,0,B|192:360,1,75,8|0
80,160,233487,1,0
432,160,234172,1,8
256,192,234858,12,0,237601
