osu file format v9

[General]
AudioFilename: Connect.mp3
AudioLeadIn: 2000
PreviewTime: 143658
Countdown: 0
SampleSet: Soft
StackLeniency: 0.4
Mode: 0
LetterboxInBreaks: 1

[Editor]
DistanceSpacing: 1
BeatDivisor: 4
GridSize: 8

[Metadata]
Title:Connect
Artist:ClariS
Creator:haha5957
Version:Clara
Source:Puella Magi Madoka Magica
Tags:Mahou Shoujo

[Difficulty]
HPDrainRate:3
CircleSize:4
OverallDifficulty:4
ApproachRate:6
SliderMultiplier:1.2
SliderTickRate:0.5

[Events]
//Background and Video events
0,0,"Connect.jpg"
//Break Periods
2,92429,99408
2,169229,176208
2,198029,211179
//Storyboard Layer 0 (Background)
//Storyboard Layer 1 (Fail)
//Storyboard Layer 2 (Pass)
//Storyboard Layer 3 (Foreground)
//Storyboard Sound Samples
//Background Colour Transformations
3,100,163,162,255

[TimingPoints]
344,342.857142857143,4,2,1,70,1,0
21258,-100,4,2,1,80,0,0
21601,-100,4,2,1,90,0,0
21944,-100,4,2,1,100,0,0
22287,-100,4,2,1,70,0,0
66858,-100,4,1,1,70,0,0
67544,-100,4,1,1,70,0,1
89487,-100,4,2,1,70,0,0
143658,-100,4,1,1,70,0,0
144344,-100,4,1,1,70,0,1
166287,-100,4,2,1,70,0,0
212230,-100,4,2,1,70,0,0
215487,-100,4,1,1,70,0,1
234858,-100,4,2,1,70,0,0

[Colours]
Combo1 : 255,128,128
Combo2 : 0,128,128

[HitObjects]
464,144,1029,1,0
448,264,1372,2,0,B|432:344|344:352,2,120,2|0|2
336,216,2401,1,0
224,168,2744,2,0,B|240:88|328:80,2,120,2|0|2
336,216,3772,1,0
280,320,4115,1,2
160,312,4458,6,0,B|160:192,1,120,0|2
248,112,5143,2,0,B|248:256,1,120,0|2
336,312,5829,2,0,B|336:160,1,120,0|2
424,112,6515,2,0,B|424:264,1,120,0|2
424,352,7201,5,0
304,352,7543,2,0,B|176:352,2,120,2|0|2
304,232,8572,1,0
304,112,8915,2,0,B|432:112,2,120,2|0|2
304,232,9943,1,0
16,304,10801,5,0
24,248,10972,1,0
32,192,11144,1,2
440,280,12344,5,0
496,176,12686,1,4
440,72,13029,1,8
328,120,13372,1,0
216,72,13715,1,8
104,120,14058,1,0
64,232,14401,1,8
104,344,14744,2,0,B|32:344,2,60,0|0|8
208,280,15429,5,0
312,344,15772,1,8
416,280,16115,1,0
416,160,16458,1,8
312,96,16801,1,0
208,160,17144,1,8
112,96,17486,2,0,B|112:24,2,60,0|0|8
48,200,18172,5,0
104,304,18515,1,8
216,272,18858,1,0
216,152,19201,1,8
320,88,19544,1,0
424,152,19886,1,8
424,272,20229,1,0
320,336,20572,1,8
216,272,20915,6,0,B|216:200,1,60
276,212,21258,2,0,B|204:212,1,60
216,151,21601,2,0,B|216:220,1,60
155,212,21944,2,0,B|235:212,1,60
256,192,22286,12,0,23658
96,184,24001,6,0,B|56:120|104:64,2,120,2|0|2
200,128,25029,1,0
304,72,25372,2,0,B|344:136|296:192,2,120,2|0|2
200,128,26401,1,0
200,248,26744,5,2
320,248,27086,2,0,B|360:248|392:192,1,60,0|2
432,120,27601,2,0,B|448:48|360:24,2,120,2|0|2
336,200,28629,1,0
232,256,28972,5,0
232,256,29144,2,0,B|216:328|304:352,2,120,2|0|2
336,200,30172,1,0
232,136,30515,1,2
128,72,30858,6,0,B|88:48|32:96,1,60
72,192,31372,2,0,B|112:216|168:168,1,60,0|0
232,136,31886,1,2
336,192,32229,6,0,B|376:216|432:168,1,60
392,72,32744,2,0,B|352:48|296:96,1,60,0|0
232,136,33258,1,2
128,192,33601,6,0,B|88:216|32:168,1,60
72,72,34115,2,0,B|112:48|168:96,1,60,0|0
232,136,34629,1,2
352,136,34972,6,0,B|392:192|352:256,2,120,0|0|2
248,192,36001,1,0
144,136,36344,2,0,B|104:192|144:256,2,120,2|0|2
248,192,37372,1,0
192,296,37715,5,2
312,296,38058,2,0,B|360:344,1,60
464,296,38572,1,2
464,176,38915,2,0,B|416:128,1,60
312,176,39429,2,0,B|264:128,1,60
160,176,39943,1,2
160,176,40115,6,0,B|160:328,2,120,0|0|2
160,176,40972,1,0
160,56,41315,1,0
280,56,41658,6,0,B|328:104,1,60,0|2
368,56,42001,2,0,B|416:104,1,60,0|0
448,144,42343,1,0
488,184,42515,2,0,B|376:296,2,120,2|0|2
368,184,43543,1,0
248,184,43886,2,0,B|344:280,2,120,2|0|2
368,184,44915,1,0
376,64,45258,5,0
376,64,45429,1,0
376,64,45601,2,0,B|504:40,2,120,2|0|2
256,64,46629,1,0
256,64,46801,2,0,B|128:40,2,120,2|0|2
256,64,47658,1,0
320,168,48001,1,0
256,264,48343,5,0
136,264,48686,2,0,B|88:216,1,60
136,112,49201,2,0,B|80:56,1,60
208,112,49715,2,0,B|264:72|320:112,2,120,2|0|2
208,232,50743,5,0
208,232,50915,1,0
208,232,51086,2,0,B|288:304|368:232,2,180,2|0|2
128,72,52629,1,0
32,224,53143,6,0,B|40:304|136:312,2,120,2|0|2
144,192,54172,1,0
256,160,54515,2,0,B|248:80|152:72,2,120,2|0|2
144,192,55543,1,0
256,224,55886,1,2
368,192,56229,6,0,B|432:192,2,60
304,88,56915,1,2
184,88,57258,1,0
120,192,57601,1,2
120,192,57772,2,0,B|-8:192,2,120
120,192,58629,1,2
184,296,58972,1,0
304,296,59315,6,0,B|352:208|296:112,2,180,2|0|2
304,296,60515,1,0
184,296,60858,2,0,B|184:360,1,60
80,296,61372,2,0,B|40:240|80:184,2,120,2|0|2
184,232,62401,6,0,B|256:160,1,60,2|0
304,104,62915,2,0,B|360:40,3,60
352,176,63772,2,0,B|296:232,1,60,2|0
224,304,64286,2,0,B|144:384,2,60
256,192,64801,12,4,66172
344,112,66858,5,0
312,64,67029,1,0
256,48,67201,1,0
200,64,67372,1,0
168,112,67543,1,0
256,192,67886,6,0,B|256:320,1,120,8|0
376,312,68572,1,8
448,216,68915,1,0
448,216,69086,2,0,B|488:160|448:104,2,120,0|8|0
376,312,70115,1,0
376,312,70286,6,0,B|248:312,2,120,0|8|0
336,200,71315,1,8
400,104,71658,1,0
304,40,72001,1,8
232,136,72343,1,0
136,64,72686,1,8
96,176,73029,6,0,B|56:232|96:296,2,120,0|8|0
200,232,74058,1,8
304,288,74401,2,0,B|344:232|304:168,2,120,0|8|0
200,352,75429,1,8
200,232,75772,1,0
200,112,76115,1,8
376,128,76629,6,0,B|424:80,2,60,0|8|0
256,128,77315,1,0
192,128,77486,1,8
160,248,77829,1,0
200,296,78001,1,0
256,320,78172,1,8
312,296,78343,1,0
352,248,78515,1,0
256,168,78858,6,0,B|256:32,1,120,8|0
360,104,79543,1,8
408,72,79715,2,0,B|464:24,2,60
408,312,80401,5,12
280,112,80743,1,12
152,312,81086,1,12
280,184,81601,6,0,B|280:336,2,120,8|0|8
280,64,82629,1,0
160,64,82972,2,0,B|104:120,1,60,8|0
160,224,83486,2,0,B|112:272,1,60,8|0
224,320,84001,1,0
328,264,84343,6,0,B|368:208|328:152,2,120,8|0|8
224,320,85372,1,0
120,264,85715,2,0,B|80:208|120:152,2,120,8|0|8
224,320,86743,1,0
224,200,87086,6,0,B|224:48,2,120,8|0|8
224,320,88115,1,4
424,192,88801,1,0
256,192,89486,12,0,92229
56,48,100458,6,0,B|200:48,1,120,2|0
296,48,101144,2,0,B|168:48,1,120,2|0
176,168,101829,6,0,B|320:168,1,120,2|0
416,168,102515,2,0,B|288:168,1,120,2|0
368,264,103201,6,0,B|496:264,2,120,2|0|2
248,264,104229,1,0
128,264,104572,2,0,B|-8:264,2,120,2|0|2
248,264,105601,1,0
248,144,105944,6,0,B|248:16,1,120,2|0
352,80,106629,2,0,B|352:240,1,120,2|0
248,256,107315,2,0,B|248:384,1,120,2|0
144,312,108001,2,0,B|144:184,1,120,2|0
88,96,108686,6,0,B|32:152|88:200,2,120,2|0|2
208,96,109715,1,0
328,96,110058,2,0,B|384:152|328:200,2,120,2|0|2
208,96,111086,1,0
24,256,111772,5,2
144,256,112115,2,0,B|192:304,1,60
296,256,112629,2,0,B|344:304,1,60,2|0
448,256,113144,2,0,B|504:200,1,60,2|0
448,104,113658,5,0
344,48,114001,2,0,B|264:112|176:48,1,180,2|0
80,120,114858,2,0,B|32:184,1,60
168,168,115372,1,0
288,176,115715,2,0,B|288:240,1,60,2|0
400,200,116229,2,0,B|352:248,1,60,2|0
256,304,116744,1,0
256,304,116915,6,0,B|200:336|136:296,2,120,2|0|2
256,184,117944,1,0
256,64,118286,2,0,B|312:32|376:72,2,120,2|0|2
256,184,119315,1,0
256,304,119658,5,2
376,304,120001,2,0,B|432:248,1,60
368,152,120515,2,0,B|424:96,1,60
296,64,121029,2,0,B|240:24|184:64,2,120,2|0|2
296,184,122058,1,0
296,304,122401,6,0,B|440:304,2,120,2|0|2
176,304,123429,1,0
176,304,123601,2,0,B|48:304,2,120,2|0|2
176,304,124458,1,0
176,184,124801,1,0
176,64,125144,5,0
296,64,125486,2,0,B|344:112,1,60,2|0
448,56,126001,2,0,B|496:104,1,60,2|0
448,208,126515,2,0,B|488:264|448:320,2,120,2|0|2
328,208,127544,5,0
328,208,127715,1,0
328,208,127886,2,0,B|248:280|168:208,2,180,2|0|2
320,24,129429,1,0
144,24,129944,6,0,B|64:32|56:128,2,120,2|0|2
144,144,130972,1,0
144,264,131315,2,0,B|224:256|232:160,2,120,2|0|2
144,144,132344,1,0
248,80,132686,1,0
352,144,133029,6,0,B|352:80,2,60,2|0|0
352,264,133715,1,2
472,264,134058,1,0
472,144,134401,1,0
472,144,134572,2,0,B|472:16,2,120,2|0|2
472,144,135429,1,0
472,264,135772,1,0
360,296,136115,6,0,B|272:344|176:288,2,180,2|0|2
360,296,137315,1,0
360,176,137658,2,0,B|288:176,1,60
360,72,138172,2,0,B|304:32|248:72,2,120,2|0|2
296,176,139201,6,0,B|216:176,1,60,2|0
112,176,139715,2,0,B|184:176,3,60,0|2|0|2
296,176,140572,2,0,B|400:176,1,60,2|0
480,176,141086,2,0,B|400:176,2,60,0|2|0
256,192,141601,12,4,142972
256,304,143658,5,0
256,243,143829,1,0
256,183,144001,1,0
256,123,144172,1,0
256,62,144344,1,0
376,64,144686,6,0,B|376:192,1,120,8|0
376,304,145372,1,8
256,304,145715,1,0
256,304,145886,2,0,B|256:176,1,120,0|8
168,264,146572,1,0
56,216,146915,1,0
56,216,147086,6,0,B|16:160|56:104,2,120,0|8|0
136,304,148115,1,8
192,200,148458,1,0
136,96,148801,1,8
248,56,149144,1,0
360,96,149486,1,8
416,200,149829,6,0,B|464:256|416:312,1,120,0|8
296,320,150515,1,0
176,304,150858,2,0,B|130:251|178:195,1,120,8|0
296,176,151544,1,8
416,152,151886,2,0,B|461:99|413:43,1,120,0|8
296,24,152572,5,0
296,152,152915,1,8
296,336,153429,2,0,B|296:272,2,60,0|8|0
296,216,154115,1,0
296,152,154286,1,8
192,96,154629,5,0
144,136,154801,1,0
120,192,154972,1,8
144,248,155144,1,0
192,288,155315,1,0
264,192,155658,6,0,B|400:192,1,120,8|0
312,96,156344,1,8
248,96,156515,2,0,B|248:24,2,60
120,296,157201,5,12
248,96,157544,1,12
376,296,157886,1,12
248,192,158401,6,0,B|248:344,2,120,8|0|8
248,72,159429,1,0
128,72,159772,2,0,B|72:128,1,60,8|0
128,232,160286,2,0,B|64:296,1,60,8|0
176,352,160801,1,0
264,272,161144,6,0,B|224:216|264:160,2,120,8|0|8
360,336,162172,1,0
464,272,162515,2,0,B|504:216|464:160,2,120,8|0|8
360,336,163544,1,0
360,216,163886,6,0,B|360:64,2,120,8|0|8
360,336,164915,1,4
120,336,165601,1,0
256,192,166286,12,0,169029
400,160,177258,6,0,B|512:48,2,120,0|2|0
312,248,178286,1,2
192,248,178629,1,0
112,160,178972,1,0
112,160,179144,2,0,B|16:64,2,120,2|0|2
112,160,180001,1,0
192,248,180344,5,2
296,312,180686,2,0,B|360:344|416:296,1,120,0|2
416,184,181372,1,2
352,184,181544,1,0
288,184,181715,1,0
224,184,181886,1,2
104,184,182229,6,0,B|40:184,2,60
256,192,182744,12,0,184115
256,192,185486,12,0,186858
128,304,187544,5,0
88,256,187715,1,0
56,208,187886,1,2
88,160,188058,1,0
128,112,188229,1,0
248,104,188572,6,0,B|248:184,3,60,2|0|0|2
248,288,189429,2,0,B|248:224,2,60
368,312,190115,5,4
248,104,190458,1,4
136,312,190801,1,4
256,104,192344,6,0,B|256:32,2,60
256,168,192858,2,0,B|256:304,1,120
256,192,193715,12,0,195086
256,192,196458,12,4,197829
136,192,212229,5,0
200,192,212401,1,0
264,192,212572,1,0
328,192,212744,1,0
392,192,212915,1,0
264,72,213429,6,0,B|264:184,2,60
264,192,214115,1,0
264,200,214286,1,0
264,208,214458,2,0,B|264:376,2,120,0|0|0
168,120,215486,1,0
168,120,215658,6,0,B|40:120,2,120,0|8|0
288,88,216686,1,8
400,48,217029,1,0
456,72,217200,1,0
496,120,217372,1,8
504,176,217543,1,0
456,288,217886,5,0
416,336,218058,1,8
360,360,218229,1,0
296,360,218400,2,0,B|229:342|218:268,2,120,0|8|0
336,248,219429,1,8
368,200,219600,1,0
368,144,219772,1,0
328,96,219943,2,0,B|289:39|215:54,2,120,0|8|0
240,184,220972,1,0
240,184,221143,5,0
120,184,221486,1,8
296,184,222000,2,0,B|360:184,2,60,0|8|0
184,184,222686,1,0
120,184,222858,1,8
72,72,223200,5,0
48,128,223372,1,0
32,184,223543,1,8
48,240,223715,1,0
72,296,223886,1,0
120,184,224229,6,0,B|264:184,1,120,8|0
240,184,224743,1,8
360,184,225086,2,0,B|432:184,2,60
120,184,225772,5,12
320,304,226115,1,12
320,64,226458,1,12
176,184,226972,6,0,B|352:184,2,120,8|0|8
56,184,228000,1,0
144,96,228343,2,0,B|80:160,1,60,8|0
144,272,228858,2,0,B|96:224,1,60,8|0
56,184,229200,1,0
176,184,229543,6,0,B|328:184,1,120,8|0
296,184,230058,1,0
416,184,230400,1,8
368,296,230743,2,0,B|216:296,1,120,0|8
248,296,231258,1,0
128,296,231600,1,8
64,192,231943,1,0
248,192,232458,6,0,B|248:32,2,120,8|0|8
248,312,233486,1,4
248,72,234172,1,0
256,192,234858,12,0,236572
