osu file format v9

[General]
AudioFilename: Connect.mp3
AudioLeadIn: 2000
PreviewTime: 143658
Countdown: 0
SampleSet: Soft
StackLeniency: 0.4
Mode: 0
LetterboxInBreaks: 1

[Editor]
DistanceSpacing: 1
BeatDivisor: 2
GridSize: 8

[Metadata]
Title:Connect
Artist:ClariS
Creator:haha5957
Version:Alice
Source:Puella Magi Madoka Magica
Tags:Mahou Shoujo

[Difficulty]
HPDrainRate:1
CircleSize:3
OverallDifficulty:3
ApproachRate:3
SliderMultiplier:0.9
SliderTickRate:0.5

[Events]
//Background and Video events
0,0,"Connect.jpg"
//Break Periods
2,92429,99704
2,169229,175818
2,198029,210789
//Storyboard Layer 0 (Background)
//Storyboard Layer 1 (Fail)
//Storyboard Layer 2 (Pass)
//Storyboard Layer 3 (Foreground)
//Storyboard Sound Samples
//Background Colour Transformations
3,100,163,162,255

[TimingPoints]
344,342.857142857143,4,2,1,70,1,0
66858,-100,4,1,1,70,0,0
67544,-100,4,1,1,70,0,1
89487,-100,4,2,1,70,0,0
143658,-100,4,1,1,70,0,0
144344,-100,4,1,1,70,0,1
166287,-100,4,2,1,70,0,0
212230,-100,4,2,1,70,0,0
215487,-100,4,1,1,70,0,1
234858,-100,4,2,1,70,0,0

[Colours]
Combo1 : 255,128,128
Combo2 : 0,128,128

[HitObjects]
208,96,1029,2,0,B|128:16|48:96,2,180,0|2|0
376,160,3086,2,0,B|480:232|376:304,1,180,2|0
200,304,4458,2,0,B|96:232|200:160,1,180,2|0
376,160,5829,6,0,B|312:96,1,90,2|0
400,120,6515,2,0,B|328:48,1,90,2|0
248,56,7201,2,0,B|128:56|72:128,1,180,2|0
88,296,8572,2,0,B|208:296|264:216,1,180,2|0
256,192,9943,12,0,12001
224,72,12686,6,0,B|32:72,1,180,4|2
40,256,14058,2,0,B|232:256,1,180,0|2
288,88,15429,2,0,B|464:184,1,180,0|2
440,352,16801,2,0,B|264:256,1,180,0|2
192,112,18172,6,0,B|128:192|192:280,1,180,0|2
368,280,19544,2,0,B|432:200|368:112,1,180,0|2
256,192,20915,12,0,23658
320,296,24344,5,2
424,152,25029,2,0,B|360:152|360:152|304:128|304:128|248:128,1,180,0|2
72,152,26401,2,0,B|136:152|136:152|192:128|192:128|248:128,1,180,0|2
296,304,27772,6,0,B|384:304,1,90,0|2
328,232,28458,2,0,B|432:232,1,90,0|2
360,160,29144,5,0
176,160,29829,2,0,B|88:232|176:312,2,180,2|0|2
360,160,31886,5,0
288,112,32229,1,0
208,72,32572,1,2
128,112,32915,1,0
56,160,33258,2,0,B|136:248|208:160,1,180,0|2
384,136,34629,6,0,B|304:48|232:136,1,180,0|2
232,312,36001,2,0,B|312:400|383:312,1,180,0|2
232,224,37372,2,0,B|48:224,1,180,0|2
88,48,38743,6,0,B|120:48|120:48|152:64|152:64|192:64,1,90,0|2
264,64,39429,2,0,B|296:64|296:64|328:48|328:48|368:48,1,90,0|2
440,48,40115,6,0,B|488:168|360:192,1,180,0|2
264,336,41486,2,0,B|216:216|352:200,1,180,0|2
232,56,42858,5,0
152,104,43201,1,0
152,192,43543,1,2
232,240,43886,1,0
312,192,44229,2,0,B|416:160|424:48,1,180,0|2
256,192,45601,12,0,46972
384,136,47658,6,0,B|304:48|232:136,1,180
232,312,49029,2,0,B|312:400|383:312,1,180,2|0
408,224,50058,2,0,B|496:224,2,90,2|0|2
320,224,51086,6,0,B|128:224,1,180,0|2
144,40,52458,2,0,B|336:40,1,180,0|2
456,160,53829,2,0,B|544:240|456:311,1,180,0|2
368,312,54858,1,0
280,312,55201,2,0,B|184:312,2,90,0|2|0
256,192,56572,12,0,58629
400,104,59315,6,0,B|208:104,1,180,0|2
112,248,60686,2,0,B|304:248,1,180,0|2
472,248,62058,5,0
496,160,62401,1,0
464,72,62743,1,2
376,40,63086,1,0
288,72,63429,2,0,B|280:192|160:192,1,180,0|2
256,192,64801,12,4,66172
96,160,66858,6,0,B|96:72,2,90
144,240,67886,2,0,B|168:296|240:296,1,90,8|0
304,296,68572,2,0,B|352:296|376:224,1,90,8|0
408,112,69429,2,8,B|432:56|512:64,2,90,8|8|8
272,112,70629,5,8
192,72,70972,1,0
112,112,71315,1,8
112,200,71658,6,0,B|144:200|144:200|176:216|176:216|216:216,1,90,0|8
200,304,72343,2,0,B|168:304|168:304|136:288|136:288|96:288,1,90,0|8
24,288,73029,6,0,B|24:80,1,180,0|8
208,112,74401,2,0,B|208:304,1,180,0|8
384,328,75772,6,0,B|344:304|352:248,1,90,8|0
376,160,76458,2,0,B|400:112|352:64,1,90,8|0
280,40,77143,2,0,B|232:8|184:48,2,90,0|8|0
104,80,78515,6,0,B|40:160|104:248,2,180,8|0|8
264,80,80401,5,12
264,192,80743,1,12
264,304,81086,1,12
456,192,81943,5,8
376,352,82629,2,0,B|336:328|344:272,1,90,0|8
344,184,83315,2,0,B|368:136|320:88,1,90,0|8
256,48,84001,6,0,B|144:24|64:96,1,180,0|8
128,256,85372,2,0,B|240:280|320:208,1,180,0|8
440,104,86743,6,0,B|352:104,1,90,8|0
256,104,87429,2,0,B|152:104,1,90,8|0
72,104,88115,2,0,B|8:192|72:272,1,180,0|8
256,192,89486,12,0,92229
448,304,101144,6,0,B|360:304|360:304|272:280,1,180,2|0
272,96,102515,2,0,B|368:96|368:96|448:120,1,180,2|0
280,184,103886,1,2
128,88,104572,6,0,B|216:88,1,90,0|2
216,176,105258,2,0,B|126:176,1,90,0|2
136,264,105944,5,0
320,264,106629,2,0,B|392:352|472:264,2,180,2|0|2
448,136,108686,5,0
360,112,109029,1,0
272,88,109372,1,2
184,64,109715,1,0
96,40,110058,2,0,B|8:120|96:192,1,180,0|2
272,200,111429,6,0,B|360:120|272:48,1,180,0|2
96,48,112801,2,0,B|8:128|96:199,1,180,0|2
224,328,114172,2,0,B|408:328,1,180,0|2
400,144,115544,6,0,B|360:144|311:128,1,90,0|2
224,112,116229,2,0,B|184:112|135:96,1,90,0|2
56,64,116915,6,0,B|16:160|88:248,1,180,0|2
248,288,118286,2,0,B|344:256|376:144,1,180,0|2
224,56,119658,5,0
136,56,120001,1,0
88,128,120344,1,2
136,208,120686,1,0
224,208,121029,2,0,B|320:192|384:112,1,180,0|2
256,192,122401,12,0,123772
128,136,124458,6,0,B|208:48|280:136,1,180
280,312,125829,2,0,B|200:400|129:312,1,180,2|0
104,224,126858,2,0,B|16:224,2,90,2|0|2
192,224,127886,6,0,B|384:224,1,180,0|2
264,80,129258,2,0,B|456:80,1,180,0|2
448,168,130286,1,0
432,256,130629,2,0,B|352:344|281:256,1,180,0|2
248,176,131658,1,0
200,96,132001,2,0,B|184:48|136:40,2,90,0|2|0
256,192,133372,12,0,134744
456,272,136115,6,0,B|456:80,1,180,0|2
320,216,137486,2,0,B|320:24,1,180,0|2
144,40,138858,5,0
64,80,139201,1,0
64,168,139544,1,2
144,216,139886,1,0
232,216,140229,2,0,B|352:224|352:344,1,180,0|2
256,192,141601,12,4,142972
104,200,143658,6,0,B|16:200,2,90
160,128,144686,2,0,B|184:72|256:72,1,90,8|0
320,72,145372,2,0,B|368:72|392:144,1,90,8|0
408,256,146229,2,0,B|432:312|512:304,2,90,8|8|8
384,120,147429,5,8
304,72,147772,1,0
216,88,148115,1,8
160,160,148458,6,0,B|184:208|256:208,1,90,0|8
320,232,149144,2,0,B|296:280|224:280,1,90,0|8
160,272,149829,6,0,B|48:232|72:96,1,180,0|8
232,56,151201,2,0,B|344:96|320:232,1,180,0|8
472,296,152572,6,0,B|448:336|392:328,1,90,8|0
304,312,153258,2,0,B|256:296|248:240,1,90,8|0
208,168,153944,2,0,B|176:120|104:144,2,90,0|8|0
40,240,155315,6,0,B|120:304|208:240,2,180,8|0|8
40,80,157201,5,12
152,80,157544,1,12
264,80,157886,1,12
488,80,158744,5,8
488,264,159429,2,0,B|464:304|416:312,1,90,0|8
328,328,160115,2,0,B|272:328|232:296,1,90,0|8
176,248,160801,6,0,B|160:144|272:80,1,180,0|8
408,176,162172,2,0,B|424:280|312:344,1,180,0|8
152,328,163544,6,0,B|112:288|120:240,1,90,8|0
120,160,164229,2,0,B|120:104|168:72,1,90,8|0
240,48,164915,2,0,B|344:32|392:144,1,180,0|8
256,192,166286,12,0,169029
72,112,177258,6,0,B|176:112,1,90,0|2
256,112,177944,2,0,B|368:112,1,90,0|2
440,112,178629,1,0
440,248,179144,6,0,B|440:352,2,90,2|0|2
312,280,180344,6,0,B|312:344|248:344,1,90,2|0
168,344,181029,2,0,B|120:344|120:272,1,90,2|0
120,192,181715,2,0,B|120:128|56:128,2,90,2|0|2
200,232,182744,6,0,B|256:240|280:192,1,90,0|2
304,112,183429,1,0
368,176,183772,1,2
336,256,184115,2,0,B|280:320|208:312,2,135,0|2|0
256,192,185486,12,0,186858
472,248,187886,1,0
424,168,188229,1,0
384,248,188572,1,2
336,168,188915,1,0
296,248,189258,1,2
208,248,189601,1,0
256,120,190115,6,0,B|256:16,2,90,4|4|4
168,232,191315,2,0,B|112:232|104:176,2,90,2|0|2
256,232,192344,1,0
344,232,192686,2,0,B|400:232|408:176,2,90,2|0|2
344,320,193715,6,0,B|256:384|152:304,2,180,0|2|0
256,168,195772,1,2
256,192,196458,12,4,197829
256,160,212229,6,0,B|256:72,2,90
168,168,213258,2,0,B|112:192|112:264,1,90,0|0
184,296,213944,2,0,B|232:296|256:224,1,90,0|0
360,168,214801,2,8,B|416:152|432:80,2,90,0|0|0
224,176,216000,5,8
136,176,216343,1,0
48,176,216686,1,8
64,264,217029,2,0,B|112:264|112:264|160:288,1,90,0|8
232,312,217715,2,0,B|264:336|264:336|320:336,1,90,0|8
416,312,218400,5,0
456,232,218743,1,8
424,152,219086,1,0
376,80,219429,1,8
296,120,219772,1,0
216,80,220115,1,8
168,152,220458,1,0
128,232,220800,1,8
184,296,221143,6,0,B|208:336|264:336,1,90,0|8
352,336,221829,2,0,B|408:336|432:248,1,90,0|8
424,192,222515,2,0,B|416:136|344:104,2,90,0|8|0
296,72,223886,6,0,B|256:32|216:72,2,90,0|8|0
376,120,224915,1,8
424,192,225258,1,0
288,192,225772,5,12
176,192,226115,1,12
72,192,226458,1,12
120,320,226972,5,8
208,352,227315,1,0
296,320,227658,1,8
376,280,228000,2,0,B|336:256|328:200,1,90,0|8
328,120,228686,2,0,B|312:72|264:48,1,90,0|8
184,40,229372,6,0,B|128:24|80:64,2,90,0|8|0
152,128,230400,1,8
64,136,230743,2,0,B|40:248|144:320,1,180,0|8
296,296,232115,6,0,B|424:296,1,90,8|0
384,208,232800,2,0,B|488:208,1,90,8|0
472,120,233486,2,0,B|384:56|304:120,1,180,0|8
256,192,234858,12,0,237258
