osu file format v9

[General]
AudioFilename: connect.mp3
AudioLeadIn: 2000
PreviewTime: 65843
Countdown: 0
SampleSet: Soft
StackLeniency: 0.5
Mode: 0
LetterboxInBreaks: 1

[Editor]
Bookmarks: 15087,22630,44573,66516,88459
DistanceSpacing: 1
BeatDivisor: 4
GridSize: 8

[Metadata]
Title:Connect (TV Size)
Artist:ClariS
Creator:kiririn_
Version:Normal
Source:Puella Magi Madoka Magica
Tags:alice kurara magica quarter nitroplus mahou shoujo climbb65588 crazy jay samipale

[Difficulty]
HPDrainRate:3
CircleSize:4
OverallDifficulty:3
ApproachRate:5
SliderMultiplier:1
SliderTickRate:1

[Events]
//Background and Video events
0,0,"2.jpg"
Video,0,"song.avi"
//Break Periods
//Storyboard Layer 0 (Background)
//Storyboard Layer 1 (Fail)
//Storyboard Layer 2 (Pass)
//Storyboard Layer 3 (Foreground)
//Storyboard Sound Samples
//Background Colour Transformations
3,100,163,162,255

[TimingPoints]
-328,342.857142857143,4,2,0,30,1,0
14,-125,4,2,0,30,0,0
11329,-125,4,2,0,0,0,0
11672,342.857142857143,4,2,2,40,1,0
12357,-100,4,2,1,40,0,0
12529,-100,4,2,2,40,0,0
13557,-100,4,2,1,40,0,0
14414,-100,4,2,2,30,0,0
14757,-100,4,2,2,40,0,0
15957,-100,4,2,1,40,0,0
16986,-100,4,2,2,40,0,0
17672,-100,4,2,1,40,0,0
18014,-100,4,2,2,40,0,0
19129,-100,4,2,1,40,0,0
19729,-100,4,1,0,36,0,0
20157,-100,4,1,0,20,0,0
20329,-100,4,1,0,25,0,0
20500,-100,4,1,0,30,0,0
20672,-100,4,1,0,35,0,0
20843,-100,4,1,0,40,0,0
21014,-100,4,1,0,45,0,0
21957,-100,4,1,0,31,0,0
22300,-100,4,2,1,40,0,0
22814,-100,4,2,0,40,0,0
44414,-100,4,1,1,30,0,0
60872,-100,4,2,2,30,0,0
61214,-100,4,1,1,30,0,0
62414,-100,4,2,2,30,0,0
62500,-100,4,1,1,30,0,0
63700,-100,4,2,2,30,0,0
63872,-100,4,1,1,30,0,0
64386,-100,4,2,2,30,0,0
64557,-100,4,1,1,30,0,0
65072,-100,4,1,0,20,0,0
66186,-100,4,2,1,40,0,0
66529,-100,4,2,1,40,0,1
66872,-100,4,2,2,40,0,1
67729,-100,4,2,1,40,0,1
68243,-100,4,2,2,40,0,1
69186,-100,4,2,1,40,0,1
69614,-100,4,2,2,40,0,1
70472,-100,4,2,1,40,0,1
70986,-100,4,2,2,40,0,1
73214,-100,4,2,1,40,0,1
73729,-100,4,2,2,40,0,1
86243,-100,4,2,1,40,0,1
86672,-100,4,2,2,40,0,1
87100,-100,4,2,2,40,0,0
89157,-100,4,2,0,0,0,0

[Colours]
Combo1 : 101,105,142
Combo2 : 237,197,195
Combo3 : 68,173,228
Combo4 : 242,147,153

[HitObjects]
108,322,357,2,0,B|185:296|263:342,1,160,0|2
451,310,1729,1,0
269,247,2414,1,2
177,277,2757,1,0
135,252,2929,2,0,B|97:228|56:237,1,80,2|0
23,147,3614,1,0
23,147,3786,5,2
118,313,4472,1,0
307,340,5157,2,0,B|346:328|385:348,1,80,2|0
431,336,5672,1,0
390,197,6186,1,0
470,248,6529,5,2
495,57,7214,2,0,B|420:20|338:34,1,160,0|2
256,82,8243,1,0
221,115,8414,6,0,B|182:100|143:112,2,80,2|2|2
266,130,9272,2,0,B|305:145|344:133,1,80
256,192,9786,12,0,11329
264,318,11672,6,0,B|205:292|131:334|64:314,1,200,4|2
111,225,12700,1,8
155,202,12872,2,0,B|224:178|306:207,1,150,0|8
393,247,13729,2,0,B|440:269|496:254,2,100,2|2|4
445,53,15100,1,2
313,124,15614,1,2
459,170,16129,5,2
364,137,16472,1,2
266,114,16814,1,0
167,97,17157,6,0,B|114:84|65:95,1,100,4|8
15,8,17843,1,2
68,95,18186,1,8
49,141,18357,2,0,B|76:184|62:239,2,100,2|2|8
67,94,19214,6,0,B|111:79|169:88,1,100,2|2
227,167,19900,1,0
284,85,20243,2,0,B|326:59,5,50
376,58,21272,2,0,B|487:83|495:201,1,200
494,198,22643,1,0
330,313,23329,5,0
241,266,23672,1,2
194,284,23843,2,0,B|119:296|52:243,1,150,0|0
45,144,24700,1,2
129,197,25043,1,2
177,207,25214,1,0
223,186,25386,2,0,B|315:154|420:204,1,200,0|0
484,276,26414,1,0
418,203,26757,2,0,B|410:116|492:86,2,150,2|2|0
381,297,28129,6,0,B|282:324|187:277,1,200,2|0
62,119,29500,2,0,B|136:118|193:183,2,150,0|2|0
22,26,30872,5,2
32,226,31557,1,0
199,120,32243,1,2
31,123,32929,5,2
114,177,33272,1,0
114,77,33614,1,0
204,33,33957,6,0,B|250:22|304:43,1,100,2|0
301,142,34643,1,0
334,179,34814,2,0,B|395:222|478:225,1,150,2|0
474,124,35672,1,2
376,102,36014,1,0
343,63,36186,1,0
294,49,36357,2,0,B|198:6|96:36,1,200,0|0
42,118,37386,1,0
80,210,37729,2,0,B|92:261|37:306|48:355,2,150,2|2|0
168,257,39100,6,0,B|232:323|351:329,1,200,2|0
329,230,40129,1,0
295,193,40300,2,0,B|242:137|163:122,1,150,2|0
80,72,41157,1,2
168,30,41500,1,2
257,74,41843,6,0,B|294:137|272:221,1,150,2|0
223,361,42872,2,0,B|180:330|187:272,1,100,0|2
32,152,43900,1,2
105,219,44243,1,0
189,165,44586,6,0,B|232:147|290:161,1,100,4|4
339,245,45272,2,0,B|296:263|238:249,1,100
286,160,45957,2,0,B|304:107|354:88,1,100,4|4
451,102,46643,2,0,B|433:155|383:174,1,100,4|4
457,242,47329,6,0,B|377:275|355:351,2,150,4|4|4
384,172,48700,2,0,B|285:190,1,100,4|4
205,250,49386,2,0,B|305:227,1,100,4|4
350,212,49900,5,4
382,173,50072,2,0,B|381:92|319:40,1,150,4|4
196,125,51100,2,0,B|126:84|49:110,1,150,4|4
108,248,52129,2,0,B|56:273|46:323,1,100,4|4
143,343,52814,6,0,B|212:308|219:220,2,150,4|4|4
121,245,54186,1,4
47,177,54529,2,0,B|-5:147,2,50,4|4|4
69,79,55214,1,0
155,35,55557,6,0,B|202:17|258:32,1,100,4|4
318,107,56243,2,0,B|267:122|216:109,1,100,4|4
219,109,56757,1,4
219,109,56929,1,4
153,185,57272,1,4
219,110,57614,6,0,B|235:64|292:47,1,100,4|4
348,132,58300,2,0,B|417:93|499:112,2,150,4|4|4
314,168,59500,2,0,B|331:246|284:311,1,150,4|4
189,340,60357,1,4
93,311,60700,1,4
38,227,61043,6,0,B|15:182|34:127,1,100,4|4
33,129,61557,1,4
33,129,61729,1,4
121,82,62072,2,0,B|144:127|125:182,1,100,4|4
125,179,62586,1,4
125,179,62757,1,4
98,275,63100,6,0,B|112:326|165:345,1,100,4|4
212,358,63614,1,4
261,364,63786,2,0,B|314:374|359:347,1,100,4|4
401,323,64300,1,4
438,289,64472,2,0,B|465:244|445:183,1,100,4|4
433,144,64986,1,4
406,101,65157,2,2,B|320:43|210:52,1,200,0|4
29,125,66529,6,0,B|64:159|121:157,1,100,4|8
169,146,67043,1,0
214,126,67214,2,0,B|270:124|305:158,1,100,0|8
400,190,67900,2,0,B|450:198|485:242,1,100,2|8
442,269,68414,2,0,B|475:311|531:318,2,100,0|0|0
398,243,69272,6,0,B|350:216|300:226,1,100,2|8
262,256,69786,1,0
223,287,69957,2,0,B|174:296|126:269,1,100,0|8
45,211,70643,6,0,B|86:184|142:193,1,100,2|8
190,201,71157,2,0,B|244:209|285:182,1,100
333,165,71672,1,8
408,99,72014,6,0,B|361:76|311:87,1,100,4|8
266,109,72529,1,0
221,131,72700,2,0,B|170:142|123:119,1,100,0|8
46,54,73386,2,0,B|88:32|144:40,1,100,2|8
192,49,73900,2,0,B|247:56|289:34,2,100
157,85,74757,5,0
81,150,75100,1,8
60,247,75443,1,8
119,327,75786,1,8
164,346,75957,6,0,B|324:346,1,150,4|8
409,317,76814,2,0,B|455:303|484:250,2,100,2|2|4
419,217,77843,5,8
374,193,78014,1,0
325,178,78186,2,0,B|277:159|223:167,1,100,0|8
181,187,78700,1,0
137,212,78872,2,0,B|86:219|38:200,1,100,0|8
26,151,79386,6,0,B|11:46,2,100,2|2|2
163,90,80586,1,8
210,74,80757,1,0
259,63,80929,2,0,B|303:50|358:63,1,100,0|8
441,118,81614,6,0,B|415:165|358:177,1,100,0|8
314,189,82129,2,0,B|261:176|217:204,1,100
182,239,82643,2,0,B|164:289|107:303,1,100,8|4
20,256,83329,1,8
44,159,83672,6,0,B|103:75,1,100,0|8
201,74,84357,2,0,B|119:20,1,100,0|8
130,67,84872,2,0,B|212:121,1,100
263,114,85386,2,0,B|322:30,1,100,8|0
420,32,86072,1,8
486,106,86414,1,2
486,106,86586,1,2
486,106,86757,1,8
256,192,87100,12,0,89157
