osu file format v13

[General]
AudioFilename: Connect.mp3
AudioLeadIn: 500
PreviewTime: 74268
Countdown: 0
SampleSet: Normal
StackLeniency: 0.7
Mode: 1
LetterboxInBreaks: 0
WidescreenStoryboard: 0

[Editor]
Bookmarks: 1695,21696,48362,92807,101696,137251,155029,172807,183918,201696,210584
DistanceSpacing: 0.5
BeatDivisor: 4
GridSize: 32
TimelineZoom: 1

[Metadata]
Title:Connect (Nightcore Trance Remix)
TitleUnicode:コネクト (Nightcore Trance Remix)
Artist:ClariS
ArtistUnicode:ClariS
Creator:Naryuga
Version:Taiko Muzukashii
Source:Puella Magi Madoka Magica
Tags:Konekuto Mahou Shoujo Madoka Magica opening 魔法少女まどか☆マギカ testmx1
BeatmapID:363829
BeatmapSetID:59482

[Difficulty]
HPDrainRate:4
CircleSize:5
OverallDifficulty:4
ApproachRate:8
SliderMultiplier:1.4
SliderTickRate:1

[Events]
//Background and Video events
0,0,"TaikoBGa.jpg",0,60
//Break Periods
//Storyboard Layer 0 (Background)
//Storyboard Layer 1 (Fail)
//Storyboard Layer 2 (Pass)
//Storyboard Layer 3 (Foreground)
//Storyboard Sound Samples
//Background Colour Transformations
3,100,163,162,255

[TimingPoints]
1560,277.777777777778,4,1,0,90,1,0
74893,-100,4,1,0,90,0,1
92671,-100,4,1,0,90,0,0
137115,-100,4,1,0,90,0,1
154893,-100,4,1,0,90,0,0
183782,-100,4,1,0,90,0,1
201560,-100,4,1,0,90,0,0

[Colours]
Combo1 : 112,196,193
Combo2 : 243,89,34

[HitObjects]
256,192,1559,5,0,0:0:0:0:
256,192,1837,1,8,0:0:0:0:
256,192,2115,1,0,0:0:0:0:
256,192,2254,1,0,0:0:0:0:
256,192,2393,1,8,0:0:0:0:
256,192,2671,1,0,0:0:0:0:
256,192,2948,1,0,0:0:0:0:
256,192,3226,1,8,0:0:0:0:
256,192,3504,1,8,0:0:0:0:
256,192,3782,1,0,0:0:0:0:
256,192,4060,1,8,0:0:0:0:
256,192,4337,1,0,0:0:0:0:
256,192,4476,1,0,0:0:0:0:
256,192,4615,1,8,0:0:0:0:
256,192,4893,1,0,0:0:0:0:
256,192,5032,1,8,0:0:0:0:
256,192,5310,1,8,0:0:0:0:
256,192,5448,1,0,0:0:0:0:
256,192,5726,1,8,0:0:0:0:
256,192,6004,1,0,0:0:0:0:
256,192,6282,1,8,0:0:0:0:
256,192,6560,1,0,0:0:0:0:
256,192,6837,1,8,0:0:0:0:
256,192,7115,1,0,0:0:0:0:
256,192,7254,1,0,0:0:0:0:
256,192,7393,1,8,0:0:0:0:
256,192,7671,1,0,0:0:0:0:
256,192,7810,1,0,0:0:0:0:
256,192,7948,1,8,0:0:0:0:
256,192,8226,1,0,0:0:0:0:
256,192,8365,1,0,0:0:0:0:
256,192,8504,1,8,0:0:0:0:
256,192,8643,1,0,0:0:0:0:
256,192,8782,1,0,0:0:0:0:
256,192,8921,1,0,0:0:0:0:
256,192,9060,1,8,0:0:0:0:
256,192,9198,1,0,0:0:0:0:
256,192,9337,8,2,10448,0:0:0:0:
256,192,11560,5,8,0:0:0:0:
256,192,11976,1,8,0:0:0:0:
256,192,12671,1,0,0:0:0:0:
256,192,13226,1,0,0:0:0:0:
256,192,13782,1,8,0:0:0:0:
256,192,14893,1,0,0:0:0:0:
256,192,16004,1,0,0:0:0:0:
256,192,17115,1,8,0:0:0:0:
256,192,18226,8,0,21282,0:0:0:0:
256,192,21560,5,4,0:0:0:0:
256,192,21837,1,8,0:0:0:0:
256,192,22115,1,0,0:0:0:0:
256,192,22254,1,0,0:0:0:0:
256,192,22393,1,8,0:0:0:0:
256,192,22671,1,0,0:0:0:0:
256,192,22948,1,0,0:0:0:0:
256,192,23226,1,8,0:0:0:0:
256,192,23504,1,8,0:0:0:0:
256,192,23782,1,0,0:0:0:0:
256,192,24060,1,8,0:0:0:0:
256,192,24337,1,0,0:0:0:0:
256,192,24476,1,0,0:0:0:0:
256,192,24615,1,8,0:0:0:0:
256,192,24893,1,0,0:0:0:0:
256,192,25032,1,8,0:0:0:0:
256,192,25310,1,8,0:0:0:0:
256,192,25448,1,0,0:0:0:0:
256,192,25726,1,8,0:0:0:0:
256,192,26004,1,0,0:0:0:0:
256,192,26282,1,8,0:0:0:0:
256,192,26560,1,0,0:0:0:0:
256,192,26699,1,0,0:0:0:0:
256,192,26838,1,8,0:0:0:0:
256,192,27116,1,0,0:0:0:0:
256,192,27393,1,0,0:0:0:0:
256,192,27671,1,8,0:0:0:0:
256,192,27949,1,8,0:0:0:0:
256,192,28227,1,0,0:0:0:0:
256,192,28505,1,8,0:0:0:0:
256,192,28782,1,0,0:0:0:0:
256,192,28921,1,0,0:0:0:0:
256,192,29060,1,8,0:0:0:0:
256,192,29338,1,0,0:0:0:0:
256,192,29476,1,0,0:0:0:0:
256,192,29754,1,0,0:0:0:0:
256,192,29893,1,8,0:0:0:0:
256,192,30171,1,8,0:0:0:0:
256,192,30448,1,4,0:0:0:0:
256,192,30726,1,8,0:0:0:0:
256,192,31004,1,0,0:0:0:0:
256,192,31143,1,0,0:0:0:0:
256,192,31282,1,8,0:0:0:0:
256,192,31560,1,0,0:0:0:0:
256,192,31837,1,0,0:0:0:0:
256,192,31976,1,0,0:0:0:0:
256,192,32115,1,8,0:0:0:0:
256,192,32393,1,8,0:0:0:0:
256,192,32671,1,0,0:0:0:0:
256,192,32948,1,8,0:0:0:0:
256,192,33226,1,0,0:0:0:0:
256,192,33365,1,0,0:0:0:0:
256,192,33504,1,8,0:0:0:0:
256,192,33782,1,0,0:0:0:0:
256,192,33921,1,8,0:0:0:0:
256,192,34198,1,8,0:0:0:0:
256,192,34337,1,0,0:0:0:0:
256,192,34615,1,8,0:0:0:0:
256,192,34893,1,0,0:0:0:0:
256,192,35171,1,8,0:0:0:0:
256,192,35448,1,0,0:0:0:0:
256,192,35587,1,0,0:0:0:0:
256,192,35726,1,8,0:0:0:0:
256,192,36004,1,0,0:0:0:0:
256,192,36281,1,0,0:0:0:0:
256,192,36421,1,0,0:0:0:0:
256,192,36559,1,8,0:0:0:0:
256,192,36837,1,8,0:0:0:0:
256,192,37115,1,0,0:0:0:0:
256,192,37393,1,8,0:0:0:0:
256,192,37670,1,0,0:0:0:0:
256,192,37809,1,0,0:0:0:0:
256,192,37948,1,8,0:0:0:0:
256,192,38226,1,0,0:0:0:0:
256,192,38365,1,8,0:0:0:0:
256,192,38643,1,8,0:0:0:0:
256,192,38781,1,8,0:0:0:0:
256,192,39059,1,8,0:0:0:0:
256,192,39337,1,4,0:0:0:0:
256,192,40448,1,8,0:0:0:0:
256,192,41560,1,8,0:0:0:0:
256,192,42115,1,8,0:0:0:0:
256,192,42671,1,8,0:0:0:0:
256,192,43782,1,0,0:0:0:0:
256,192,44893,1,0,0:0:0:0:
256,192,46004,1,8,0:0:0:0:
256,192,46560,1,8,0:0:0:0:
256,192,47115,1,8,0:0:0:0:
256,192,47671,1,8,0:0:0:0:
256,192,48226,1,0,0:0:0:0:
256,192,48504,1,8,0:0:0:0:
256,192,48921,1,0,0:0:0:0:
256,192,49198,1,8,0:0:0:0:
256,192,49337,1,0,0:0:0:0:
256,192,49754,1,8,0:0:0:0:
256,192,50032,1,0,0:0:0:0:
256,192,50309,1,8,0:0:0:0:
256,192,50448,1,0,0:0:0:0:
256,192,50726,1,8,0:0:0:0:
256,192,51004,1,8,0:0:0:0:
256,192,51143,1,0,0:0:0:0:
256,192,51420,1,8,0:0:0:0:
256,192,51559,1,0,0:0:0:0:
256,192,51837,1,8,0:0:0:0:
256,192,52254,1,0,0:0:0:0:
256,192,52531,1,8,0:0:0:0:
256,192,52670,1,0,0:0:0:0:
256,192,52948,1,8,0:0:0:0:
256,192,53226,1,8,0:0:0:0:
256,192,53365,1,0,0:0:0:0:
256,192,53642,1,8,0:0:0:0:
256,192,53781,1,0,0:0:0:0:
256,192,54060,1,8,0:0:0:0:
256,192,54337,1,8,0:0:0:0:
256,192,54477,1,0,0:0:0:0:
256,192,54615,1,8,0:0:0:0:
256,192,54893,1,0,0:0:0:0:
256,192,55310,1,8,0:0:0:0:
256,192,55587,1,0,0:0:0:0:
256,192,55726,1,8,0:0:0:0:
256,192,56004,1,8,0:0:0:0:
256,192,56143,1,8,0:0:0:0:
256,192,57115,1,4,0:0:0:0:
256,192,57393,1,8,0:0:0:0:
256,192,57671,1,0,0:0:0:0:
256,192,57948,1,8,0:0:0:0:
256,192,58087,1,0,0:0:0:0:
256,192,58365,1,0,0:0:0:0:
256,192,58504,1,8,0:0:0:0:
256,192,58782,1,0,0:0:0:0:
256,192,59060,1,8,0:0:0:0:
256,192,59337,1,0,0:0:0:0:
256,192,59615,1,0,0:0:0:0:
256,192,59754,1,8,0:0:0:0:
256,192,60032,1,0,0:0:0:0:
256,192,60171,1,8,0:0:0:0:
256,192,60448,1,0,0:0:0:0:
256,192,61004,1,0,0:0:0:0:
256,192,61282,1,8,0:0:0:0:
256,192,61421,1,8,0:0:0:0:
256,192,61560,1,0,0:0:0:0:
256,192,61837,1,8,0:0:0:0:
256,192,61976,1,0,0:0:0:0:
256,192,62254,1,8,0:0:0:0:
256,192,62393,1,0,0:0:0:0:
288,160,62810,1,0,0:0:0:0:
256,192,63226,1,8,0:0:0:0:
256,192,63504,1,8,0:0:0:0:
256,192,63782,1,0,0:0:0:0:
256,192,64337,1,0,0:0:0:0:
256,192,64615,1,8,0:0:0:0:
256,192,64754,1,8,0:0:0:0:
256,192,64893,1,0,0:0:0:0:
256,192,65171,1,0,0:0:0:0:
256,192,65448,1,8,0:0:0:0:
256,192,65726,1,8,0:0:0:0:
256,192,66004,1,4,0:0:0:0:
256,192,66560,1,0,0:0:0:0:
256,192,66837,1,8,0:0:0:0:
256,192,66976,1,0,0:0:0:0:
256,192,67254,1,0,0:0:0:0:
256,192,67393,1,8,0:0:0:0:
256,192,67671,1,0,0:0:0:0:
256,192,67949,1,0,0:0:0:0:
256,192,68226,1,8,0:0:0:0:
256,192,68504,1,8,0:0:0:0:
256,192,68643,1,8,0:0:0:0:
256,192,68921,1,0,0:0:0:0:
256,192,69060,1,0,0:0:0:0:
256,192,69337,1,8,0:0:0:0:
256,192,69893,1,8,0:0:0:0:
256,192,70171,1,8,0:0:0:0:
256,192,70448,1,0,0:0:0:0:
256,192,70726,1,8,0:0:0:0:
256,192,70865,1,8,0:0:0:0:
256,192,71143,1,0,0:0:0:0:
256,192,71421,1,8,0:0:0:0:
256,192,71560,1,8,0:0:0:0:
256,192,71837,1,0,0:0:0:0:
256,192,71976,1,0,0:0:0:0:
256,192,72254,1,8,0:0:0:0:
256,192,72532,1,0,0:0:0:0:
256,192,72671,1,0,0:0:0:0:
256,192,72948,1,0,0:0:0:0:
256,192,73226,1,0,0:0:0:0:
256,192,73365,1,0,0:0:0:0:
256,192,73504,1,0,0:0:0:0:
256,192,73643,1,0,0:0:0:0:
256,192,73782,1,8,0:0:0:0:
256,192,74893,1,4,0:0:0:0:
256,192,75171,1,8,0:0:0:0:
256,192,75448,1,0,0:0:0:0:
256,192,75587,1,8,0:0:0:0:
256,192,75865,1,0,0:0:0:0:
256,192,76004,1,0,0:0:0:0:
256,192,76143,1,8,0:0:0:0:
256,192,76421,1,8,0:0:0:0:
256,192,76698,1,8,0:0:0:0:
256,192,76976,1,8,0:0:0:0:
256,192,77115,1,0,0:0:0:0:
256,192,77393,1,8,0:0:0:0:
256,192,77671,1,0,0:0:0:0:
256,192,77810,1,8,0:0:0:0:
256,192,78087,1,8,0:0:0:0:
256,192,78226,1,8,0:0:0:0:
256,192,78365,1,0,0:0:0:0:
256,192,78504,1,0,0:0:0:0:
256,192,78643,1,8,0:0:0:0:
256,160,79060,1,8,0:0:0:0:
256,160,79337,1,0,0:0:0:0:
256,192,79615,1,8,0:0:0:0:
256,192,79893,1,0,0:0:0:0:
256,192,80032,1,8,0:0:0:0:
256,192,80310,1,0,0:0:0:0:
256,192,80448,1,0,0:0:0:0:
256,192,80587,1,8,0:0:0:0:
256,192,80865,1,8,0:0:0:0:
256,192,81143,1,0,0:0:0:0:
256,192,81421,1,0,0:0:0:0:
256,192,81560,1,0,0:0:0:0:
256,192,81837,1,0,0:0:0:0:
256,192,82115,1,8,0:0:0:0:
256,192,82393,1,8,0:0:0:0:
256,192,82671,1,0,0:0:0:0:
256,192,82810,1,0,0:0:0:0:
256,192,83087,1,0,0:0:0:0:
256,192,83226,1,8,0:0:0:0:
256,192,83504,1,8,0:0:0:0:
256,192,83643,1,8,0:0:0:0:
256,192,83782,1,4,0:0:0:0:
256,192,84060,1,8,0:0:0:0:
256,192,84337,1,0,0:0:0:0:
256,192,84476,1,8,0:0:0:0:
256,192,84754,1,0,0:0:0:0:
256,192,84893,1,0,0:0:0:0:
256,192,85032,1,8,0:0:0:0:
256,192,85310,1,8,0:0:0:0:
256,192,85587,1,8,0:0:0:0:
256,192,85865,1,8,0:0:0:0:
256,192,86004,1,0,0:0:0:0:
256,192,86282,1,8,0:0:0:0:
256,192,86560,1,0,0:0:0:0:
256,192,86699,1,8,0:0:0:0:
256,192,86976,1,8,0:0:0:0:
256,192,87115,1,8,0:0:0:0:
256,192,87254,1,0,0:0:0:0:
256,192,87393,1,0,0:0:0:0:
256,192,87532,1,8,0:0:0:0:
256,160,87810,1,0,0:0:0:0:
256,192,88087,1,0,0:0:0:0:
256,160,88226,1,8,0:0:0:0:
256,192,88504,1,0,0:0:0:0:
256,192,88782,1,8,0:0:0:0:
256,192,89060,1,8,0:0:0:0:
256,192,89337,1,8,0:0:0:0:
256,192,89615,1,8,0:0:0:0:
256,192,89754,1,0,0:0:0:0:
256,192,90032,1,8,0:0:0:0:
256,192,90310,1,8,0:0:0:0:
256,192,90448,1,0,0:0:0:0:
256,192,90726,1,0,0:0:0:0:
256,192,91004,1,8,0:0:0:0:
256,192,91282,1,8,0:0:0:0:
256,192,91560,1,0,0:0:0:0:
256,192,92115,1,8,0:0:0:0:
256,192,92671,1,4,0:0:0:0:
256,192,92948,1,8,0:0:0:0:
256,192,93226,1,0,0:0:0:0:
256,192,93365,1,0,0:0:0:0:
256,192,93504,1,8,0:0:0:0:
256,192,93782,1,0,0:0:0:0:
256,192,94059,1,0,0:0:0:0:
256,192,94337,1,8,0:0:0:0:
256,192,94615,1,8,0:0:0:0:
256,192,94893,1,0,0:0:0:0:
256,192,95171,1,8,0:0:0:0:
256,192,95448,1,0,0:0:0:0:
256,192,95587,1,0,0:0:0:0:
256,192,95726,1,8,0:0:0:0:
256,192,96004,1,0,0:0:0:0:
256,192,96282,1,8,0:0:0:0:
256,192,96559,1,8,0:0:0:0:
256,192,96837,1,8,0:0:0:0:
256,192,97115,1,0,0:0:0:0:
256,192,97393,1,8,0:0:0:0:
256,192,97671,1,0,0:0:0:0:
256,192,97810,1,0,0:0:0:0:
256,192,97949,1,8,0:0:0:0:
256,192,98227,1,0,0:0:0:0:
256,192,98504,1,0,0:0:0:0:
256,192,98782,1,8,0:0:0:0:
256,192,99060,1,8,0:0:0:0:
256,192,99338,1,0,0:0:0:0:
256,192,99616,1,8,0:0:0:0:
256,192,99893,1,0,0:0:0:0:
256,192,100032,1,0,0:0:0:0:
256,192,100171,1,8,0:0:0:0:
256,192,100449,1,0,0:0:0:0:
256,192,100726,1,8,0:0:0:0:
256,192,101004,1,0,0:0:0:0:
256,192,101143,1,0,0:0:0:0:
256,192,101282,1,8,0:0:0:0:
256,192,101559,1,4,0:0:0:0:
256,160,102115,1,8,0:0:0:0:
256,160,102393,1,8,0:0:0:0:
256,160,102671,1,0,0:0:0:0:
256,160,102948,1,0,0:0:0:0:
256,192,103087,1,8,0:0:0:0:
256,160,103365,1,8,0:0:0:0:
256,160,103782,1,0,0:0:0:0:
256,160,104060,1,0,0:0:0:0:
256,160,104337,1,8,0:0:0:0:
256,160,104754,1,0,0:0:0:0:
256,160,105032,1,8,0:0:0:0:
256,160,105171,1,0,0:0:0:0:
256,160,105448,1,8,0:0:0:0:
256,160,105587,1,0,0:0:0:0:
256,160,105865,1,0,0:0:0:0:
256,160,106004,1,8,0:0:0:0:
256,160,106282,1,0,0:0:0:0:
256,160,106560,1,8,0:0:0:0:
256,160,106837,1,0,0:0:0:0:
256,160,106976,1,8,0:0:0:0:
256,160,107254,1,8,0:0:0:0:
256,160,107393,1,0,0:0:0:0:
256,160,107671,1,0,0:0:0:0:
256,160,107810,1,0,0:0:0:0:
256,160,107948,1,8,0:0:0:0:
256,160,108226,1,0,0:0:0:0:
256,160,108782,1,8,0:0:0:0:
256,160,109337,1,0,0:0:0:0:
256,160,109615,1,8,0:0:0:0:
256,160,109893,1,0,0:0:0:0:
256,160,110032,1,0,0:0:0:0:
256,160,110310,1,8,0:0:0:0:
256,160,110448,1,0,0:0:0:0:
256,160,110726,1,14,0:0:0:0:
256,160,111004,1,0,0:0:0:0:
256,160,111421,1,8,0:0:0:0:
256,160,111837,1,0,0:0:0:0:
256,192,111976,1,8,0:0:0:0:
256,160,112254,1,8,0:0:0:0:
256,192,112532,1,8,0:0:0:0:
256,160,112671,1,0,0:0:0:0:
256,160,112949,1,0,0:0:0:0:
256,160,113226,1,8,0:0:0:0:
256,160,113643,1,0,0:0:0:0:
256,160,113921,1,8,0:0:0:0:
256,160,114060,1,0,0:0:0:0:
256,160,114337,1,8,0:0:0:0:
256,160,114476,1,0,0:0:0:0:
256,160,114754,1,0,0:0:0:0:
256,160,114893,1,8,0:0:0:0:
256,160,115171,1,0,0:0:0:0:
256,160,115448,1,8,0:0:0:0:
256,160,115865,1,0,0:0:0:0:
256,160,116143,1,8,0:0:0:0:
256,160,116282,1,8,0:0:0:0:
256,160,116560,1,0,0:0:0:0:
256,160,116837,1,8,0:0:0:0:
256,160,117115,1,0,0:0:0:0:
256,160,117532,1,0,0:0:0:0:
256,160,117948,1,8,0:0:0:0:
256,160,118226,1,0,0:0:0:0:
256,160,118365,1,8,0:0:0:0:
256,160,118643,1,0,0:0:0:0:
256,160,118782,1,8,0:0:0:0:
256,160,119060,1,8,0:0:0:0:
256,160,119198,1,8,0:0:0:0:
256,192,119337,1,4,0:0:0:0:
256,192,119615,1,8,0:0:0:0:
256,192,119893,1,0,0:0:0:0:
256,192,120170,1,8,0:0:0:0:
256,192,120309,1,0,0:0:0:0:
256,192,120587,1,0,0:0:0:0:
256,192,120726,1,8,0:0:0:0:
256,192,121004,1,0,0:0:0:0:
256,192,121282,1,8,0:0:0:0:
256,192,121559,1,0,0:0:0:0:
256,192,121837,1,0,0:0:0:0:
256,192,121976,1,8,0:0:0:0:
256,192,122254,1,0,0:0:0:0:
256,192,122393,1,8,0:0:0:0:
256,192,122670,1,0,0:0:0:0:
256,192,123226,1,0,0:0:0:0:
256,192,123504,1,8,0:0:0:0:
256,192,123643,1,8,0:0:0:0:
256,192,123782,1,0,0:0:0:0:
256,192,124059,1,8,0:0:0:0:
256,192,124198,1,0,0:0:0:0:
256,192,124476,1,8,0:0:0:0:
256,192,124615,1,0,0:0:0:0:
288,160,125032,1,0,0:0:0:0:
256,192,125448,1,8,0:0:0:0:
256,192,125726,1,8,0:0:0:0:
256,192,126004,1,0,0:0:0:0:
256,192,126559,1,0,0:0:0:0:
256,192,126837,1,8,0:0:0:0:
256,192,126976,1,8,0:0:0:0:
256,192,127115,1,0,0:0:0:0:
256,192,127393,1,0,0:0:0:0:
256,192,127670,1,8,0:0:0:0:
256,192,127948,1,8,0:0:0:0:
256,192,128226,1,4,0:0:0:0:
256,192,128782,1,0,0:0:0:0:
256,192,129059,1,8,0:0:0:0:
256,192,129198,1,0,0:0:0:0:
256,192,129476,1,0,0:0:0:0:
256,192,129615,1,8,0:0:0:0:
256,192,129893,1,0,0:0:0:0:
256,192,130171,1,8,0:0:0:0:
256,192,130448,1,8,0:0:0:0:
256,192,130726,1,8,0:0:0:0:
256,192,130865,1,8,0:0:0:0:
256,192,131143,1,0,0:0:0:0:
256,192,131282,1,0,0:0:0:0:
256,192,131559,1,8,0:0:0:0:
256,192,132115,1,0,0:0:0:0:
256,192,132393,1,8,0:0:0:0:
256,192,132670,1,8,0:0:0:0:
256,192,132948,1,0,0:0:0:0:
256,192,133087,1,0,0:0:0:0:
256,192,133365,1,8,0:0:0:0:
256,192,133643,1,0,0:0:0:0:
256,192,133782,1,0,0:0:0:0:
256,192,134059,1,8,0:0:0:0:
256,192,134198,1,8,0:0:0:0:
256,192,134476,1,0,0:0:0:0:
256,192,134754,1,8,0:0:0:0:
256,192,134893,1,8,0:0:0:0:
256,192,135170,1,0,0:0:0:0:
256,192,135448,1,8,0:0:0:0:
256,192,135587,1,8,0:0:0:0:
256,192,135726,1,0,0:0:0:0:
256,192,135865,1,0,0:0:0:0:
256,192,136004,1,8,0:0:0:0:
256,192,137115,1,4,0:0:0:0:
256,192,137393,1,8,0:0:0:0:
256,192,137670,1,0,0:0:0:0:
256,192,137809,1,8,0:0:0:0:
256,192,138087,1,0,0:0:0:0:
256,192,138226,1,0,0:0:0:0:
256,192,138365,1,8,0:0:0:0:
256,192,138643,1,8,0:0:0:0:
256,192,138920,1,0,0:0:0:0:
256,192,139198,1,0,0:0:0:0:
256,192,139337,1,8,0:0:0:0:
256,192,139615,1,0,0:0:0:0:
256,192,139893,1,0,0:0:0:0:
256,192,140032,1,8,0:0:0:0:
256,192,140309,1,8,0:0:0:0:
256,192,140448,1,8,0:0:0:0:
256,192,140587,1,0,0:0:0:0:
256,192,140726,1,0,0:0:0:0:
256,192,140865,1,8,0:0:0:0:
256,160,141282,1,0,0:0:0:0:
256,160,141559,1,8,0:0:0:0:
256,192,141837,1,0,0:0:0:0:
256,192,142115,1,0,0:0:0:0:
256,192,142254,1,8,0:0:0:0:
256,192,142532,1,0,0:0:0:0:
256,192,142670,1,8,0:0:0:0:
256,192,142810,1,8,0:0:0:0:
256,192,143087,1,8,0:0:0:0:
256,192,143365,1,0,0:0:0:0:
256,192,143643,1,0,0:0:0:0:
256,192,143782,1,8,0:0:0:0:
256,192,144059,1,8,0:0:0:0:
256,192,144337,1,0,0:0:0:0:
256,192,144615,1,0,0:0:0:0:
256,192,144893,1,8,0:0:0:0:
256,192,145032,1,8,0:0:0:0:
256,192,145309,1,0,0:0:0:0:
256,192,145448,1,8,0:0:0:0:
256,192,145726,1,8,0:0:0:0:
256,192,145865,1,8,0:0:0:0:
256,192,146004,1,4,0:0:0:0:
256,192,146282,1,8,0:0:0:0:
256,192,146559,1,0,0:0:0:0:
256,192,146698,1,8,0:0:0:0:
256,192,146976,1,0,0:0:0:0:
256,192,147115,1,0,0:0:0:0:
256,192,147254,1,8,0:0:0:0:
256,192,147532,1,8,0:0:0:0:
256,192,147809,1,0,0:0:0:0:
256,192,148087,1,0,0:0:0:0:
256,192,148226,1,8,0:0:0:0:
256,192,148504,1,0,0:0:0:0:
256,192,148782,1,0,0:0:0:0:
256,192,148921,1,8,0:0:0:0:
256,192,149198,1,8,0:0:0:0:
256,192,149337,1,8,0:0:0:0:
256,192,149476,1,0,0:0:0:0:
256,192,149615,1,0,0:0:0:0:
256,192,149754,1,8,0:0:0:0:
256,160,150032,1,8,0:0:0:0:
256,192,150309,1,0,0:0:0:0:
256,160,150448,1,8,0:0:0:0:
256,192,150726,1,0,0:0:0:0:
256,192,151004,1,8,0:0:0:0:
256,192,151282,1,8,0:0:0:0:
256,192,151559,1,8,0:0:0:0:
256,192,151837,1,8,0:0:0:0:
256,192,151976,1,0,0:0:0:0:
256,192,152254,1,8,0:0:0:0:
256,192,152532,1,8,0:0:0:0:
256,192,152670,1,0,0:0:0:0:
256,192,152948,1,0,0:0:0:0:
256,192,153226,1,8,0:0:0:0:
256,192,153504,1,8,0:0:0:0:
256,192,153782,1,0,0:0:0:0:
256,192,154337,1,8,0:0:0:0:
256,192,154893,1,4,0:0:0:0:
256,192,155170,1,8,0:0:0:0:
256,192,155448,1,0,0:0:0:0:
256,192,155587,1,0,0:0:0:0:
256,192,155726,1,8,0:0:0:0:
256,192,156004,1,0,0:0:0:0:
256,192,156281,1,0,0:0:0:0:
256,192,156559,1,8,0:0:0:0:
256,192,156837,1,8,0:0:0:0:
256,192,157115,1,0,0:0:0:0:
256,192,157393,1,8,0:0:0:0:
256,192,157670,1,0,0:0:0:0:
256,192,157809,1,0,0:0:0:0:
256,192,157948,1,8,0:0:0:0:
256,192,158226,1,0,0:0:0:0:
256,192,158365,1,8,0:0:0:0:
256,192,158643,1,8,0:0:0:0:
256,192,158781,1,0,0:0:0:0:
256,192,159059,1,8,0:0:0:0:
256,192,159337,1,0,0:0:0:0:
256,192,159615,1,8,0:0:0:0:
256,192,159893,1,0,0:0:0:0:
256,192,160032,1,0,0:0:0:0:
256,192,160171,1,8,0:0:0:0:
256,192,160449,1,0,0:0:0:0:
256,192,160726,1,0,0:0:0:0:
256,192,161004,1,8,0:0:0:0:
256,192,161282,1,8,0:0:0:0:
256,192,161560,1,0,0:0:0:0:
256,192,161838,1,8,0:0:0:0:
256,192,162115,1,0,0:0:0:0:
256,192,162254,1,0,0:0:0:0:
256,192,162393,1,8,0:0:0:0:
256,192,162671,1,0,0:0:0:0:
256,192,162809,1,0,0:0:0:0:
256,192,163087,1,0,0:0:0:0:
256,192,163226,1,8,0:0:0:0:
256,192,163504,1,8,0:0:0:0:
256,192,163781,1,4,0:0:0:0:
256,192,164060,1,8,0:0:0:0:
256,192,164198,1,0,0:0:0:0:
256,192,164476,1,0,0:0:0:0:
256,192,164615,1,8,0:0:0:0:
256,192,164754,1,0,0:0:0:0:
256,192,165032,1,0,0:0:0:0:
256,192,165170,1,0,0:0:0:0:
256,192,165448,1,8,0:0:0:0:
256,192,165726,1,8,0:0:0:0:
256,192,166004,1,0,0:0:0:0:
256,192,166282,1,8,0:0:0:0:
256,192,166421,1,8,0:0:0:0:
256,192,166698,1,0,0:0:0:0:
256,192,166837,1,8,0:0:0:0:
256,192,166976,1,0,0:0:0:0:
256,192,167254,1,0,0:0:0:0:
256,192,167393,1,0,0:0:0:0:
256,192,167670,1,8,0:0:0:0:
256,192,167948,1,8,0:0:0:0:
256,192,168226,1,0,0:0:0:0:
256,192,168504,1,8,0:0:0:0:
256,192,168643,1,0,0:0:0:0:
256,192,168921,1,0,0:0:0:0:
256,192,169060,1,8,0:0:0:0:
256,192,169198,1,0,0:0:0:0:
256,192,169476,1,0,0:0:0:0:
256,192,169614,1,0,0:0:0:0:
256,192,169892,1,8,0:0:0:0:
256,192,170170,1,8,0:0:0:0:
256,192,170448,1,0,0:0:0:0:
256,192,170726,1,8,0:0:0:0:
256,192,170865,1,8,0:0:0:0:
256,192,171143,1,0,0:0:0:0:
256,192,171281,1,8,0:0:0:0:
256,192,171560,1,0,0:0:0:0:
256,192,171698,1,0,0:0:0:0:
256,192,171837,1,0,0:0:0:0:
256,192,172114,1,8,0:0:0:0:
256,192,172254,1,0,0:0:0:0:
256,192,172392,1,8,0:0:0:0:
256,192,172670,1,4,0:0:0:0:
256,192,172948,1,8,0:0:0:0:
256,192,173226,1,8,0:0:0:0:
256,192,173643,1,0,0:0:0:0:
256,192,173921,1,8,0:0:0:0:
256,192,174198,1,0,0:0:0:0:
256,192,174476,1,0,0:0:0:0:
256,192,174754,1,8,0:0:0:0:
256,192,174893,1,8,0:0:0:0:
256,192,175171,1,0,0:0:0:0:
256,192,175448,1,8,0:0:0:0:
256,192,175865,1,0,0:0:0:0:
256,192,176143,1,0,0:0:0:0:
256,192,176421,1,0,0:0:0:0:
256,192,176560,1,8,0:0:0:0:
256,192,176837,1,8,0:0:0:0:
256,192,177115,1,4,0:0:0:0:
256,192,177393,1,0,0:0:0:0:
256,192,177671,1,8,0:0:0:0:
256,192,178087,1,8,0:0:0:0:
256,192,178365,1,8,0:0:0:0:
256,192,178643,1,0,0:0:0:0:
256,192,178921,1,8,0:0:0:0:
256,192,179198,1,0,0:0:0:0:
256,192,179337,1,8,0:0:0:0:
256,192,179615,1,8,0:0:0:0:
256,192,179893,1,0,0:0:0:0:
256,192,180171,1,0,0:0:0:0:
256,192,180448,1,8,0:0:0:0:
256,192,180587,1,8,0:0:0:0:
256,192,180726,1,8,0:0:0:0:
256,192,181004,1,0,0:0:0:0:
256,192,181143,1,0,0:0:0:0:
256,192,181282,1,0,0:0:0:0:
256,192,181560,1,8,0:0:0:0:
256,192,181698,1,0,0:0:0:0:
256,192,181837,1,8,0:0:0:0:
256,192,182115,1,8,0:0:0:0:
256,192,182254,1,0,0:0:0:0:
256,192,182393,1,8,0:0:0:0:
256,192,182532,1,0,0:0:0:0:
256,192,182671,1,8,0:0:0:0:
256,192,183782,1,4,0:0:0:0:
256,192,184060,1,0,0:0:0:0:
256,192,184337,1,8,0:0:0:0:
256,192,184476,1,8,0:0:0:0:
256,192,184754,1,0,0:0:0:0:
256,192,184893,1,8,0:0:0:0:
256,192,185032,1,8,0:0:0:0:
256,192,185310,1,8,0:0:0:0:
256,192,185587,1,0,0:0:0:0:
256,192,185865,1,8,0:0:0:0:
256,192,186004,1,8,0:0:0:0:
256,192,186282,1,0,0:0:0:0:
256,192,186421,1,0,0:0:0:0:
256,192,186560,1,8,0:0:0:0:
256,192,186837,1,0,0:0:0:0:
256,192,187115,1,8,0:0:0:0:
256,192,187254,1,8,0:0:0:0:
256,192,187393,1,0,0:0:0:0:
256,192,187532,1,0,0:0:0:0:
256,160,187949,1,0,0:0:0:0:
256,160,188226,1,8,0:0:0:0:
256,192,188504,1,0,0:0:0:0:
256,192,188782,1,8,0:0:0:0:
256,192,188921,1,8,0:0:0:0:
256,192,189198,1,0,0:0:0:0:
256,192,189337,1,8,0:0:0:0:
256,192,189477,1,8,0:0:0:0:
256,192,189754,1,8,0:0:0:0:
256,192,190032,1,0,0:0:0:0:
256,192,190448,1,8,0:0:0:0:
256,192,190726,1,0,0:0:0:0:
256,192,191004,1,8,0:0:0:0:
256,192,191282,1,0,0:0:0:0:
256,192,191560,1,8,0:0:0:0:
256,192,191699,1,8,0:0:0:0:
256,192,191976,1,0,0:0:0:0:
256,192,192115,1,8,0:0:0:0:
256,192,192393,1,8,0:0:0:0:
256,192,192532,1,8,0:0:0:0:
256,192,192671,1,4,0:0:0:0:
256,192,192948,1,0,0:0:0:0:
256,192,193226,1,8,0:0:0:0:
256,192,193365,1,8,0:0:0:0:
256,192,193643,1,0,0:0:0:0:
256,192,193782,1,8,0:0:0:0:
256,192,193921,1,8,0:0:0:0:
256,192,194199,1,8,0:0:0:0:
256,192,194476,1,0,0:0:0:0:
256,192,194754,1,8,0:0:0:0:
256,192,194893,1,8,0:0:0:0:
256,192,195170,1,0,0:0:0:0:
256,192,195309,1,0,0:0:0:0:
256,192,195448,1,8,0:0:0:0:
256,192,195726,1,0,0:0:0:0:
256,192,196004,1,8,0:0:0:0:
256,192,196143,1,8,0:0:0:0:
256,192,196282,1,0,0:0:0:0:
256,192,196421,1,0,0:0:0:0:
256,160,196699,1,8,0:0:0:0:
256,192,196976,1,0,0:0:0:0:
256,160,197115,1,8,0:0:0:0:
256,192,197393,1,0,0:0:0:0:
256,192,197671,1,8,0:0:0:0:
256,192,197949,1,8,0:0:0:0:
256,192,198226,1,8,0:0:0:0:
256,192,198504,1,8,0:0:0:0:
256,192,198643,1,0,0:0:0:0:
256,192,198921,1,8,0:0:0:0:
256,192,199199,1,8,0:0:0:0:
256,192,199337,1,0,0:0:0:0:
256,192,199615,1,0,0:0:0:0:
256,192,199893,1,8,0:0:0:0:
256,192,200171,1,8,0:0:0:0:
256,192,200449,1,0,0:0:0:0:
256,192,200587,1,0,0:0:0:0:
256,192,200726,1,0,0:0:0:0:
256,192,201004,1,8,0:0:0:0:
256,192,201143,1,8,0:0:0:0:
256,192,201282,1,8,0:0:0:0:
256,192,201421,1,8,0:0:0:0:
256,192,201560,1,4,0:0:0:0:
256,192,202115,1,0,0:0:0:0:
256,192,202254,1,0,0:0:0:0:
256,192,202393,1,8,0:0:0:0:
256,192,202671,1,0,0:0:0:0:
256,192,202948,1,0,0:0:0:0:
256,192,203226,1,8,0:0:0:0:
256,192,203504,1,0,0:0:0:0:
256,192,203782,1,8,0:0:0:0:
256,192,204060,1,0,0:0:0:0:
256,192,204337,1,8,0:0:0:0:
256,192,204476,1,8,0:0:0:0:
256,192,204615,1,8,0:0:0:0:
256,192,204893,1,0,0:0:0:0:
256,192,205171,1,0,0:0:0:0:
256,192,205448,1,8,0:0:0:0:
256,192,205726,1,8,0:0:0:0:
256,192,206004,1,0,0:0:0:0:
256,192,206560,1,0,0:0:0:0:
256,192,206699,1,0,0:0:0:0:
256,192,206838,1,8,0:0:0:0:
256,192,207116,1,0,0:0:0:0:
256,192,207393,1,0,0:0:0:0:
256,192,207671,1,8,0:0:0:0:
256,192,207949,1,8,0:0:0:0:
256,192,208227,1,0,0:0:0:0:
256,192,208505,1,8,0:0:0:0:
256,192,208782,1,0,0:0:0:0:
256,192,208921,1,0,0:0:0:0:
256,192,209060,1,8,0:0:0:0:
256,192,209338,1,0,0:0:0:0:
256,192,209476,1,0,0:0:0:0:
256,192,209754,1,0,0:0:0:0:
256,192,209893,1,8,0:0:0:0:
256,192,210171,1,8,0:0:0:0:
256,192,210448,1,4,0:0:0:0:
