osu file format v13

[General]
AudioFilename: Connect.mp3
AudioLeadIn: 500
PreviewTime: 74268
Countdown: 0
SampleSet: Soft
StackLeniency: 0.7
Mode: 0
LetterboxInBreaks: 1
WidescreenStoryboard: 0

[Editor]
Bookmarks: 1695,21696,92807,101696,137251,155029,165584,172807,183918,201696,210584
DistanceSpacing: 0.8
BeatDivisor: 4
GridSize: 4
TimelineZoom: 1

[Metadata]
Title:Connect (Nightcore Trance Remix)
TitleUnicode:コネクト (Nightcore Trance Remix)
Artist:ClariS
ArtistUnicode:ClariS
Creator:Naryuga
Version:Normal
Source:Puella Magi Madoka Magica
Tags:Konekuto Mahou Shoujo Madoka Magica opening 魔法少女まどか☆マギカ testmx1
BeatmapID:200341
BeatmapSetID:59482

[Difficulty]
HPDrainRate:3
CircleSize:3
OverallDifficulty:3
ApproachRate:4
SliderMultiplier:0.999999999999999
SliderTickRate:2

[Events]
//Background and Video events
0,0,"bg.jpg",0,0
//Break Periods
2,39537,44684
2,95093,100240
2,157315,162462
2,172948,175795
//Storyboard Layer 0 (Background)
//Storyboard Layer 1 (Fail)
//Storyboard Layer 2 (Pass)
//Storyboard Layer 3 (Foreground)
//Storyboard Sound Samples

[TimingPoints]
1560,277.777777777778,4,2,1,90,1,0
6212,-100,4,2,2,80,0,0
6351,-100,4,2,1,90,0,0
6490,-100,4,2,2,80,0,0
6629,-100,4,2,1,90,0,0
7323,-100,4,2,2,80,0,0
7462,-100,4,2,1,90,0,0
7601,-100,4,2,2,80,0,0
7740,-100,4,2,1,90,0,0
10448,-100,4,2,1,70,0,0
11421,-125,4,2,1,50,0,0
21560,-100,4,2,1,90,0,0
29823,-100,4,2,1,100,0,0
30518,-100,4,2,1,90,0,0
38712,-100,4,2,2,80,0,0
38851,-100,4,2,1,90,0,0
46004,-100,4,2,1,30,0,0
48087,-100,4,2,1,60,0,0
48851,-100,4,2,2,50,0,0
48990,-100,4,2,1,60,0,0
49962,-100,4,2,2,50,0,0
50101,-100,4,2,1,60,0,0
51073,-100,4,2,2,50,0,0
51212,-100,4,2,1,60,0,0
52810,-100,4,2,1,70,0,0
53296,-100,4,2,2,60,0,0
53435,-100,4,2,1,70,0,0
53851,-100,4,2,1,80,0,0
54407,-100,4,2,2,70,0,0
54546,-100,4,2,1,80,0,0
55448,-100,4,2,1,90,0,0
55518,-100,4,2,2,80,0,0
55657,-100,4,2,1,90,0,0
56212,-100,4,2,1,60,0,0
56976,-100,4,2,1,90,0,0
59823,-100,4,2,2,80,0,0
59962,-100,4,2,1,90,0,0
62046,-100,4,2,2,80,0,0
62185,-100,4,2,1,90,0,0
65379,-100,4,2,1,100,0,0
66073,-100,4,2,1,90,0,0
74893,-100,4,2,1,90,0,1
78712,-100,4,2,2,80,0,1
78851,-100,4,2,1,90,0,1
82046,-100,4,2,2,80,0,1
82185,-100,4,2,1,90,0,1
82532,-100,4,2,1,100,0,1
83157,-100,4,2,2,90,0,1
83296,-100,4,2,1,100,0,1
83851,-100,4,2,1,90,0,1
90935,-100,4,2,2,80,0,1
91073,-100,4,2,1,90,0,1
92671,-100,4,2,1,90,0,0
94893,-100,4,2,1,50,0,0
95171,-100,4,2,1,90,0,0
122046,-100,4,2,2,80,0,0
122185,-100,4,2,1,90,0,0
127601,-100,4,2,1,100,0,0
128018,-100,4,2,1,90,0,0
137115,-100,4,2,1,90,0,1
144754,-100,4,2,1,100,0,1
146073,-100,4,2,1,90,0,1
147601,-100,4,2,2,80,0,1
147740,-100,4,2,1,90,0,1
150935,-100,4,2,2,80,0,1
151073,-100,4,2,1,90,0,1
153157,-100,4,2,2,80,0,1
153296,-100,4,2,1,90,0,1
154893,-100,4,2,1,90,0,0
157115,-100,4,2,1,50,0,0
157254,-100,4,2,1,90,0,0
183782,-100,4,2,1,90,0,1
187601,-100,4,2,2,80,0,1
187740,-100,4,2,1,90,0,1
191490,-100,4,2,1,100,0,1
192323,-100,4,2,2,80,0,1
192462,-100,4,2,1,90,0,1
201560,-100,4,2,1,90,0,0
209823,-100,4,2,2,80,0,0
209962,-100,4,2,1,90,0,0
210101,-100,4,2,2,85,0,0
210240,-100,4,2,1,100,0,0

[Colours]
Combo1 : 255,255,0
Combo2 : 255,0,0
Combo3 : 64,0,128
Combo4 : 255,128,255
Combo5 : 64,192,255

[HitObjects]
104,92,1559,6,0,B|200:44|296:92,1,200,4|8,0:0|0:0,0:0:0:0:
392,224,2671,2,10,B|296:272|200:224,1,200,0|8,0:0|0:0,0:0:0:0:
156,156,3504,1,2,0:0:0:0:
104,92,3782,5,0,0:0:0:0:
252,156,4337,1,8,0:0:0:0:
356,32,4893,2,0,B|400:4|452:4,2,99.9999999999999,0|2|8,0:0|0:0|0:0,0:0:0:0:
396,100,5726,1,2,0:0:0:0:
380,176,6004,6,0,P|316:312|192:284,1,300,8|8,0:0|0:0,0:0:0:0:
112,284,7115,2,0,P|176:148|300:176,1,300,8|8,0:0|0:0,0:0:0:0:
336,104,8226,5,8,0:0:0:0:
180,64,8782,1,8,0:0:0:0:
92,196,9337,2,0,B|176:260,1,99.9999999999999,8|8,0:0|0:0,0:0:0:0:
248,228,9893,2,0,B|248:128,2,99.9999999999999,8|8|4,0:0|0:0|0:0,0:0:0:0:
412,332,11560,6,0,B|320:264|412:192|504:120|412:52,1,320,2|2,0:0|0:0,0:0:0:0:
256,88,13226,1,0,0:0:0:0:
100,52,13782,2,0,B|8:120|100:192|192:264|100:332,1,320,2|2,0:0|0:0,0:0:0:0:
224,36,16004,5,2,0:0:0:0:
288,348,17115,1,2,0:0:0:0:
256,192,18226,12,2,21004,0:0:0:0:
256,192,21560,5,4,0:0:0:0:
252,348,22115,2,0,B|136:332|108:228,2,200,8|0|8,0:0|0:0|0:0,0:0:0:0:
272,270,23504,1,2,0:0:0:0:
256,192,23782,5,0,0:0:0:0:
260,36,24337,2,0,B|376:52|404:156,2,200,8|0|8,0:0|0:0|0:0,0:0:0:0:
180,52,25726,1,2,0:0:0:0:
108,88,26004,6,0,B|40:180|108:272,1,200,0|8,0:0|0:0,0:0:0:0:
256,336,27115,1,0,0:0:0:0:
256,176,27671,2,0,B|256:76,2,99.9999999999999,8|0|0,0:0|0:0|0:0,0:0:0:0:
404,100,28782,6,0,B|472:192|404:284,1,200,8|8,0:0|0:0,0:0:0:0:
248,312,29893,2,0,B|208:272|160:268,1,99.9999999999999,8|8,0:0|0:0,0:0:0:0:
80,264,30448,6,0,B|80:64,1,200,4|8,0:0|0:0,0:0:0:0:
240,64,31560,1,0,0:0:0:0:
320,64,31837,2,0,B|360:32|416:32,2,99.9999999999999,0|8|0,0:0|0:0|0:0,0:0:0:0:
280,132,32671,6,0,B|200:200|92:208,1,200,2|8,0:0|0:0,0:0:0:0:
216,316,33782,1,0,0:0:0:0:
296,316,34060,2,0,B|336:348|392:348,2,99.9999999999999,0|8|0,0:0|0:0|0:0,0:0:0:0:
256,248,34893,6,0,B|336:180|444:172,1,200,2|8,0:0|0:0,0:0:0:0:
456,96,35726,1,2,0:0:0:0:
396,44,36004,2,0,B|294:51|214:119,1,200,0|8,0:0|0:0,0:0:0:0:
104,236,37115,6,0,B|208:236,1,99.9999999999999,2|0,0:0|0:0,0:0:0:0:
240,308,37671,2,0,B|340:308,1,99.9999999999999,8|2,0:0|0:0,0:0:0:0:
372,236,38226,2,0,P|368:176|106:157,1,400,0|4,0:0|0:1,0:0:0:0:
256,192,46004,12,0,47671,0:0:0:0:
256,100,48226,5,8,0:0:0:0:
180,240,48782,2,0,P|256:296|332:240,1,200,0|8,0:0|0:0,0:0:0:0:
468,160,49893,2,0,P|392:104|316:160,1,200,0|8,0:0|0:0,0:0:0:0:
176,80,51004,2,0,P|128:160|176:244,2,200,0|8|2,0:0|0:0|0:0,0:0:0:0:
312,164,52671,5,0,1:0:0:0:
456,232,53226,2,0,B|408:196|364:232|324:264|264:232,1,200,0|8,0:0|0:0,0:0:0:0:
124,308,54337,2,0,P|102:235|200:192,1,200,0|8,0:0|0:0,0:0:0:0:
288,60,55448,2,0,P|351:101|304:197,1,200,0|2,0:0|0:0,0:0:0:0:
272,268,56282,2,0,B|300:320|356:284|356:284|412:320|440:268,1,200,0|0,0:0|0:0,0:0:0:0:
436,188,57115,6,0,B|392:88|280:76,1,200,4|8,0:0|0:0,0:0:0:0:
204,76,57948,1,0,0:0:0:0:
144,128,58226,2,0,B|112:176|64:192,1,99.9999999999999
48,268,58782,6,0,B|248:268,1,200,8|0,0:0|0:0,0:0:0:0:
368,268,59754,2,0,B|356:180|280:152,1,150,2|0,0:0|0:0,0:0:0:0:
204,152,60448,2,0,B|100:152,2,99.9999999999999,0|2|8,0:0|0:0|0:0,0:0:0:0:
336,64,61560,6,0,B|408:92|432:172,2,150,0|2|0,0:0|0:0|0:0,0:0:0:0:
240,136,62810,2,0,B|263:215|335:243,1,150,2|8,0:0|0:0,0:0:0:0:
300,316,63504,1,0,0:0:0:0:
220,316,63782,6,0,B|180:332|112:296|100:228|128:188,1,200,2|8,0:0|0:0,0:0:0:0:
160,116,64615,2,0,B|104:32,2,99.9999999999999,0|2|0,0:0|0:0|0:0,0:0:0:0:
240,108,65448,2,0,B|280:92|348:128|360:196|332:236,1,200,8|4,0:0|0:0,0:0:0:0:
456,340,66560,5,8,0:0:0:0:
292,340,67115,2,0,B|188:312|148:212,1,200,0|8,0:0|0:0,0:0:0:0:
112,140,67948,2,0,B|84:96|96:44,1,99.9999999999999
256,36,68782,2,0,B|360:64|400:164,1,200,8|0,0:0|0:0,0:0:0:0:
436,236,69615,2,0,B|464:280|452:332,1,99.9999999999999,2|8,0:0|0:0,0:0:0:0:
372,344,70171,1,0,0:0:0:0:
292,344,70448,6,0,B|256:344|232:312|200:312,1,99.9999999999999,8|8,0:0|0:0,0:0:0:0:
148,248,71004,1,8,0:0:0:0:
204,192,71282,2,0,B|237:191|261:159|297:159,2,99.9999999999999,8|8|8,0:0|0:0|0:0,0:0:0:0:
148,136,72115,1,8,0:0:0:0:
204,80,72393,1,8,0:0:0:0:
280,52,72671,6,0,B|328:28|376:52,1,99.9999999999999,8|8,0:0|0:0,0:0:0:0:
376,132,73226,2,0,B|328:156|280:132,2,99.9999999999999,8|8|0,0:0|0:0|0:0,0:0:0:0:
116,316,74893,6,0,B|68:220|116:124,1,200,4|8,0:0|0:0,0:0:0:0:
180,76,75726,1,0,0:0:0:0:
256,48,76004,2,0,P|264:96|256:148,1,99.9999999999999
256,228,76560,2,0,P|248:276|256:328,1,99.9999999999999,8|0,0:0|0:0,0:0:0:0:
336,312,77115,6,0,B|412:300|412:208|488:192,1,200,0|8,0:0|0:0,0:0:0:0:
444,124,77948,1,0,0:0:0:0:
376,76,78226,2,0,B|312:36|232:52,2,150,0|2|0,0:0|0:0|0:0,0:0:0:0:
364,156,79337,5,0,0:0:0:0:
208,128,79893,1,8,0:0:0:0:
108,252,80448,2,0,B|152:236|208:236,1,99.9999999999999,0|0,0:0|0:0,0:0:0:0:
268,284,81004,2,0,B|312:300|368:300,1,99.9999999999999,8|0,0:0|0:0,0:0:0:0:
424,244,81560,6,0,B|424:144|424:144|424:80|396:36|340:32|296:80,1,300
216,80,82671,2,0,B|172:32|116:36|88:80|88:144|88:144|88:244,1,300,8|8,0:0|0:0,0:0:0:0:
164,264,83782,6,0,B|188:292|256:308|324:292|348:264,1,200,4|8,0:0|0:0,0:0:0:0:
336,104,84893,1,0,0:0:0:0:
176,104,85448,1,8,0:0:0:0:
164,264,86004,6,0,B|168:208|220:188,1,99.9999999999999
244,264,86560,2,0,P|320:320|396:264,1,200,8|2,0:0|0:0,0:0:0:0:
320,240,87393,1,0,0:0:0:0:
320,160,87671,2,0,B|320:60,2,99.9999999999999,8|0|2,0:0|0:0|0:0,0:0:0:0:
176,92,88782,5,8,0:0:0:0:
52,192,89337,1,0,0:0:0:0:
176,292,89893,1,8,0:0:0:0:
328,344,90448,6,0,B|356:300|360:236|312:200|262:192|262:192|312:184|360:148|356:84|328:40,1,400,0|8,0:0|0:0,0:0:0:0:
176,92,92115,1,2,0:0:0:0:
256,192,92671,12,4,94893,0:0:0:0:
256,192,101560,5,4,0:0:0:0:
256,192,102115,2,0,B|208:96|104:72,2,200,8|0|8,0:0|0:0|0:0,0:0:0:0:
256,192,103782,2,0,B|304:288|408:312,2,200,2|8|2,0:0|0:0|0:0,0:0:0:0:
148,312,105448,1,8,0:0:0:0:
112,240,105726,1,0,0:0:0:0:
76,168,106004,6,0,B|180:144|228:44,1,200,2|8,0:0|0:0,0:0:0:0:
304,28,106837,1,0,0:0:0:0:
384,40,107115,2,0,P|456:100|464:200,1,200,0|8,0:0|0:0,0:0:0:0:
416,264,107948,1,0,0:0:0:0:
344,304,108226,6,0,B|144:304,1,200,2|8,0:0|0:0,0:0:0:0:
64,164,109337,2,0,B|264:164,1,200,2|8,0:0|0:0,0:0:0:0:
384,164,110310,2,0,B|424:156|436:108|424:60|384:52,1,150,8|4,0:0|0:0,0:0:0:0:
304,52,111004,6,0,B|200:52|104:72,1,200,8|0,0:0|0:0,0:0:0:0:
72,144,111837,1,0,0:0:0:0:
108,216,112115,2,0,B|120:260|84:308|84:308|140:296|180:328,1,200,8|2,0:0|0:0,0:0:0:0:
256,300,112948,1,0,0:0:0:0:
331,328,113226,2,0,B|372:296|428:308|428:308|392:260|404:216,1,200,8|0,0:0|0:0,0:0:0:0:
416,56,114337,6,0,B|372:76|335:115|335:115|282:109|235:121,1,200,8|2,0:0|0:0,0:0:0:0:
160,92,115171,1,0,0:0:0:0:
84,116,115448,2,0,B|72:216|152:296,1,200,8|0,0:0|0:0,0:0:0:0:
228,324,116282,1,0,0:0:0:0:
308,328,116560,2,0,B|364:340|412:328,1,99.9999999999999,8|0,0:0|0:0,0:0:0:0:
448,260,117115,6,0,B|468:212|404:176|340:144|372:92,1,200,2|8,0:0|0:0,0:0:0:0:
300,56,117948,1,0,0:0:0:0:
220,48,118226,2,0,B|116:64|52:192|116:320|220:336,1,400,8|4,0:0|0:0,0:0:0:0:
368,284,119893,5,8,0:0:0:0:
236,192,120448,1,0,0:0:0:0:
368,100,121004,2,0,B|368:200,2,99.9999999999999,8|0|0,0:0|0:0|0:0,0:0:0:0:
256,56,121976,6,0,B|223:33|176:44|140:69|136:104,1,150,2|0,0:0|0:0,0:0:0:0:
136,184,122671,2,0,B|136:284,2,99.9999999999999,0|2|8,0:0|0:0|0:0,0:0:0:0:
275,264,123782,6,0,B|352:252|400:187,1,150,0|2,0:0|0:0,0:0:0:0:
336,84,124615,2,0,B|260:96|212:160,2,150,0|2|8,0:0|0:0|0:0,0:0:0:0:
428,160,125865,6,0,P|368:264|232:264,1,250,2|8,0:0|0:0,0:0:0:0:
92,316,127115,1,0,0:0:0:0:
64,240,127393,1,2,0:0:0:0:
80,160,127671,2,0,B|108:120|204:160|184:60|240:48,1,200,8|4,0:0|0:0,0:0:0:0:
400,48,128782,5,8,0:0:0:0:
324,188,129337,1,0,0:0:0:0:
244,48,129893,2,0,B|140:48,1,99.9999999999999,8|0,0:0|0:0,0:0:0:0:
96,112,130448,6,0,B|12:200|96:288,1,200,0|8,0:0|0:0,0:0:0:0:
164,332,131282,1,0,0:0:0:0:
232,288,131560,2,0,B|316:200|232:112,1,200,2|8,0:0|0:0,0:0:0:0:
388,80,132671,6,0,B|444:104|452:152,1,99.9999999999999,8|8,0:0|0:0,0:0:0:0:
392,204,133226,1,8,0:0:0:0:
392,204,133504,1,8,0:0:0:0:
328,256,133782,2,0,B|304:312|256:320,1,99.9999999999999,8|8,0:0|0:0,0:0:0:0:
176,320,134337,1,8,0:0:0:0:
176,320,134615,1,8,0:0:0:0:
124,260,134893,6,0,B|68:176,1,99.9999999999999,8|8,0:0|0:0,0:0:0:0:
140,144,135448,2,0,B|196:60,2,99.9999999999999,8|8|0,0:0|0:0|0:0,0:0:0:0:
412,312,137115,6,0,B|460:216|412:120,1,200,4|8,0:0|0:0,0:0:0:0:
256,76,138226,1,0,0:0:0:0:
348,204,138782,2,0,B|344:252|312:296,1,99.9999999999999,8|0,0:0|0:0,0:0:0:0:
236,316,139337,6,0,B|196:364|84:260|48:316,1,200,0|8,0:0|0:0,0:0:0:0:
28,156,140448,1,0,0:0:0:0:
108,164,140726,2,0,P|132:128|172:88,1,99.9999999999999,2|8,0:0|0:0,0:0:0:0:
249,66,141282,1,2,0:0:0:0:
320,104,141560,6,0,B|364:136|412:136|412:136|392:188|416:236,2,200,0|8|0,0:0|0:0|0:0,0:0:0:0:
196,204,143226,2,0,B|220:252|200:304|200:304|248:304|292:336,2,200,8|0|8,0:0|0:0|0:0,0:0:0:0:
172,128,144615,1,2,0:0:0:0:
100,96,144893,1,8,0:0:0:0:
108,256,145448,6,0,P|116:280|108:352,2,99.9999999999999,8|8|4,0:0|0:0|0:0,0:0:0:0:
184,124,146560,1,8,0:0:0:0:
284,248,147115,2,0,B|332:316|408:328,2,150,0|2|0,0:0|0:0|0:0,0:0:0:0:
228,188,148226,6,0,B|288:116|408:112,2,200,0|8|2,0:0|0:0|0:0,0:0:0:0:
180,124,149615,1,0,0:0:0:0:
144,52,149893,2,0,B|88:64|68:112,1,99.9999999999999,8|0,0:0|0:0,0:0:0:0:
56,188,150448,6,0,B|23:284|73:350|154:360|222:284,1,300,2|2,0:0|0:0,0:0:0:0:
292,244,151560,2,0,B|341:221|396:230|431:273|437:328,1,200,0|8,0:0|0:0,0:0:0:0:
464,172,152671,2,0,B|496:75|446:9|365:0|297:76,1,300,0|2,0:0|0:0,0:0:0:0:
228,116,153782,2,0,B|178:138|123:129|88:86|82:32,1,200,8|0,0:0|0:0,0:0:0:0:
256,192,154893,12,4,157115,0:0:0:0:
52,192,163782,5,4,0:0:0:0:
96,40,164338,2,0,B|200:60|256:150|256:150|312:60|416:40,1,400,8|8,0:0|0:0,0:0:0:0:
460,192,166004,1,2,0:0:0:0:
416,344,166560,2,0,B|312:324|256:234|256:234|200:324|96:344,1,400,8|8,0:0|0:0,0:0:0:0:
52,192,168226,5,2,0:0:0:0:
204,140,168782,2,0,P|242:73|308:140,1,200,8|0,0:0|0:0,0:0:0:0:
460,192,169893,1,8,0:0:0:0:
256,192,170448,12,4,172671,0:0:0:0:
103,271,177115,6,0,B|140:356|228:356|324:336|368:260|324:176|256:172|256:172|188:176|144:260|188:336|284:356|372:356|409:271,1,799.999999999999,4|8,0:0|0:0,0:0:0:0:
408,112,179893,1,8,0:0:0:0:
256,64,180448,1,8,0:0:0:0:
104,112,181004,1,8,0:0:0:0:
152,268,181560,6,0,B|196:248|216:192,1,99.9999999999999,8|8,0:0|0:0,0:0:0:0:
296,194,182115,2,0,B|316:248|360:268,2,99.9999999999999,8|8|4,0:0|0:0|0:1,0:0:0:0:
88,76,183782,5,4,0:0:0:0:
132,232,184337,2,0,B|184:328|300:324,2,200,8|0|8,0:0|0:0|0:0,0:0:0:0:
156,156,185726,1,0,0:0:0:0:
212,100,186004,6,0,B|240:64|296:48|296:48|352:64|380:100,1,200,0|8,0:0|0:0,0:0:0:0:
452,136,186837,2,0,B|452:164|464:184|464:184|452:204|452:232,1,99.9999999999999,0|2,0:0|0:0,0:0:0:0:
380,264,187393,2,0,B|352:300|296:316|296:316|240:300|212:264,1,200,0|0,0:0|0:0,0:0:0:0:
176,192,188226,6,0,B|172:112|68:120|60:40,2,200,0|8|0,0:0|0:0|0:0,0:0:0:0:
256,192,189615,1,0,0:0:0:0:
336,192,189893,2,0,B|340:272|444:264|452:344,2,200,8|0|8,0:0|0:0|0:0,0:0:0:0:
256,192,191282,1,0,0:0:0:0:
204,132,191560,5,8,0:0:0:0:
336,48,192115,2,0,B|440:92|460:196,1,200,8|4,0:0|0:0,0:0:0:0:
336,296,193226,5,8,0:0:0:0:
180,268,193782,1,0,0:0:0:0:
132,204,194060,1,0,0:0:0:0:
96,132,194337,2,0,B|79:81|120:40,1,99.9999999999999,8|0,0:0|0:0,0:0:0:0:
172,104,194893,6,0,B|268:136|368:136,1,200,2|8,0:0|0:0,0:0:0:0:
224,208,196004,2,0,B|256:120|344:52,2,200,2|8|2,0:0|0:0|0:0,0:0:0:0:
384,232,197671,5,8,0:0:0:0:
320,280,197948,1,0,0:0:0:0:
248,320,198226,2,0,B|196:324|152:296,1,99.9999999999999
76,268,198782,2,0,B|28:252|12:188|28:124|76:108,1,200,8|8,0:0|0:0,0:0:0:0:
236,108,199893,5,8,0:0:0:0:
316,108,200171,1,0,0:0:0:0:
396,108,200448,2,0,B|444:124|460:188|444:252|396:268,1,200,8|8,0:0|0:0,0:0:0:0:
256,192,201560,12,8,203226,0:0:0:0:
180,216,203782,6,0,B|200:268|256:292|312:268|332:216,1,200,2|8,0:0|0:0,0:0:0:0:
336,56,204893,1,2,0:0:0:0:
176,56,205448,1,8,0:0:0:0:
256,192,206004,12,2,208226,0:0:0:0:
256,96,208782,5,8,0:0:0:0:
127,191,209337,2,4,B|101:261|170:309|255:261|255:261|341:309|410:261|384:192,1,400,8|4,0:0|0:0,0:0:0:0:
