osu file format v14

[General]
AudioFilename: Connect.mp3
AudioLeadIn: 500
PreviewTime: 74268
Countdown: 0
SampleSet: Soft
StackLeniency: 0.7
Mode: 0
LetterboxInBreaks: 1
WidescreenStoryboard: 1

[Editor]
Bookmarks: 1695,21696,48362,92807,101696,132948,133643,137251,155029,163918,172807,183918,187810,201696
DistanceSpacing: 1
BeatDivisor: 4
GridSize: 4
TimelineZoom: 2.4

[Metadata]
Title:Connect (Nightcore Trance Remix)
TitleUnicode:コネクト (Nightcore Trance Remix)
Artist:ClariS
ArtistUnicode:ClariS
Creator:Naryuga
Version:Hyper
Source:Puella Magi Madoka Magica
Tags:Konekuto Mahou Shoujo Madoka Magica opening 魔法少女まどか☆マギカ testmx1
BeatmapID:590439
BeatmapSetID:59482

[Difficulty]
HPDrainRate:6
CircleSize:4
OverallDifficulty:6
ApproachRate:8
SliderMultiplier:1.6
SliderTickRate:2

[Events]
//Background and Video events
0,0,"bg.jpg",0,0
//Break Periods
2,39537,45254
2,95093,100810
2,157315,163032
2,172870,176365
//Storyboard Layer 0 (Background)
//Storyboard Layer 1 (Fail)
//Storyboard Layer 2 (Pass)
//Storyboard Layer 3 (Foreground)
//Storyboard Sound Samples

[TimingPoints]
1560,277.777777777778,4,2,1,90,1,0
10448,-125,4,2,1,70,0,0
10518,-125,4,2,1,50,0,0
19337,-125,4,2,1,60,0,0
20448,-125,4,2,1,75,0,0
21560,-100,4,2,1,90,0,0
29823,-100,4,2,1,100,0,0
30518,-100,4,2,1,90,0,0
46004,-100,4,2,1,30,0,0
48087,-100,4,2,1,60,0,0
52810,-100,4,2,1,70,0,0
53851,-100,4,2,1,80,0,0
54823,-100,4,2,1,90,0,0
55518,-100,4,2,2,75,0,0
55657,-100,4,2,1,90,0,0
56212,-133.333333333333,4,2,1,80,0,0
56490,-133.333333333333,4,2,1,60,0,0
56976,-100,4,2,1,90,0,0
62879,-100,4,2,2,75,0,0
63018,-100,4,2,1,90,0,0
65379,-100,4,2,1,100,0,0
66073,-100,4,2,1,90,0,0
74893,-100,4,2,1,90,0,1
80657,-100,4,2,2,75,0,1
80796,-100,4,2,1,90,0,1
83157,-100,4,2,1,100,0,1
83851,-100,4,2,1,90,0,1
92671,-100,4,2,1,90,0,0
94893,-100,4,2,1,50,0,0
95171,-100,4,2,1,90,0,0
113435,-100,4,2,2,75,0,0
113573,-100,4,2,1,90,0,0
118539,-100,4,2,1,60,0,0
118678,-100,4,2,1,50,0,0
118747,-100,4,2,1,90,0,0
118816,-100,4,2,1,60,0,0
118955,-100,4,2,1,50,0,0
119025,-100,4,2,1,90,0,0
127601,-100,4,2,1,100,0,0
128296,-100,4,2,1,90,0,0
137115,-100,4,2,1,90,0,1
138990,-100,4,2,2,75,0,1
139129,-100,4,2,1,90,0,1
142879,-100,4,2,2,75,0,1
143018,-100,4,2,1,90,0,1
145379,-100,4,2,1,100,0,1
146073,-100,4,2,1,90,0,1
154893,-100,4,2,1,90,0,0
157115,-100,4,2,1,50,0,0
157393,-100,4,2,1,90,0,0
179407,-100,4,2,2,75,0,0
179546,-100,4,2,1,90,0,0
180518,-100,4,2,2,75,0,0
180657,-100,4,2,1,90,0,0
183782,-100,4,2,1,90,0,1
192046,-100,4,2,1,100,0,1
192740,-100,4,2,1,90,0,1
194546,-100,4,2,2,75,0,1
194685,-100,4,2,1,90,0,1
201560,-100,4,2,1,90,0,0
209823,-100,4,2,1,100,0,0

[Colours]
Combo1 : 255,255,0
Combo2 : 255,0,0
Combo3 : 64,0,128
Combo4 : 255,128,255
Combo5 : 64,192,255

[HitObjects]
104,96,1559,6,0,P|88:144|104:252,1,160,4|8,0:0|0:0,0:0:0:0:
152,312,1976,1,0,0:0:0:0:
220,268,2115,2,0,P|256:224|264:200,1,80,0|2,0:0|0:0,0:0:0:0:
336,236,2393,1,8,0:0:0:0:
360,312,2532,1,0,0:0:0:0:
408,96,2810,5,0,0:0:0:0:
408,96,2948,2,0,P|424:144|408:252,2,160,8|2|8,0:0|0:0|0:0,0:0:0:0:
356,36,3643,1,0,0:0:0:0:
304,96,3782,6,0,B|264:92|264:92|216:116|140:112,1,160,0|8,0:0|0:0,0:0:0:0:
68,128,4198,1,0,0:0:0:0:
20,192,4337,1,0,0:0:0:0:
68,256,4476,1,2,0:0:0:0:
147,271,4615,2,0,B|216:268|264:292|264:292|304:288,1,160,8|0,0:0|0:0,0:0:0:0:
276,212,5032,6,0,P|320:208|356:224,1,80,2|8,0:0|0:0,0:0:0:0:
384,296,5310,1,0,0:0:0:0:
460,316,5448,1,2,0:0:0:0:
460,68,5726,1,8,0:0:0:0:
384,88,5864,1,0,0:0:0:0:
304,68,6004,6,0,L|228:40,1,80,8|8,0:0|0:0,0:0:0:0:
204,116,6282,2,0,L|128:88,1,80,8|8,0:0|0:0,0:0:0:0:
80,152,6560,1,8,0:0:0:0:
80,152,6698,1,8,0:0:0:0:
80,232,6837,1,8,0:0:0:0:
80,232,6976,1,8,0:0:0:0:
128,296,7115,6,0,L|204:268,1,80,8|8,0:0|0:0,0:0:0:0:
228,344,7393,2,0,L|304:316,1,80,8|8,0:0|0:0,0:0:0:0:
300,236,7671,2,0,L|376:264,1,80,8|8,0:0|0:0,0:0:0:0:
380,344,7949,2,0,L|456:372,1,80,8|8,0:0|0:0,0:0:0:0:
452,292,8226,5,8,0:0:0:0:
308,80,8504,1,8,0:0:0:0:
60,292,8782,1,8,0:0:0:0:
204,80,9060,1,8,0:0:0:0:
324,328,9337,6,0,L|308:292,3,40,8|8|8|8,0:0|0:0|0:0|0:0,0:0:0:0:
276,268,9615,2,0,L|292:232,3,40,8|8|8|8,0:0|0:0|0:0|0:0,0:0:0:0:
236,268,9893,2,0,L|221:227,3,40,8|8|8|8,0:0|0:0|0:0|0:0,0:0:0:0:
204,292,10171,2,0,L|188:328,3,40,8|8|8|8,0:0|0:0|0:0|0:0,0:0:0:0:
156,340,10448,6,0,P|72:308|64:216,1,192,4|0,0:0|0:0,0:0:0:0:
96,124,11004,1,0,0:0:0:0:
161,198,11143,2,0,P|157:229|140:256,2,64,0|0|0,0:0|0:0|0:0,0:0:0:0:
196,108,11560,1,0,0:0:0:0:
196,108,11698,2,0,P|228:88|256:84,1,64
352,164,11976,2,0,P|404:192|472:196,2,128,0|0|0,0:0|0:0|0:0,0:0:0:0:
428,108,12671,6,0,P|392:216|332:272,1,192,2|0,0:0|0:0,0:0:0:0:
256,216,13226,1,0,0:0:0:0:
184,280,13365,1,0,0:0:0:0:
148,76,13643,1,0,0:0:0:0:
52,40,13782,6,0,P|32:72|24:96,1,64,2|0,0:0|0:0,0:0:0:0:
0,240,14060,2,0,P|20:208|28:184,1,64,2|0,0:0|0:0,0:0:0:0:
200,104,14476,5,2,0:0:0:0:
72,280,14753,1,0,0:0:0:0:
128,332,14893,6,0,B|152:344|152:344|188:304|168:240|168:240|224:220,1,192,2|0,0:0|0:0,0:0:0:0:
276,312,15448,1,0,0:0:0:0:
276,312,15587,2,0,L|336:292,1,64
424,212,15865,1,0,0:0:0:0:
424,212,16004,1,2,0:0:0:0:
424,212,16144,2,0,L|364:192,1,64
316,100,16421,2,0,P|232:84|196:100,2,128,0|0|0,0:0|0:0|0:0,0:0:0:0:
256,192,17115,1,2,0:0:0:0:
256,192,18226,12,2,21282,0:0:0:0:
132,28,21560,6,0,L|76:180,1,160,4|8,0:0|0:0,0:0:0:0:
136,232,21976,1,0,0:0:0:0:
136,232,22115,2,0,L|164:156,1,80
224,208,22393,2,0,L|168:360,1,160,8|0,0:0|0:0,0:0:0:0:
248,348,22810,6,0,P|296:344|328:348,1,80,0|8,0:0|0:0,0:0:0:0:
408,360,23087,1,0,0:0:0:0:
448,292,23226,2,0,P|464:240|448:132,1,160,2|8,0:0|0:0,0:0:0:0:
252,32,23782,6,0,P|236:84|252:192,1,160,0|8,0:0|0:0,0:0:0:0:
324,216,24198,1,0,0:0:0:0:
376,152,24337,2,0,P|336:116|308:108,1,80
164,152,24615,2,0,P|127:137|99:108,1,80,8|0,0:0|0:0,0:0:0:0:
100,28,24893,5,0,0:0:0:0:
28,60,25032,2,0,L|4:136,1,80,2|8,0:0|0:0,0:0:0:0:
28,212,25310,1,0,0:0:0:0:
100,244,25448,2,0,P|104:300|28:360,1,160,2|8,0:0|0:0,0:0:0:0:
164,152,26004,6,0,P|204:200|200:296,2,160,2|8|0,0:0|0:0|0:0,0:0:0:0:
180,72,26698,1,0,0:0:0:0:
252,40,26837,2,0,P|292:32|332:32,1,80,8|0,0:0|0:0,0:0:0:0:
392,84,27115,6,0,P|431:91|471:92,2,80,0|0|8,0:0|0:0|0:0,0:0:0:0:
440,164,27532,1,0,0:0:0:0:
440,164,27671,2,0,L|468:248,1,80,2|0,0:0|0:0,0:0:0:0:
380,216,27948,2,0,L|404:292,1,80,8|0,0:0|0:0,0:0:0:0:
340,340,28226,6,0,B|308:236|308:236|296:208|272:200,1,160,2|8,0:0|0:0,0:0:0:0:
232,272,28643,1,0,0:0:0:0:
152,272,28782,2,0,B|120:272|104:280|72:280,2,80,0|2|8,0:0|0:0|0:0,0:0:0:0:
256,108,29337,5,8,0:0:0:0:
256,108,29476,1,8,0:0:0:0:
448,80,29754,2,0,P|400:120|344:128,1,120,8|8,0:0|0:0,0:0:0:0:
344,128,30032,2,0,P|344:172|356:208,2,80,0|8|8,0:0|0:0|0:0,0:0:0:0:
364,32,30448,5,4,0:0:0:0:
448,204,30726,1,8,0:0:0:0:
404,272,30865,1,0,0:0:0:0:
408,352,31004,2,0,P|356:336|336:316,1,80
292,252,31282,2,0,P|208:224|144:252,1,160,8|0,0:0|0:0,0:0:0:0:
68,240,31698,5,0,0:0:0:0:
68,240,31837,2,0,P|80:288|100:312,1,80,8|0,0:0|0:0,0:0:0:0:
116,175,32115,2,0,P|108:137|85:104,1,80,2|0,0:0|0:0,0:0:0:0:
133,8,32393,2,0,P|140:47|164:80,1,80,8|0,0:0|0:0,0:0:0:0:
212,16,32671,6,0,P|272:8|368:48,1,160,2|8,0:0|0:0,0:0:0:0:
420,100,33087,1,0,0:0:0:0:
388,172,33226,2,0,L|304:192,1,80
360,252,33504,2,0,L|444:272,1,80,8|0,0:0|0:0,0:0:0:0:
468,196,33782,5,0,0:0:0:0:
288,260,34060,2,0,L|252:336,1,80,8|0,0:0|0:0,0:0:0:0:
196,276,34337,2,0,L|268:124,1,160,2|8,0:0|0:0,0:0:0:0:
408,60,34893,5,2,0:0:0:0:
452,124,35032,1,0,0:0:0:0:
404,188,35171,2,0,B|396:228|396:228|404:268,1,80,8|0,0:0|0:0,0:0:0:0:
476,232,35448,2,0,B|484:272|484:272|476:310,1,80,0|0,0:0|0:0,0:0:0:0:
324,280,35726,2,0,B|316:224|316:224|336:120,1,160,8|0,0:0|0:0,0:0:0:0:
252,52,36143,6,0,P|295:46|332:52,2,80,0|8|0,0:0|0:0|0:0,0:0:0:0:
196,108,36560,1,2,0:0:0:0:
140,164,36698,2,0,P|96:158|60:164,2,80,0|8|0,0:0|0:0|0:0,0:0:0:0:
216,188,37115,6,0,L|236:268,1,80,2|0,0:0|0:0,0:0:0:0:
176,320,37393,2,0,P|232:288|328:296,1,160,8|0,0:0|0:0,0:0:0:0:
360,204,37810,1,0,0:0:0:0:
360,204,37948,2,0,L|436:182,1,80,8|0,0:0|0:0,0:0:0:0:
304,128,38226,5,0,0:0:0:0:
304,128,38365,2,0,B|248:72,1,80,0|8,0:0|0:0,0:0:0:0:
264,216,38643,1,2,0:0:0:0:
264,216,38782,2,0,P|208:252|128:216,2,160,8|8|4,0:0|0:0|0:1,0:0:0:0:
256,192,46004,12,0,47671,0:0:0:0:
140,192,48226,6,0,L|110:117,1,80,8|0,0:0|0:0,0:0:0:0:
64,52,48504,2,0,B|108:24|148:40|160:60|188:72|216:68,1,160
296,68,48921,2,0,B|324:72|352:60|364:40|404:24|448:52,1,160,8|0,0:0|0:0,0:0:0:0:
401,117,49337,6,0,L|372:192,1,80,8|0,0:0|0:0,0:0:0:0:
384,272,49615,1,0,0:0:0:0:
292,192,49754,1,0,0:0:0:0:
276,272,49893,2,0,L|236:272,3,40,0|0|8|0,0:0|0:0|0:0|0:0,0:0:0:0:
208,300,50171,2,0,L|168:300,3,40,0|0|0|0,0:0|0:0|0:0|0:0,0:0:0:0:
132,320,50448,6,0,L|48:320,1,80,8|0,0:0|0:0,0:0:0:0:
32,244,50726,2,0,B|80:224|128:244|128:244|144:228,1,120
156,216,51004,1,0,0:0:0:0:
128,140,51143,2,0,P|200:72|260:60,1,160,8|0,0:0|0:0,0:0:0:0:
360,164,51560,6,0,P|288:232|228:244,1,160,8|0,0:0|0:0,0:0:0:0:
188,312,51976,1,0,0:0:0:0:
156,216,52115,1,2,0:0:0:0:
284,144,52254,6,0,P|312:220|372:272,1,160,8|0,0:0|0:0,0:0:0:0:
444,300,52671,2,0,P|462:264|468:225,1,80,8|0,0:0|0:0,0:0:0:0:
392,204,52948,2,0,P|366:175|356:132,1,80,0|0,0:0|0:0,0:0:0:0:
438,59,53226,1,0,0:0:0:0:
438,59,53365,2,0,P|446:97|436:136,1,80,8|0,0:0|0:0,0:0:0:0:
356,136,53643,2,0,L|272:136,1,80,0|8,0:0|0:0,0:0:0:0:
220,76,53921,5,0,0:0:0:0:
164,136,54060,1,0,0:0:0:0:
108,76,54198,1,0,0:0:0:0:
52,136,54337,2,0,L|36:216,1,80,0|8,0:0|0:0,0:0:0:0:
132,288,54615,2,0,L|116:209,1,80,0|0,0:0|0:0,0:0:0:0:
164,136,54893,6,0,P|244:68|340:136,2,240,8|0|0,0:0|0:0|0:0,0:0:0:0:
252,268,56004,1,2,0:0:0:0:
252,268,56143,1,2,0:0:0:0:
252,268,56282,2,0,L|252:144,2,120.000004577637,0|2|0,0:0|0:0|0:0,0:0:0:0:
84,364,57115,6,0,P|68:280|116:232,1,160,4|8,0:0|0:0,0:0:0:0:
116,152,57532,1,0,0:0:0:0:
116,152,57671,2,0,P|65:94|84:20,1,160,0|8,0:0|0:0,0:0:0:0:
140,76,58087,6,0,L|220:88,1,80,0|0,0:0|0:0,0:0:0:0:
256,192,58365,1,0,0:0:0:0:
256,192,58504,2,0,L|336:180,1,80,8|0,0:0|0:0,0:0:0:0:
364,40,58782,2,0,L|376:120,1,80,0|0,0:0|0:0,0:0:0:0:
512,152,59060,2,0,L|432:164,1,80,8|0,0:0|0:0,0:0:0:0:
404,304,59337,6,0,L|392:224,1,80,0|0,0:0|0:0,0:0:0:0:
324,308,59615,1,8,0:0:0:0:
324,308,59754,2,0,P|363:373|439:375,1,160
471,219,60171,2,0,P|432:153|356:152,1,160,8|0,0:0|0:0,0:0:0:0:
392,224,60587,2,2,L|404:304,1,80,2|8,0:0|0:0,0:0:0:0:
472,220,60865,1,0,0:0:0:0:
472,220,61004,1,2,0:0:0:0:
280,228,61282,1,8,0:0:0:0:
200,232,61421,1,0,0:0:0:0:
160,164,61560,6,0,P|136:120|164:16,1,160,0|8,0:0|0:0,0:0:0:0:
304,80,61976,2,0,P|264:132|208:80,1,160
350,18,62393,2,0,P|379:90|352:164,1,160,8|0,0:0|0:0,0:0:0:0:
328,240,62810,2,0,B|284:228|256:206|256:206|228:228|184:240,1,160
184,320,63226,2,0,B|228:332|256:354|256:354|284:332|328:320,1,160,0|8,0:0|0:0,0:0:0:0:
400,284,63643,1,0,0:0:0:0:
480,296,63782,6,0,P|476:244|460:220,1,80,2|0,0:0|0:0,0:0:0:0:
400,168,64060,2,0,P|372:112|416:32,1,160,8|0,0:0|0:0,0:0:0:0:
204,100,64615,1,8,0:0:0:0:
204,100,64754,2,0,P|232:156|188:236,1,160,0|2,0:0|0:0,0:0:0:0:
152,164,65171,2,0,L|72:164,1,80,8|0,0:0|0:0,0:0:0:0:
204,100,65448,2,0,L|368:100,1,160,2|8,0:0|0:0,0:0:0:0:
436,60,65865,1,0,0:0:0:0:
472,132,66004,6,0,P|476:172|472:216,1,80,4|0,0:0|0:0,0:0:0:0:
412,347,66282,2,0,P|408:307|412:268,1,80,8|0,0:0|0:0,0:0:0:0:
488,292,66560,2,0,P|412:308|332:292,1,160,0|8,0:0|0:0,0:0:0:0:
200,216,66976,2,0,P|277:199|355:216,1,160,0|0,0:0|0:0,0:0:0:0:
256,292,67393,5,8,0:0:0:0:
200,60,67671,1,0,0:0:0:0:
144,292,67948,1,8,0:0:0:0:
312,108,68226,6,0,P|352:124|464:104,1,160,0|8,0:0|0:0,0:0:0:0:
372,44,68643,2,0,L|372:224,1,160
464,264,69060,1,8,0:0:0:0:
464,264,69198,2,0,P|388:240|312:260,1,160,0|2,0:0|0:0,0:0:0:0:
248,312,69615,1,8,0:0:0:0:
168,304,69754,1,0,0:0:0:0:
140,228,69893,2,0,L|140:68,1,160,2|8,0:0|0:0,0:0:0:0:
380,48,70448,6,0,P|432:72|456:76,1,80,8|8,0:0|0:0,0:0:0:0:
332,112,70726,1,8,0:0:0:0:
332,112,70865,2,0,P|280:136|256:140,1,80,8|8,0:0|0:0,0:0:0:0:
380,176,71143,2,0,P|432:152|456:148,2,80,8|8|8,0:0|0:0|0:0,0:0:0:0:
336,244,71560,6,0,L|364:320,1,80,8|8,0:0|0:0,0:0:0:0:
256,284,71837,1,8,0:0:0:0:
256,284,71976,2,0,L|256:364,1,80,8|8,0:0|0:0,0:0:0:0:
176,244,72254,2,0,L|148:320,2,80,8|8|8,0:0|0:0|0:0,0:0:0:0:
208,116,72671,6,0,L|138:77,1,80,8|0,0:0|0:0,0:0:0:0:
304,116,72948,2,0,L|373:77,1,80,8|0,0:0|0:0,0:0:0:0:
256,180,73226,1,8,0:0:0:0:
256,180,73296,1,8,0:0:0:0:
256,180,73365,2,0,L|256:228,6,40,8|8|8|8|8|8|0,0:0|0:0|0:0|0:0|0:0|0:0|0:1,0:0:0:0:
108,36,74337,6,0,P|64:64|48:92,2,80,0|2|0,0:0|0:0|0:0,0:0:0:0:
184,60,74754,1,0,0:0:0:0:
184,60,74893,6,0,P|252:44|340:64,1,160,4|8,0:0|0:0,0:0:0:0:
412,96,75310,1,0,0:0:0:0:
448,168,75448,1,0,0:0:0:0:
448,248,75587,2,0,P|468:288|500:304,1,80,0|8,0:0|0:0,0:0:0:0:
448,168,75865,5,0,0:0:0:0:
376,204,76003,1,0,0:0:0:0:
296,204,76143,2,0,P|256:224|240:256,1,80,0|8,0:0|0:0,0:0:0:0:
260,334,76421,2,0,P|296:318|316:284,1,80,0|0,0:0|0:0,0:0:0:0:
160,220,76698,2,0,P|156:264|172:304,1,80,0|8,0:0|0:0,0:0:0:0:
296,204,76976,6,0,P|300:140|268:48,1,160
200,88,77393,1,8,0:0:0:0:
120,88,77532,1,0,0:0:0:0:
48,52,77671,2,0,P|19:126|21:205,1,160,0|8,0:0|0:0,0:0:0:0:
43,284,78087,2,0,P|34:322|10:354,1,80
100,224,78365,2,0,P|132:256|144:291,2,80,0|8|2,0:0|0:0|0:0,0:0:0:0:
368,288,78921,2,0,P|383:251|412:224,2,80,0|8|0,0:0|0:0|0:0,0:0:0:0:
288,276,79337,6,0,P|340:176|384:148,1,160,2|8,0:0|0:0,0:0:0:0:
452,120,79754,1,0,0:0:0:0:
400,60,79893,2,0,P|352:60|320:76,1,80
171,90,80171,2,0,P|208:105|248:104,1,80,8|0,0:0|0:0,0:0:0:0:
224,32,80448,5,0,0:0:0:0:
224,32,80587,2,0,L|188:188,1,160
36,304,81143,2,0,L|116:284,1,80,0|8,0:0|0:0,0:0:0:0:
180,328,81421,6,0,P|276:308|332:328,1,160
398,284,81837,2,0,L|476:304,1,80,8|0,0:0|0:0,0:0:0:0:
384,212,82115,2,0,L|306:192,1,80,0|0,0:0|0:0,0:0:0:0:
428,148,82393,2,0,L|505:167,1,80,8|0,0:0|0:0,0:0:0:0:
480,84,82671,5,8,0:0:0:0:
480,84,82810,1,8,0:0:0:0:
288,76,83087,2,0,P|280:116|288:196,1,120,8|8,0:0|0:0,0:0:0:0:
287,194,83365,2,0,P|249:205|208:196,2,80,0|8|8,0:0|0:0|0:0,0:0:0:0:
208,124,83782,5,4,0:0:0:0:
176,280,84060,2,0,P|132:292|100:316,1,80,8|0,0:0|0:0,0:0:0:0:
48,256,84337,1,0,0:0:0:0:
96,192,84476,1,0,0:0:0:0:
40,132,84615,2,0,P|28:92|28:52,1,80,8|0,0:0|0:0,0:0:0:0:
104,80,84893,6,0,P|103:40|91:2,2,80,0|0|8,0:0|0:0|0:0,0:0:0:0:
172,120,85310,2,0,B|180:128|192:128|192:128|256:128,1,80
352,64,85587,2,0,B|344:56|332:56|332:56|268:56,1,80,0|8,0:0|0:0,0:0:0:0:
276,200,85865,6,0,L|440:200,1,160
400,128,86282,1,8,0:0:0:0:
352,64,86421,2,0,B|360:56|372:56|372:56|436:56,2,80,0|0|0,0:0|0:0|0:0,0:0:0:0:
304,128,86837,1,8,0:0:0:0:
336,200,86976,1,0,0:0:0:0:
364,276,87115,6,0,B|388:300|388:300|324:308|296:376,1,160,2|8,0:0|0:0,0:0:0:0:
148,276,87532,2,0,B|124:300|124:300|188:308|216:376,1,160,2|0,0:0|0:0,0:0:0:0:
256,288,87948,1,8,0:0:0:0:
256,208,88087,1,0,0:0:0:0:
256,128,88226,6,0,P|296:92|400:72,1,160,2|8,0:0|0:0,0:0:0:0:
444,224,88782,2,0,P|404:260|300:280,1,160,0|8,0:0|0:0,0:0:0:0:
228,220,89198,1,0,0:0:0:0:
256,128,89337,6,0,L|208:64,1,80
124,108,89615,1,8,0:0:0:0:
48,48,89754,2,8,L|16:204,1,160,0|0,0:0|0:0,0:0:0:0:
20,324,90171,2,0,P|52:296|68:256,1,80,8|0,0:0|0:0,0:0:0:0:
108,148,90448,5,0,0:0:0:0:
336,72,90726,2,0,P|348:108|336:148,1,80,8|0,0:0|0:0,0:0:0:0:
260,228,91004,2,0,P|248:192|260:152,1,80,0|0,0:0|0:0,0:0:0:0:
336,236,91282,2,0,P|348:274|336:312,1,80,8|0,0:0|0:0,0:0:0:0:
256,328,91560,5,8,0:0:0:0:
256,328,91698,2,0,P|160:288|48:356,1,240,2|0,0:0|0:0,0:0:0:0:
50,352,92254,1,8,0:0:0:0:
50,352,92393,1,0,0:0:0:0:
256,192,92671,12,4,94893,0:0:0:0:
64,76,101560,6,0,P|156:40|216:48,2,160,4|8|0,0:0|0:0|0:0,0:0:0:0:
68,156,102254,1,0,0:0:0:0:
72,236,102393,1,8,0:0:0:0:
76,316,102532,2,0,B|120:304|144:280|148:240|148:240|192:264,1,160,0|0,0:0|0:0,0:0:0:0:
256,220,102948,1,8,0:0:0:0:
322,262,103087,2,0,B|364:240|364:240|368:280|392:304|436:316,1,160,0|0,0:0|0:0,0:0:0:0:
440,236,103504,1,8,0:0:0:0:
444,156,103643,1,0,0:0:0:0:
448,76,103782,6,0,P|356:40|296:48,1,160,2|8,0:0|0:0,0:0:0:0:
124,128,104337,1,0,0:0:0:0:
148,205,104476,1,0,0:0:0:0:
202,145,104615,1,8,0:0:0:0:
124,128,104754,6,0,L|46:111,1,80
148,205,105032,2,0,L|172:281,2,80,2|8|0,0:0|0:0|0:0,0:0:0:0:
202,145,105449,2,0,L|255:85,2,80,2|0|8,0:0|0:0|0:0,0:0:0:0:
124,128,105865,1,0,0:0:0:0:
68,188,106004,6,0,L|116:344,1,160,2|8,0:0|0:0,0:0:0:0:
184,296,106421,1,0,0:0:0:0:
248,340,106560,1,0,0:0:0:0:
248,340,106698,2,0,P|288:352|324:340,1,80,0|8,0:0|0:0,0:0:0:0:
360,216,106976,6,0,P|304:196|208:216,1,160
256,96,107393,1,8,0:0:0:0:
256,96,107532,2,0,P|312:116|408:96,1,160
476,140,107948,2,0,P|476:180|460:216,1,80,8|0,0:0|0:0,0:0:0:0:
380,236,108226,6,0,P|400:272|432:296,2,80,2|0|8,0:0|0:0|0:0,0:0:0:0:
320,180,108643,1,0,0:0:0:0:
384,132,108782,2,0,P|312:100|248:144,1,160,0|8,0:0|0:0,0:0:0:0:
252,220,109198,1,0,0:0:0:0:
312,272,109337,5,0,0:0:0:0:
312,272,109476,1,2,0:0:0:0:
256,328,109615,1,8,0:0:0:0:
256,328,109754,1,0,0:0:0:0:
196,276,109893,1,8,0:0:0:0:
196,276,110032,2,0,P|120:248|56:284,1,160,8|8,0:0|0:0,0:0:0:0:
55,284,110448,5,2,0:0:0:0:
112,100,110726,2,0,P|120:56|120:16,1,80,4|0,0:0|0:0,0:0:0:0:
40,100,111004,1,0,0:0:0:0:
40,100,111143,2,0,P|32:144|32:184,1,80,0|8,0:0|0:0,0:0:0:0:
112,100,111421,6,0,B|180:100|180:100|188:100|196:92|204:92|204:92|272:92,1,160
380,160,111837,1,8,0:0:0:0:
380,160,111976,2,0,L|296:160,1,80
228,268,112254,2,0,L|312:268,1,80,0|8,0:0|0:0,0:0:0:0:
384,240,112532,1,0,0:0:0:0:
380,160,112671,6,0,P|360:80|304:28,1,160,2|8,0:0|0:0,0:0:0:0:
132,224,113226,1,0,0:0:0:0:
132,224,113365,2,0,P|152:304|208:356,1,160,0|0,0:0|0:0,0:0:0:0:
272,304,113782,5,0,0:0:0:0:
328,248,113921,2,0,P|343:284|347:324,1,80,2|8,0:0|0:0,0:0:0:0:
404,228,114198,1,0,0:0:0:0:
347,172,114337,6,0,P|331:208|328:248,1,80,2|0,0:0|0:0,0:0:0:0:
268,168,114615,2,0,P|252:132|248:92,1,80,8|0,0:0|0:0,0:0:0:0:
308,40,114893,2,0,P|356:84|348:172,1,160,2|8,0:0|0:0,0:0:0:0:
108,172,115448,1,0,0:0:0:0:
108,172,115587,2,0,L|188:172,1,80,0|8,0:0|0:0,0:0:0:0:
148,100,115865,5,0,0:0:0:0:
84,280,116143,1,0,0:0:0:0:
148,328,116282,1,8,0:0:0:0:
212,280,116421,1,0,0:0:0:0:
212,280,116560,2,0,P|328:260|356:280,1,160,0|8,0:0|0:0,0:0:0:0:
420,332,116976,1,0,0:0:0:0:
452,256,117115,6,0,P|396:204|324:164,1,160,2|8,0:0|0:0,0:0:0:0:
244,164,117532,2,0,P|173:202|116:256,1,160,0|0,0:0|0:0,0:0:0:0:
148,328,117948,1,8,0:0:0:0:
136,136,118226,5,8,0:0:0:0:
136,136,118365,1,8,0:0:0:0:
184,72,118504,2,0,L|232:64,3,40,2|8|0|8,0:0|0:0|0:0|0:0,0:0:0:0:
264,72,118782,2,0,L|312:64,3,40,2|8|0|8,0:0|0:0|0:0|0:0,0:0:0:0:
344,72,119060,2,0,P|392:64|424:72,1,80,8|8,0:0|0:0,0:0:0:0:
468,136,119337,6,0,B|492:212|492:212|468:288,2,160,4|8|0,0:0|0:0|0:0,0:0:0:0:
388,136,120032,1,0,0:0:0:0:
360,212,120171,1,8,0:0:0:0:
360,212,120310,2,0,L|336:288,1,80
256,112,120726,5,8,0:0:0:0:
92,212,121004,1,0,0:0:0:0:
256,312,121282,1,8,0:0:0:0:
448,288,121560,6,0,B|472:212|472:212|448:136,1,160,0|8,0:0|0:0,0:0:0:0:
344,60,121976,2,0,L|396:212,1,160
292,136,122393,2,0,L|268:60,1,80,8|0,0:0|0:0,0:0:0:0:
224,180,122671,2,0,L|248:256,1,80,0|2,0:0|0:0,0:0:0:0:
340,284,122948,2,0,L|316:208,1,80,8|0,0:0|0:0,0:0:0:0:
224,180,123226,2,0,B|148:156|148:156|72:180,1,160,2|8,0:0|0:0,0:0:0:0:
148,236,123643,5,0,0:0:0:0:
148,236,123782,2,0,P|172:160|148:84,1,160,0|8,0:0|0:0,0:0:0:0:
52,80,124198,2,0,L|204:32,1,160
308,32,124615,2,0,L|460:80,1,160,8|0,0:0|0:0,0:0:0:0:
428,152,125032,6,0,P|424:192|432:232,1,80,0|8,0:0|0:0,0:0:0:0:
452,308,125310,1,0,0:0:0:0:
376,332,125448,2,0,P|336:343|297:346,1,80
192,288,125726,2,0,P|230:276|270:273,1,80,8|0,0:0|0:0,0:0:0:0:
190,365,126004,6,0,P|126:326|127:242,1,160,2|8,0:0|0:0,0:0:0:0:
190,19,126560,2,0,P|126:57|127:141,1,160,0|8,0:0|0:0,0:0:0:0:
68,192,126976,1,0,0:0:0:0:
304,231,127254,5,2,0:0:0:0:
228,256,127393,2,0,P|184:268|148:264,1,80,8|0,0:0|0:0,0:0:0:0:
228,127,127671,2,0,B|244:88|276:72|308:72|308:72|356:44,1,160,2|8,0:0|0:0,0:0:0:0:
356,340,128226,6,0,B|308:312|308:312|276:312|244:296|228:257,2,160,4|8|0,0:0|0:0|0:0,0:0:0:0:
376,264,128921,1,0,0:0:0:0:
304,232,129060,1,8,0:0:0:0:
304,152,129198,2,0,P|312:92|320:72,1,80
440,124,129476,1,0,0:0:0:0:
440,124,129615,2,0,P|432:184|424:204,1,80,8|0,0:0|0:0,0:0:0:0:
376,264,129893,2,0,P|416:280|456:276,1,80
304,232,130171,2,0,P|264:216|224:220,1,80,8|0,0:0|0:0,0:0:0:0:
160,264,130448,6,0,B|135:295|135:295|82:251|24:267,1,160,0|8,0:0|0:0,0:0:0:0:
24,116,130865,2,0,B|82:132|135:88|135:88|160:120,1,160,0|0,0:0|0:0,0:0:0:0:
120,192,131282,1,8,0:0:0:0:
200,192,131421,2,0,L|280:180,1,80
320,112,131698,1,2,0:0:0:0:
380,164,131837,1,8,0:0:0:0:
340,232,131976,1,0,0:0:0:0:
400,284,132115,5,2,0:0:0:0:
320,112,132393,1,8,0:0:0:0:
161,284,132671,6,0,P|201:291|240:284,1,80,8|8,0:0|0:0,0:0:0:0:
164,200,132948,1,8,0:0:0:0:
163,199,133087,2,0,P|125:208|95:234,1,80,8|8,0:0|0:0,0:0:0:0:
163,121,133365,2,0,P|201:130|232:156,1,80,8|8,0:0|0:0,0:0:0:0:
376,120,133643,5,8,0:0:0:0:
376,120,133782,2,0,P|338:129|307:155,1,80,8|8,0:0|0:0,0:0:0:0:
444,232,134060,1,8,0:0:0:0:
444,232,134199,2,0,P|414:205|375:196,1,80,8|8,0:0|0:0,0:0:0:0:
300,284,134476,2,0,P|339:290|378:283,2,80,8|8|8,0:0|0:0|0:0,0:0:0:0:
220,228,134893,6,0,L|145:257,1,80,8|0,0:0|0:0,0:0:0:0:
204,96,135171,2,0,L|268:144,1,80,8|0,0:0|0:0,0:0:0:0:
376,120,135448,1,8,0:0:0:0:
376,120,135518,1,8,0:0:0:0:
376,120,135587,2,8,L|400:84,6,40,8|8|8|8|8|8|0,0:0|0:0|0:0|0:0|0:0|0:0|0:0,0:0:0:0:
96,280,136560,6,0,P|72:244|40:228,1,80,0|2,0:0|0:0,0:0:0:0:
20,304,136837,2,0,P|44:340|76:356,1,80
156,336,137115,6,0,P|208:324|316:324,1,160,4|8,0:0|0:0,0:0:0:0:
392,340,137532,1,0,0:0:0:0:
444,276,137671,1,0,0:0:0:0:
444,276,137810,2,0,P|456:232|452:196,1,80,0|8,0:0|0:0,0:0:0:0:
344,128,138087,5,0,0:0:0:0:
344,128,138226,1,0,0:0:0:0:
344,128,138365,2,0,P|332:84|336:48,1,80,0|8,0:0|0:0,0:0:0:0:
488,76,138643,2,0,L|408:84,1,80
260,120,138921,2,0,B|176:128|176:128|144:148|104:148,1,160
120,68,139337,5,0,0:0:0:0:
184,300,139615,1,8,0:0:0:0:
216,228,139754,2,0,P|256:224|296:228,1,80
408,300,140032,2,0,P|368:304|328:300,1,80,0|8,0:0|0:0,0:0:0:0:
376,224,140310,5,0,0:0:0:0:
376,224,140448,2,0,P|392:184|396:148,1,80,0|2,0:0|0:0,0:0:0:0:
320,88,140726,2,0,P|304:128|300:164,2,80,8|0|2,0:0|0:0|0:0,0:0:0:0:
416,164,141143,5,0,0:0:0:0:
416,164,141282,2,0,P|411:203|396:240,1,80,8|0,0:0|0:0,0:0:0:0:
404,320,141560,2,0,B|368:320|340:296|340:296|300:320|252:316,1,160,2|8,0:0|0:0,0:0:0:0:
188,268,141976,1,0,0:0:0:0:
208,188,142115,1,0,0:0:0:0:
184,112,142254,2,0,P|188:72|212:40,1,80,0|8,0:0|0:0,0:0:0:0:
292,28,142532,5,0,0:0:0:0:
340,92,142671,1,0,0:0:0:0:
260,104,142810,2,0,L|96:36,2,160,0|0|0,0:0|0:0|0:0,0:0:0:0:
340,92,143504,1,8,0:0:0:0:
416,60,143643,6,0,B|436:100|412:136|412:136|436:172|416:212,1,160
340,184,144060,1,8,0:0:0:0:
260,172,144199,2,0,L|96:240,1,160,0|0,0:0|0:0,0:0:0:0:
35,212,144615,2,0,P|37:251|53:288,1,80,8|0,0:0|0:0,0:0:0:0:
92,156,144893,5,8,0:0:0:0:
92,156,145032,1,8,0:0:0:0:
216,56,145310,2,0,B|256:44|288:72|336:56,1,120,8|8,0:0|0:0,0:0:0:0:
334,56,145587,2,0,P|380:60|416:72,2,80,0|8|8,0:0|0:0|0:0,0:0:0:0:
312,132,146004,6,0,P|392:136|448:188,1,160,4|8,0:0|0:0,0:0:0:0:
388,244,146421,1,0,0:0:0:0:
388,244,146560,2,0,P|424:272|464:272,2,80,0|0|8,0:0|0:0|0:0,0:0:0:0:
316,212,146976,5,0,0:0:0:0:
316,212,147115,2,0,P|280:240|240:240,2,80,0|0|8,0:0|0:0|0:0,0:0:0:0:
256,160,147532,2,0,P|216:164|186:189,1,80,0|0,0:0|0:0,0:0:0:0:
64,252,147810,2,0,L|144:252,1,80,0|8,0:0|0:0,0:0:0:0:
216,324,148087,6,0,B|188:352|148:352|148:352|52:352,1,160
64,252,148504,1,8,0:0:0:0:
64,152,148643,1,0,0:0:0:0:
152,200,148782,2,0,P|196:212|232:212,1,80
280,128,149060,6,0,P|200:100|124:104,1,160,8|2,0:0|0:0,0:0:0:0:
256,304,149615,1,8,0:0:0:0:
256,304,149754,2,0,P|336:332|412:328,1,160,2|0,0:0|0:0,0:0:0:0:
428,248,150171,1,8,0:0:0:0:
444,168,150310,1,0,0:0:0:0:
460,88,150448,5,2,0:0:0:0:
256,132,150726,1,8,0:0:0:0:
52,88,151004,1,2,0:0:0:0:
152,272,151282,1,8,0:0:0:0:
360,272,151560,6,0,L|324:200,1,80
292,60,151837,1,8,0:0:0:0:
292,60,151976,2,0,L|256:132,1,80
116,200,152254,1,0,0:0:0:0:
116,200,152393,2,0,L|152:272,1,80,8|0,0:0|0:0,0:0:0:0:
108,340,152671,6,0,P|168:284|244:272,1,160,0|8,0:0|0:0,0:0:0:0:
404,44,153226,2,0,P|344:100|268:112,1,160,0|8,0:0|0:0,0:0:0:0:
256,192,153643,1,0,0:0:0:0:
256,192,153782,6,0,L|256:276,1,80,8|2,0:0|0:0,0:0:0:0:
184,240,154060,2,0,L|184:160,1,80
328,128,154337,2,0,L|328:296,1,160,0|2,0:0|0:0,0:0:0:0:
256,192,154893,12,4,157115,0:0:0:0:
148,192,163782,6,0,B|187:169|187:169|178:109|216:61,1,160,4|8,0:0|0:0,0:0:0:0:
296,60,164198,2,0,B|333:107|324:168|324:168|364:190,1,160,0|0,0:0|0:0,0:0:0:0:
404,120,164615,1,8,0:0:0:0:
256,264,164893,5,0,0:0:0:0:
256,184,165032,1,0,0:0:0:0:
188,140,165171,2,0,P|256:104|324:140,1,160,8|2,0:0|0:0,0:0:0:0:
336,264,165587,1,0,0:0:0:0:
256,264,165726,2,0,L|168:264,1,80,8|0,0:0|0:0,0:0:0:0:
160,344,166004,6,0,P|96:284|108:220,1,160,0|8,0:0|0:0,0:0:0:0:
184,119,166421,2,0,P|136:59|60:68,1,160,0|0,0:0|0:0,0:0:0:0:
104,140,166837,1,8,0:0:0:0:
188,200,166976,6,0,B|262:205|249:124|316:120,1,160,0|2,0:0|0:0,0:0:0:0:
332,200,167393,2,0,L|320:280,1,80,8|0,0:0|0:0,0:0:0:0:
211,358,167671,2,0,L|188:200,1,160,2|8,0:0|0:0,0:0:0:0:
398,158,168226,6,0,P|368:184|332:200,1,80
296,128,168504,1,8,0:0:0:0:
216,128,168643,1,0,0:0:0:0:
113,158,168782,2,0,P|143:184|180:200,1,80
256,224,169060,6,0,P|268:144|256:64,1,160,8|0,0:0|0:0,0:0:0:0:
80,180,169615,2,0,P|68:260|80:340,1,160,8|2,0:0|0:0,0:0:0:0:
160,344,170032,1,0,0:0:0:0:
232,304,170171,2,0,P|275:308|312:320,1,80,8|0,0:0|0:0,0:0:0:0:
388,304,170448,6,0,L|368:224,1,80,8|8,0:0|0:0,0:0:0:0:
448,236,170726,2,0,L|428:156,1,80,8|8,0:0|0:0,0:0:0:0:
392,88,171004,1,8,0:0:0:0:
392,88,171143,1,8,0:0:0:0:
316,68,171282,1,8,0:0:0:0:
316,68,171421,1,8,0:0:0:0:
256,124,171560,6,0,L|256:168,2,40,8|8|8,0:0|0:0|0:0,0:0:0:0:
195,68,171837,2,8,L|162:34,2,40,8|8|8,0:0|0:0|0:0,0:0:0:0:
156,156,172115,1,8,0:0:0:0:
156,156,172185,1,8,0:0:0:0:
156,156,172254,2,8,L|105:169,6,40,8|8|8|8|8|8|4,0:0|0:0|0:0|0:0|0:0|0:0|0:0,0:0:0:0:
256,192,177115,5,4,0:0:0:0:
432,192,177393,6,0,L|352:192,1,80,8|8,0:0|0:0,0:0:0:0:
380,67,177671,2,0,L|323:124,1,80,8|8,0:0|0:0,0:0:0:0:
256,16,177948,2,0,L|256:96,1,80,8|8,0:0|0:0,0:0:0:0:
131,67,178226,2,0,L|188:124,1,80,8|8,0:0|0:0,0:0:0:0:
80,192,178504,2,0,L|160:192,1,80,8|8,0:0|0:0,0:0:0:0:
208,256,178782,5,8,0:0:0:0:
256,192,178921,2,0,L|256:108,1,80,8|8,0:0|0:0,0:0:0:0:
304,48,179199,1,8,0:0:0:0:
352,112,179337,6,0,B|352:216|352:216|352:244|376:268,1,160,8|8,0:0|0:0,0:0:0:0:
432,208,179754,1,8,0:0:0:0:
432,128,179893,2,0,P|428:84|404:52,1,80,8|8,0:0|0:0,0:0:0:0:
332,24,180171,2,0,L|256:48,1,80,8|8,0:0|0:0,0:0:0:0:
160,112,180448,6,0,B|160:216|160:216|160:244|136:268,1,160,8|8,0:0|0:0,0:0:0:0:
80,208,180865,1,8,0:0:0:0:
80,128,181004,2,0,P|84:84|108:52,1,80,8|8,0:0|0:0,0:0:0:0:
180,24,181282,2,0,L|256:48,1,80,8|8,0:0|0:0,0:0:0:0:
304,132,181560,6,0,L|320:176,2,40,8|8|8,0:0|0:0|0:0,0:0:0:0:
212,156,181837,2,0,L|196:200,2,40,8|8|8,0:0|0:0|0:0,0:0:0:0:
276,240,182115,1,8,0:0:0:0:
276,240,182185,1,8,0:0:0:0:
276,240,182254,2,8,L|276:284,6,40,8|8|8|8|8|8|4,0:0|0:0|0:0|0:0|0:0|0:0|0:1,0:0:0:0:
436,40,183226,6,0,P|464:72|472:108,1,80,0|2,0:0|0:0,0:0:0:0:
392,108,183504,2,0,P|401:146|428:175,1,80,0|0,0:0|0:0,0:0:0:0:
508,184,183782,6,0,L|448:348,1,160,4|8,0:0|0:0,0:0:0:0:
388,288,184198,1,0,0:0:0:0:
308,304,184337,1,0,0:0:0:0:
248,360,184476,2,0,P|200:344|180:324,1,80,0|8,0:0|0:0,0:0:0:0:
196,208,184754,5,0,0:0:0:0:
196,208,184893,2,0,P|244:224|264:244,1,80,0|0,0:0|0:0,0:0:0:0:
180,324,185171,1,8,0:0:0:0:
180,324,185310,2,0,L|100:304,1,80
118,227,185587,2,0,L|196:208,1,80,0|8,0:0|0:0,0:0:0:0:
212,128,185865,6,0,P|292:164|340:220,1,160
324,296,186282,1,8,0:0:0:0:
400,272,186421,2,0,P|452:268|484:280,2,80,0|0|0,0:0|0:0|0:0,0:0:0:0:
436,344,186837,1,8,0:0:0:0:
324,296,186976,5,0,0:0:0:0:
400,200,187115,2,0,P|416:160|408:124,1,80,0|2,0:0|0:0,0:0:0:0:
304,88,187393,2,0,P|288:128|296:164,1,80,8|0,0:0|0:0,0:0:0:0:
409,125,187671,6,0,P|416:86|400:50,1,80,2|0,0:0|0:0,0:0:0:0:
295,163,187949,2,0,P|288:202|304:238,1,80,8|0,0:0|0:0,0:0:0:0:
256,304,188226,6,0,B|220:336|220:336|168:320|104:340,1,160,2|8,0:0|0:0,0:0:0:0:
56,276,188643,1,0,0:0:0:0:
100,212,188782,1,0,0:0:0:0:
108,132,188921,2,0,P|152:128|188:136,1,80,0|8,0:0|0:0,0:0:0:0:
228,68,189198,5,0,0:0:0:0:
228,68,189337,1,0,0:0:0:0:
228,68,189476,2,0,P|271:75|304:92,1,80,0|8,0:0|0:0,0:0:0:0:
428,124,189754,2,0,P|384:131|351:148,1,80,0|0,0:0|0:0,0:0:0:0:
204,188,190032,2,0,P|247:180|280:163,1,80,0|8,0:0|0:0,0:0:0:0:
228,68,190310,6,0,P|120:96|92:132,1,160
48,196,190726,2,0,L|48:280,1,80,8|0,0:0|0:0,0:0:0:0:
124,248,191004,2,0,L|144:328,1,80
212,284,191282,2,0,L|268:352,1,80,8|0,0:0|0:0,0:0:0:0:
340,320,191560,5,8,0:0:0:0:
340,320,191698,1,8,0:0:0:0:
440,192,191976,2,8,L|320:192,1,120
320,192,192254,2,0,P|296:232|292:264,2,80,0|8|8,0:0|0:0|0:0,0:0:0:0:
272,124,192671,6,0,P|208:80|124:68,1,160,4|8,0:0|0:0,0:0:0:0:
48,76,193087,1,0,0:0:0:0:
32,156,193226,1,0,0:0:0:0:
92,208,193365,2,0,P|128:172|136:144,1,80,0|8,0:0|0:0,0:0:0:0:
32,156,193643,5,0,0:0:0:0:
24,236,193782,2,0,P|60:272|88:280,1,80,0|0,0:0|0:0,0:0:0:0:
164,252,194060,1,8,0:0:0:0:
244,244,194199,2,0,P|280:280|288:308,1,80,0|0,0:0|0:0,0:0:0:0:
208,316,194476,2,0,L|352:232,1,160
288,180,194893,5,0,0:0:0:0:
468,336,195171,2,0,P|484:296|484:260,1,80,8|0,0:0|0:0,0:0:0:0:
444,192,195448,1,0,0:0:0:0:
368,168,195587,1,0,0:0:0:0:
288,180,195726,6,0,P|216:192|160:128,1,160,8|2,0:0|0:0,0:0:0:0:
84,160,196143,1,0,0:0:0:0:
36,96,196282,1,8,0:0:0:0:
113,69,196421,2,0,P|189:58|240:116,1,160,2|0,0:0|0:0,0:0:0:0:
212,192,196837,2,0,P|192:232|164:256,1,80,8|0,0:0|0:0,0:0:0:0:
92,284,197115,6,0,L|252:304,1,160,2|8,0:0|0:0,0:0:0:0:
408,192,197671,1,0,0:0:0:0:
250,80,197948,2,0,L|92:100,1,160,8|0,0:0|0:0,0:0:0:0:
28,148,198365,1,0,0:0:0:0:
96,192,198504,1,8,0:0:0:0:
28,236,198643,2,0,P|16:264|16:312,1,80
92,284,198921,2,0,P|104:320|100:364,2,80,0|8|0,0:0|0:0|0:0,0:0:0:0:
160,240,199337,6,0,L|240:228,1,80,8|8,0:0|0:0,0:0:0:0:
208,320,199615,2,0,L|288:332,1,80,8|8,0:0|0:0,0:0:0:0:
388,248,199893,2,0,L|308:260,1,80,8|8,0:0|0:0,0:0:0:0:
300,164,200171,2,0,L|220:152,1,80,8|8,0:0|0:0,0:0:0:0:
124,148,200448,6,0,L|84:152,2,40,8|8|8,0:0|0:0|0:0,0:0:0:0:
104,52,200726,2,0,L|64:56,2,40,8|8|8,0:0|0:0|0:0,0:0:0:0:
204,88,201004,1,8,0:0:0:0:
204,88,201073,1,8,0:0:0:0:
204,88,201143,2,8,L|248:92,6,40,8|8|8|8|8|8|4,0:0|0:0|0:0|0:0|0:0|0:0|0:0,0:0:0:0:
256,192,201629,12,8,202948,0:0:0:0:
104,88,203226,6,0,B|148:52|212:124|256:88,1,160,0|8,0:0|0:0,0:0:0:0:
440,192,203782,2,0,B|396:228|332:156|288:192,1,160,2|8,0:0|0:0,0:0:0:0:
104,296,204337,2,0,B|148:332|212:260|256:296,1,160,0|8,0:0|0:0,0:0:0:0:
448,328,204893,6,0,L|400:260,1,80,0|2,0:0|0:0,0:0:0:0:
440,192,205171,1,8,0:0:0:0:
401,121,205310,2,0,L|448:56,1,80,0|0,0:0|0:0,0:0:0:0:
312,192,205726,1,8,0:0:0:0:
256,192,206004,12,8,207948,0:0:0:0:
216,192,208226,6,0,P|208:232|216:272,1,80,2|0,0:0|0:0,0:0:0:0:
296,270,208504,2,0,P|303:230|296:192,1,80,8|0,0:0|0:0,0:0:0:0:
332,120,208782,1,0,0:0:0:0:
256,92,208921,1,0,0:0:0:0:
180,120,209060,1,8,0:0:0:0:
256,332,209337,5,8,0:0:0:0:
256,332,209476,1,8,0:0:0:0:
308,180,209754,2,0,P|272:204|204:180,1,120,8|8,0:0|0:0,0:0:0:0:
204,180,210032,2,0,L|148:240,2,80,0|8|0,0:0|0:0|0:0,0:0:0:0:
256,116,210448,5,4,0:0:0:0:
