osu file format v14

[General]
AudioFilename: Connect.mp3
AudioLeadIn: 500
PreviewTime: 74268
Countdown: 0
SampleSet: Soft
StackLeniency: 0.7
Mode: 0
LetterboxInBreaks: 1
WidescreenStoryboard: 0

[Editor]
Bookmarks: 21696,48362,92807,101696,137251,155029,165584,172807,183918,201696,210584
DistanceSpacing: 1
BeatDivisor: 4
GridSize: 4
TimelineZoom: 1

[Metadata]
Title:Connect (Nightcore Trance Remix)
TitleUnicode:コネクト (Nightcore Trance Remix)
Artist:ClariS
ArtistUnicode:ClariS
Creator:Naryuga
Version:Hard
Source:Puella Magi Madoka Magica
Tags:Konekuto Mahou Shoujo Madoka Magica opening 魔法少女まどか☆マギカ testmx1
BeatmapID:178446
BeatmapSetID:59482

[Difficulty]
HPDrainRate:5
CircleSize:4
OverallDifficulty:5
ApproachRate:7
SliderMultiplier:1.44
SliderTickRate:2

[Events]
//Background and Video events
0,0,"bg.jpg",0,0
//Break Periods
2,39537,45104
2,95093,100660
2,157315,162882
2,173084,176215
//Storyboard Layer 0 (Background)
//Storyboard Layer 1 (Fail)
//Storyboard Layer 2 (Pass)
//Storyboard Layer 3 (Foreground)
//Storyboard Sound Samples

[TimingPoints]
1560,277.777777777778,4,2,1,90,1,0
10448,-100,4,2,1,70,0,0
11421,-125,4,2,1,50,0,0
21560,-100,4,2,1,90,0,0
46004,-100,4,2,1,30,0,0
48087,-100,4,2,1,60,0,0
52810,-100,4,2,1,70,0,0
53851,-100,4,2,1,80,0,0
54823,-100,4,2,1,90,0,0
55518,-100,4,2,2,70,0,0
55657,-100,4,2,1,90,0,0
56212,-133.333333333333,4,2,1,80,0,0
56490,-133.333333333333,4,2,1,60,0,0
56976,-100,4,2,1,90,0,0
62879,-100,4,2,2,80,0,0
63018,-100,4,2,1,90,0,0
65379,-100,4,2,1,100,0,0
66073,-100,4,2,1,90,0,0
74893,-100,4,2,1,90,0,1
81212,-100,4,2,2,80,0,1
81351,-100,4,2,1,90,0,1
83157,-100,4,2,1,100,0,1
83851,-100,4,2,1,90,0,1
85657,-100,4,2,2,80,0,1
85796,-100,4,2,1,90,0,1
92671,-100,4,2,1,90,0,0
94893,-100,4,2,1,50,0,0
95171,-100,4,2,1,90,0,0
107879,-100,4,2,2,80,0,0
108018,-100,4,2,1,90,0,0
112323,-100,4,2,2,80,0,0
112462,-100,4,2,1,90,0,0
127601,-100,4,2,1,100,0,0
128157,-100,4,2,1,90,0,0
133435,-100,4,2,2,80,0,0
133573,-100,4,2,1,90,0,0
137115,-100,4,2,1,90,0,1
138990,-100,4,2,2,80,0,1
139129,-100,4,2,1,90,0,1
141212,-100,4,2,2,80,0,1
141351,-100,4,2,1,90,0,1
143435,-100,4,2,2,80,0,1
143573,-100,4,2,1,90,0,1
145379,-100,4,2,1,100,0,1
146073,-100,4,2,1,90,0,1
147879,-100,4,2,2,80,0,1
148018,-100,4,2,1,90,0,1
152323,-100,4,2,2,80,0,1
152462,-100,4,2,1,90,0,1
154893,-100,4,2,1,90,0,0
157115,-100,4,2,1,50,0,0
157254,-100,4,2,1,90,0,0
163990,-100,4,2,2,80,0,0
164129,-100,4,2,1,90,0,0
166212,-100,4,2,2,80,0,0
166351,-100,4,2,1,90,0,0
168435,-100,4,2,2,80,0,0
168573,-100,4,2,1,90,0,0
170657,-100,4,2,2,80,0,0
170796,-100,4,2,1,90,0,0
170935,-100,4,2,2,80,0,0
171073,-100,4,2,1,90,0,0
178157,-100,4,2,2,80,0,0
178296,-100,4,2,1,90,0,0
178435,-100,4,2,2,80,0,0
178573,-100,4,2,1,90,0,0
178990,-100,4,2,2,80,0,0
179129,-100,4,2,1,90,0,0
183782,-100,4,2,1,90,0,1
190101,-100,4,2,2,80,0,1
190240,-100,4,2,1,90,0,1
192046,-100,4,2,1,100,0,1
192740,-100,4,2,1,90,0,1
196768,-100,4,2,2,80,0,1
196907,-100,4,2,1,90,0,1
201560,-100,4,2,1,90,0,0
209823,-100,4,2,1,100,0,0

[Colours]
Combo1 : 255,255,0
Combo2 : 255,0,0
Combo3 : 64,0,128
Combo4 : 255,128,255
Combo5 : 64,192,255

[HitObjects]
104,208,1559,6,0,P|124:140|184:104,1,144,4|8,0:0|0:0,0:0:0:0:
328,104,2115,2,0,P|388:140|408:208,2,144,0|8|0,0:0|0:0|0:0,0:0:0:0:
328,248,2948,1,8,0:0:0:0:
184,248,3226,1,2,0:0:0:0:
184,104,3504,1,8,0:0:0:0:
60,180,3782,6,0,P|132:204|184:248,1,144,0|8,0:0|0:0,0:0:0:0:
328,248,4337,2,0,P|380:204|452:180,1,144,2|8,0:0|0:0,0:0:0:0:
380,56,4893,2,0,L|308:56,1,72,0|2,0:0|0:0,0:0:0:0:
284,124,5171,2,0,L|208:124,1,72,8|2,0:0|0:0,0:0:0:0:
184,56,5448,2,0,L|40:56,1,144,2|8,0:0|0:0,0:0:0:0:
88,192,6004,5,8,0:0:0:0:
40,328,6282,1,8,0:0:0:0:
148,233,6560,2,0,P|208:248|256:312,1,144,8|8,0:0|0:0,0:0:0:0:
424,192,7115,5,8,0:0:0:0:
472,328,7393,1,8,0:0:0:0:
364,233,7671,2,0,P|304:248|256:312,1,144,8|8,0:0|0:0,0:0:0:0:
184,188,8226,6,8,B|168:152|144:128|144:128|168:104|184:68,1,144
328,68,8782,2,8,B|343:103|367:127|367:127|343:151|327:187,1,144
368,324,9337,5,8,0:0:0:0:
224,312,9615,1,8,0:0:0:0:
148,192,9893,2,0,P|112:200|76:192,2,72,8|0|8,0:0|0:0|0:0,0:0:0:0:
200,144,10310,1,0,0:0:0:0:
200,144,10448,5,4,0:0:0:0:
364,336,11004,1,0,0:0:0:0:
412,112,11560,2,0,P|436:164|412:272,2,172.8,0|2|0,0:0|0:0|0:0,0:0:0:0:
316,52,12671,6,0,B|244:12|216:92|152:56,1,172.8,2|0,0:0|0:0,0:0:0:0:
104,92,13226,2,0,L|56:128,2,57.6,0|2|0,0:0|0:0|0:0,0:0:0:0:
148,200,13782,2,0,P|204:212|264:196,1,115.2,2|0,0:0|0:0,0:0:0:0:
308,168,14198,2,0,P|364:144|420:148,1,115.2,2|0,0:0|0:0,0:0:0:0:
255,79,14893,6,0,P|144:107|60:183,1,230.4,2|0,0:0|0:0,0:0:0:0:
256,304,16004,2,0,P|366:276|451:199,1,230.4,2|0,0:0|0:0,0:0:0:0:
256,80,17115,1,2,0:0:0:0:
256,192,18226,12,2,21004,0:0:0:0:
256,196,21560,5,4,0:0:0:0:
148,292,21837,1,0,1:0:0:0:
20,224,22115,1,0,0:0:0:0:
44,80,22393,1,0,1:0:0:0:
188,68,22671,2,0,P|256:48|324:68,2,144,0|8|2,0:0|0:0|0:0,0:0:0:0:
256,196,23504,1,8,0:0:0:0:
292,336,23782,6,0,B|332:324|352:300|352:300|428:300,1,144,0|8,0:0|0:0,0:0:0:0:
468,164,24337,1,0,0:0:0:0:
340,92,24615,2,0,P|280:60|204:48,1,144,8|0,0:0|0:0,0:0:0:0:
61,29,25171,2,0,L|112:80,1,72,8|0,0:0|0:0,0:0:0:0:
164,132,25448,2,0,B|216:184|216:184|188:208|180:244,2,144,2|8|2,0:0|0:0|0:0,0:0:0:0:
72,244,26282,5,8,0:0:0:0:
180,336,26560,1,0,0:0:0:0:
288,244,26837,1,8,0:0:0:0:
424,192,27115,2,0,L|424:264,2,72,0|2|8,0:0|0:0|0:0,0:0:0:0:
380,52,27671,2,0,P|308:44|236:52,1,144,2|8,0:0|0:0,0:0:0:0:
116,128,28226,6,0,P|96:200|48:248,1,144,0|8,0:0|0:0,0:0:0:0:
240,348,28782,2,0,P|260:276|308:228,1,144,0|8,0:0|0:0,0:0:0:0:
440,168,29337,5,8,0:0:0:0:
440,168,29476,1,8,0:0:0:0:
311,101,29754,1,8,0:0:0:0:
311,101,29893,2,0,B|291:133|251:149|211:133|191:101,1,144,2|8,0:0|0:0,0:0:0:0:
72,184,30448,6,0,B|56:216|24:236|24:236|56:256|72:288,1,144,4|8,0:0|0:0,0:0:0:0:
208,340,31004,2,0,B|224:308|256:288|256:288|224:268|208:236,1,144,0|8,0:0|0:0,0:0:0:0:
120,116,31560,2,0,B|152:100|172:68|172:68|192:100|224:116,1,144,0|8,0:0|0:0,0:0:0:0:
352,180,32115,2,0,B|384:196|404:228|404:228|424:196|456:180,1,144,2|8,0:0|0:0,0:0:0:0:
456,324,32671,5,2,0:0:0:0:
324,264,32948,2,0,B|280:228|232:300|188:264,2,144,8|0|8,0:0|0:0|0:0,0:0:0:0:
324,120,33782,2,0,B|280:156|232:84|188:120,2,144,0|8|2,0:0|0:0|0:0,0:0:0:0:
200,192,34615,1,8,0:0:0:0:
152,328,34893,6,0,P|88:296|56:232,1,144,2|8,0:0|0:0,0:0:0:0:
56,89,35448,1,0,0:0:0:0:
200,89,35726,1,8,0:0:0:0:
344,88,36004,1,0,0:0:0:0:
344,88,36143,2,0,L|424:88,2,72,0|8|0,0:0|0:0|0:0,0:0:0:0:
272,88,36560,1,2,0:0:0:0:
128,88,36837,1,8,0:0:0:0:
108,232,37115,6,0,B|148:292|148:292|184:280|220:292,1,144,2|8,0:0|0:0,0:0:0:0:
404,232,37671,2,0,B|364:292|364:292|328:280|292:292,1,144,0|8,0:0|0:0,0:0:0:0:
180,120,38226,2,0,P|188:154|216:176,1,72,0|0,0:0|0:0,0:0:0:0:
295,176,38504,2,0,P|323:154|332:120,1,72,8|2,0:0|0:0,0:0:0:0:
256,112,38782,2,0,L|256:256,2,144,8|8|4,0:0|0:0|0:1,0:0:0:0:
256,192,46004,12,0,47671,0:0:0:0:
256,192,48226,5,8,0:0:0:0:
328,68,48504,1,2,0:0:0:0:
416,180,48782,1,0,0:0:0:0:
416,180,48921,2,0,P|432:252|416:324,1,144,8|0,0:0|0:0,0:0:0:0:
346,319,49337,2,0,P|332:249|348:180,1,144,8|0,0:0|0:0,0:0:0:0:
380,116,49754,1,0,0:0:0:0:
256,192,50032,2,0,L|184:68,1,144,8|0,0:0|0:0,0:0:0:0:
184,68,50448,5,8,0:0:0:0:
56,132,50726,1,0,0:0:0:0:
104,268,51004,1,0,0:0:0:0:
104,268,51143,2,0,P|172:288|292:220,1,216,8|8,0:0|0:0,0:0:0:0:
280,148,51698,1,2,0:0:0:0:
280,148,51837,2,0,P|212:128|92:196,1,216,2|8,0:0|0:0,0:0:0:0:
196,296,52532,1,0,0:0:0:0:
196,296,52671,5,8,0:0:0:0:
336,288,52948,1,0,0:0:0:0:
480,280,53226,1,0,0:0:0:0:
480,280,53365,2,0,P|454:158|408:80,1,216,8|8,0:0|0:0,0:0:0:0:
336,80,53921,2,0,P|312:56|276:44,2,72
273,117,54337,2,0,P|239:105|213:81,2,72,0|8|0,0:0|0:0|0:0,0:0:0:0:
228,248,54893,6,0,L|12:248,2,216,8|0|0,0:0|0:0|0:0,0:0:0:0:
252,104,56004,1,2,0:0:0:0:
252,104,56143,1,2,0:0:0:0:
252,104,56282,2,0,L|360:104,2,108.000004119873,0|2|0,0:0|0:0|0:0,0:0:0:0:
108,92,57115,6,0,P|100:168|68:228,1,144,4|8,0:0|0:0,0:0:0:0:
180,316,57671,2,0,B|220:308|240:280|240:280|312:280,1,144,0|8,0:0|0:0,0:0:0:0:
312,208,58087,2,0,B|240:208|240:208|220:180|180:172,1,144,0|0,0:0|0:0,0:0:0:0:
172,244,58504,1,8,0:0:0:0:
238,116,58782,1,0,0:0:0:0:
380,92,59060,1,8,0:0:0:0:
472,204,59337,6,0,P|448:272|392:316,1,144,0|8,0:0|0:0,0:0:0:0:
344,264,59754,2,0,P|276:288|232:342,1,144,0|0,0:0|0:0,0:0:0:0:
160,344,60171,2,0,P|116:289|48:265,2,144,8|0|8,0:0|0:0|0:0,0:0:0:0:
196,204,61004,1,2,0:0:0:0:
80,116,61282,6,0,P|100:84|128:64,1,72,8|0,0:0|0:0,0:0:0:0:
196,40,61560,2,0,P|256:76|316:40,1,144,0|8,0:0|0:0,0:0:0:0:
384,64,61976,2,0,P|432:113|447:184,1,144,0|0,0:0|0:0,0:0:0:0:
436,256,62393,1,8,0:0:0:0:
296,348,62671,1,0,0:0:0:0:
296,348,62810,2,0,B|260:336|240:304|240:304|308:264|300:184,1,216,0|0,0:0|0:0,0:0:0:0:
167,304,63504,2,0,P|118:252|107:183,1,144,8|2,0:0|0:0,0:0:0:0:
132,39,64060,5,8,0:0:0:0:
208,208,64338,1,0,0:0:0:0:
276,39,64615,1,8,0:0:0:0:
348,164,64893,6,0,P|384:160|416:144,2,72,0|2|8,0:0|0:0|0:0,0:0:0:0:
348,164,65310,2,0,P|326:134|296:115,2,72,0|2|0,0:0|0:0|0:0,0:0:0:0:
348,164,65726,2,0,P|328:236|344:304,1,144,8|4,0:0|0:0,0:0:0:0:
216,236,66282,6,0,P|172:216|76:208,1,144,8|0,0:0|0:0,0:0:0:0:
77,63,66837,1,8,0:0:0:0:
77,63,66976,2,0,P|171:54|215:34,1,144,0|0,0:0|0:0,0:0:0:0:
288,48,67393,2,0,L|364:64,2,72,8|0|0,0:0|0:0|0:0,0:0:0:0:
172,136,67948,1,8,0:0:0:0:
312,168,68226,6,0,L|464:200,1,144,0|8,0:0|0:0,0:0:0:0:
452,270,68643,2,0,L|300:238,1,144,0|0,0:0|0:0,0:0:0:0:
312,168,69060,1,8,0:0:0:0:
312,96,69198,2,0,L|171:125,1,144,0|2,0:0|0:0,0:0:0:0:
100,124,69615,2,0,L|40:68,2,72,8|0|2,0:0|0:0|0:0,0:0:0:0:
136,264,70171,1,8,0:0:0:0:
280,264,70448,6,0,L|336:308,2,72,8|8|8,0:0|0:0|0:0,0:0:0:0:
280,264,70865,2,8,L|224:308,2,72,8|8|8,0:0|0:0|0:0,0:0:0:0:
376,120,71421,1,8,0:0:0:0:
377,120,71560,6,8,L|421:64,2,72,8|8|8,0:0|0:0|0:0,0:0:0:0:
377,120,71977,2,0,L|421:176,2,72,8|8|8,0:0|0:0|0:0,0:0:0:0:
216,64,72532,1,8,0:0:0:0:
216,64,72671,5,8,0:0:0:0:
84,120,72948,1,8,0:0:0:0:
232,176,73226,1,8,0:0:0:0:
68,236,73504,1,8,0:0:0:0:
244,296,73782,6,0,L|316:296,1,72
376,52,74337,2,0,P|408:36|448:36,1,72,0|2,0:0|0:0,0:0:0:0:
426,105,74615,2,0,P|394:121|354:121,1,72
304,72,74893,6,0,P|236:40|168:52,1,144,4|8,0:0|0:0,0:0:0:0:
72,156,75448,2,0,P|140:124|208:136,1,144,0|8,0:0|0:0,0:0:0:0:
332,204,76004,2,0,P|252:196|200:228,1,144,0|8,0:0|0:0,0:0:0:0:
200,300,76421,2,0,P|252:332|332:324,1,144,0|0,0:0|0:0,0:0:0:0:
376,268,76837,1,8,0:0:0:0:
380,92,77115,6,0,P|316:72|240:80,1,144,0|8,0:0|0:0,0:0:0:0:
172,100,77532,2,0,P|136:100|100:120,2,72,0|0|0,0:0|0:0|0:0,0:0:0:0:
152,168,77948,1,8,0:0:0:0:
292,136,78226,2,0,P|348:88|416:64,1,144,0|8,0:0|0:0,0:0:0:0:
380,236,78782,2,0,P|324:284|256:308,1,144,2|8,0:0|0:0,0:0:0:0:
292,136,79337,5,0,0:0:0:0:
151,100,79615,1,8,0:0:0:0:
116,164,79754,2,0,P|156:171|191:162,2,72,0|0|0,0:0|0:0|0:0,0:0:0:0:
48,192,80171,1,8,0:0:0:0:
188,304,80448,6,0,P|154:290|132:264,2,72,0|0|8,0:0|0:0|0:0,0:0:0:0:
256,276,80865,2,0,B|306:319|337:300|388:335,2,144,0|0|0,0:0|0:0|0:0,0:0:0:0:
203,226,81560,2,0,P|194:192|203:158,1,72
256,108,81837,2,0,B|306:64|337:83|388:48,2,144,8|0|8,0:0|0:0|0:0,0:0:0:0:
112,192,82671,5,8,0:0:0:0:
112,192,82810,1,8,0:0:0:0:
256,192,83087,1,8,0:0:0:0:
256,192,83226,2,0,L|400:192,2,144,0|8|4,0:0|0:0|0:0,0:0:0:0:
140,280,84060,5,8,0:0:0:0:
184,144,84337,2,0,P|120:108|56:128,2,144,0|8|0,0:0|0:0|0:0,0:0:0:0:
396,96,85171,1,8,0:0:0:0:
396,96,85310,2,0,P|332:60|268:80,2,144,0|0|0,0:0|0:0|0:0,0:0:0:0:
440,152,86004,2,0,P|467:216|443:283,1,144,0|8,0:0|0:0,0:0:0:0:
312,348,86560,2,0,P|288:288|316:216,1,144,0|8,0:0|0:0,0:0:0:0:
328,144,86976,6,0,P|352:123|363:85,2,72,0|2|0,0:0|0:0|0:0,0:0:0:0:
292,80,87393,1,8,0:0:0:0:
224,52,87532,2,0,P|104:88|48:156,1,216,2|8,0:0|0:0,0:0:0:0:
48,228,88087,2,0,P|104:296|224:332,1,216,2|8,0:0|0:0,0:0:0:0:
272,196,88782,5,0,0:0:0:0:
324,332,89060,1,8,0:0:0:0:
200,256,89337,1,0,0:0:0:0:
344,256,89615,1,8,0:0:0:0:
384,196,89754,2,0,P|364:124|304:88,1,144
236,84,90171,2,0,B|164:84|184:120|100:120,1,144,8|0,0:0|0:0,0:0:0:0:
99,264,90726,2,0,B|171:264|151:300|235:300,2,144,8|0|8,0:0|0:0|0:0,0:0:0:0:
224,192,91560,5,8,0:0:0:0:
288,156,91698,2,0,P|339:149|288:228,1,216,2|2,0:0|0:0,0:0:0:0:
224,192,92254,2,0,L|152:192,1,72,8|0,0:0|0:0,0:0:0:0:
256,192,92671,12,4,94893,0:0:0:0:
256,192,101560,5,4,0:0:0:0:
384,128,101837,2,0,P|412:192|384:256,2,144,8|0|8,0:0|0:0|0:0,0:0:0:0:
336,72,102532,2,0,P|264:48|128:72,1,216,0|8,0:0|0:0,0:0:0:0:
128,71,103087,1,0,0:0:0:0:
256,192,103365,5,0,0:0:0:0:
256,192,103504,1,8,0:0:0:0:
256,192,103643,2,0,P|156:171|129:71,1,216,2|8,0:0|0:0,0:0:0:0:
36,184,104337,2,0,P|108:224|116:280,1,144,0|8,0:0|0:0,0:0:0:0:
184,308,104754,6,0,B|220:316|248:340|248:340|276:316|312:308,1,144,0|2,0:0|0:0,0:0:0:0:
380,288,105171,2,0,P|416:292|448:308,2,72,8|0|2,0:0|0:0|0:0,0:0:0:0:
360,144,105726,2,0,P|372:110|395:82,2,72,8|0|2,0:0|0:0|0:0,0:0:0:0:
244,236,106282,5,8,0:0:0:0:
108,184,106560,2,0,P|72:184|40:164,2,72,0|0|8,0:0|0:0|0:0,0:0:0:0:
92,112,106976,2,0,P|216:64|264:112,1,216,0|8,0:0|0:0,0:0:0:0:
300,176,107532,2,0,P|396:152|420:120,2,144
300,176,108226,5,2,0:0:0:0:
420,264,108504,2,0,B|372:320|372:320|340:304|304:320,1,144,8|0,0:0|0:0,0:0:0:0:
92,264,109060,2,0,B|140:320|140:320|172:304|208:320,1,144,8|0,0:0|0:0,0:0:0:0:
256,184,109615,1,8,0:0:0:0:
160,76,109893,6,0,P|192:40|212:28,1,72,8|8,0:0|0:0,0:0:0:0:
396,68,110310,2,0,P|364:104|344:116,1,72,8|2,0:0|0:0,0:0:0:0:
384,300,110726,6,0,P|440:248|456:184,1,144,4|0,0:0|0:0,0:0:0:0:
384,168,111143,2,0,P|348:160|320:140,1,72,0|8,0:0|0:0,0:0:0:0:
272,84,111421,2,0,P|213:45|142:55,1,144
85,98,111837,1,8,0:0:0:0:
85,98,111976,1,0,0:0:0:0:
272,202,112254,2,0,P|213:241|144:232,1,144
76,208,112671,1,2,0:0:0:0:
188,120,112948,5,8,0:0:0:0:
76,208,113226,1,0,0:0:0:0:
76,208,113365,2,0,P|76:248|92:280,1,72,0|8,0:0|0:0,0:0:0:0:
148,320,113643,2,0,P|216:348|276:320,1,144,0|2,0:0|0:0,0:0:0:0:
336,276,114060,2,0,B|388:252|408:300|476:272,2,144,8|2|8,0:0|0:0|0:0,0:0:0:0:
368,136,114893,5,2,0:0:0:0:
256,44,115171,1,8,0:0:0:0:
144,136,115448,1,0,0:0:0:0:
156,206,115587,2,0,L|168:276,2,72,0|8|0,0:0|0:0|0:0,0:0:0:0:
356,206,116143,2,0,L|344:276,2,72,0|8|0,0:0|0:0|0:0,0:0:0:0:
368,136,116560,1,0,0:0:0:0:
256,228,116837,1,8,0:0:0:0:
256,84,117115,6,0,P|224:148|156:176,1,144,2|8,0:0|0:0,0:0:0:0:
96,212,117532,2,0,P|135:271|125:344,1,144,0|0,0:0|0:0,0:0:0:0:
200,344,117948,2,0,L|344:344,1,144,8|8,0:0|0:0,0:0:0:0:
432,192,118504,5,2,0:0:0:0:
260,192,118782,1,8,0:0:0:0:
344,40,119060,1,2,0:0:0:0:
172,44,119337,6,0,P|100:36|24:44,2,144,4|8|0,0:0|0:0|0:0,0:0:0:0:
144,188,120171,1,8,0:0:0:0:
144,188,120310,2,0,B|159:258|159:258|196:263|227:284,1,144
284,328,120726,2,0,P|356:336|428:328,2,144,8|0|8,0:0|0:0|0:0,0:0:0:0:
244,188,121560,6,0,P|316:180|386:187,1,144,0|8,0:0|0:0,0:0:0:0:
348,248,121976,2,0,P|316:184|348:124,1,144
424,124,122393,2,0,P|456:184|424:248,2,144,8|2|8,0:0|0:0|0:0,0:0:0:0:
284,88,123226,2,0,P|212:76|144:96,1,144,2|8,0:0|0:0,0:0:0:0:
86,137,123643,1,0,0:0:0:0:
86,137,123782,5,0,0:0:0:0:
84,280,124060,1,8,0:0:0:0:
84,280,124198,1,0,0:0:0:0:
208,212,124476,1,0,0:0:0:0:
208,212,124615,2,0,P|272:168|336:168,1,144,8|0,0:0|0:0,0:0:0:0:
392,300,125171,2,0,P|328:344|264:344,1,144,8|0,0:0|0:0,0:0:0:0:
180,144,125726,6,0,P|248:104|312:96,1,144,8|2,0:0|0:0,0:0:0:0:
364,232,126282,2,0,P|296:272|232:280,2,144,8|0|8,0:0|0:0|0:0,0:0:0:0:
312,96,127115,5,0,0:0:0:0:
180,144,127393,1,8,0:0:0:0:
232,280,127671,1,2,0:0:0:0:
364,232,127948,1,8,0:0:0:0:
252,140,128226,6,0,P|228:80|176:20,2,144,4|8|0,0:0|0:0|0:0,0:0:0:0:
124,200,129060,1,8,0:0:0:0:
124,200,129198,2,0,P|148:260|200:320,1,144
272,320,129615,2,0,P|324:260|348:200,2,144,8|0|8,0:0|0:0|0:0,0:0:0:0:
404,260,130448,6,0,P|420:192|396:124,1,144,0|8,0:0|0:0,0:0:0:0:
468,104,130865,2,0,P|416:48|348:28,1,144
296,72,131282,1,8,0:0:0:0:
240,28,131421,2,0,P|177:47|125:103,1,144,0|2,0:0|0:0,0:0:0:0:
196,124,131837,2,0,P|172:168|168:192,1,72,8|0,0:0|0:0,0:0:0:0:
240,184,132115,2,0,P|236:224|296:304,1,144,2|8,0:0|0:0,0:0:0:0:
436,332,132671,6,0,P|456:300|464:264,1,72,8|8,0:0|0:0,0:0:0:0:
392,272,132948,1,8,0:0:0:0:
392,272,133087,2,0,P|356:264|328:240,1,72,8|8,0:0|0:0,0:0:0:0:
388,200,133365,2,0,B|390:164|390:164|376:132|376:132|376:92|376:92|360:56,1,144,8|8,0:0|0:0,0:0:0:0:
307,107,133782,6,0,B|305:142|305:142|319:176,2,72,8|8|8,0:0|0:0|0:0,0:0:0:0:
296,36,134198,2,0,L|224:24,2,72,8|8|8,0:0|0:0|0:0,0:0:0:0:
307,107,134615,2,0,L|236:120,1,72,8|8,0:0|0:0,0:0:0:0:
164,133,134893,5,8,0:0:0:0:
192,277,135171,1,8,0:0:0:0:
334,248,135448,1,8,0:0:0:0:
307,107,135726,1,8,0:0:0:0:
164,133,136004,5,0,0:0:0:0:
164,133,136143,1,0,0:0:0:0:
380,152,136560,2,0,P|421:140|456:138,2,72,0|2|0,0:0|0:0|0:0,0:0:0:0:
332,208,136976,2,0,P|291:220|256:222,1,72,0|4,0:0|0:0,0:0:0:0:
184,100,137393,6,0,B|163:110|153:125|147:149|150:161|150:161|90:200,2,144,8|0|8,0:0|0:0|0:0,0:0:0:0:
328,100,138226,2,0,B|348:110|358:125|364:149|361:161|361:161|421:200,2,144,0|8|0,0:0|0:0|0:0,0:0:0:0:
288,160,138921,2,0,B|260:160|260:160|240:120|204:104|160:120,1,144
192,184,139337,6,0,P|221:251|208:321,1,144,0|8,0:0|0:0,0:0:0:0:
344,372,139893,2,0,P|314:304|325:237,1,144,0|8,0:0|0:0,0:0:0:0:
364,176,140310,2,0,P|392:144|424:136,2,72,0|0|2,0:0|0:0|0:0,0:0:0:0:
300,140,140726,1,8,0:0:0:0:
300,140,140865,2,0,P|356:80|424:64,2,144,0|2|0,0:0|0:0|0:0,0:0:0:0:
212,140,141560,6,0,P|166:86|99:64,1,144,0|8,0:0|0:0,0:0:0:0:
93,137,141976,2,0,P|127:148|149:177,1,72,0|0,0:0|0:0,0:0:0:0:
48,280,142393,1,8,0:0:0:0:
160,372,142671,5,0,0:0:0:0:
160,372,142810,2,0,P|204:360|224:340,1,72,0|8,0:0|0:0,0:0:0:0:
272,288,143087,2,0,P|338:264|406:284,2,144
204,260,143782,1,0,0:0:0:0:
212,116,144060,2,0,P|247:115|283:107,1,72,8|0,0:0|0:0,0:0:0:0:
244,40,144337,2,0,P|288:32|316:32,2,72,0|0|8,0:0|0:0|0:0,0:0:0:0:
104,64,144893,5,8,0:0:0:0:
104,64,145032,1,8,0:0:0:0:
40,192,145310,1,8,0:0:0:0:
40,192,145448,2,0,L|104:320,1,144,0|8,0:0|0:0,0:0:0:0:
168,192,146004,5,4,0:0:0:0:
232,64,146282,2,0,B|285:114|302:187|302:187|374:168|444:191,1,288,8|8,0:0|0:0,0:0:0:0:
476,52,147115,2,0,P|448:76|416:88,1,72
348,112,147393,1,8,0:0:0:0:
347,112,147532,2,0,P|304:168|295:239,2,144,0|0|0,0:0|0:0|0:0,0:0:0:0:
408,72,148226,5,0,0:0:0:0:
452,208,148504,1,8,0:0:0:0:
392,248,148643,2,0,P|384:284|360:312,1,72
316,252,148921,2,0,P|308:216|284:188,1,72,0|8,0:0|0:0,0:0:0:0:
212,68,149337,6,0,P|156:56|80:92,1,144,0|8,0:0|0:0,0:0:0:0:
100,160,149754,2,0,P|156:172|232:136,1,144,2|0,0:0|0:0,0:0:0:0:
288,88,150171,1,8,0:0:0:0:
288,88,150310,2,0,P|344:148|368:204,1,144
368,204,150726,1,8,0:0:0:0:
412,68,151004,5,0,0:0:0:0:
456,204,151282,1,8,0:0:0:0:
368,320,151560,1,0,0:0:0:0:
228,300,151837,1,8,0:0:0:0:
228,300,151976,2,0,P|148:320|108:364,2,144
256,232,152671,5,0,0:0:0:0:
184,104,152948,1,8,0:0:0:0:
328,104,153226,1,0,0:0:0:0:
256,232,153504,1,8,0:0:0:0:
136,152,153782,6,0,B|192:192|192:192|216:160|256:144|296:160|320:192|320:192|376:152,2,288,8|2|4,0:0|0:0|0:0,0:0:0:0:
256,192,154962,12,4,157115,0:0:0:0:
72,244,163782,6,0,B|132:188|12:100|72:44,2,216,4|2|8,0:0|0:0|0:0,0:0:0:0:
184,336,164893,1,0,0:0:0:0:
184,192,165171,1,8,0:0:0:0:
328,192,165448,1,2,0:0:0:0:
328,48,165726,1,8,0:0:0:0:
440,140,166004,6,0,B|380:196|500:284|440:340,2,216,2|2|8,0:0|0:0|0:0,0:0:0:0:
328,48,167115,1,0,0:0:0:0:
328,192,167393,1,8,0:0:0:0:
184,192,167671,1,2,0:0:0:0:
40,192,167948,1,8,0:0:0:0:
40,48,168226,6,0,B|96:-12|184:108|240:48,2,216,2|2|8,0:0|0:0|0:0,0:0:0:0:
40,192,169337,1,0,0:0:0:0:
184,192,169615,1,8,0:0:0:0:
328,192,169893,1,2,0:0:0:0:
472,192,170171,1,8,0:0:0:0:
472,336,170448,6,0,B|416:396|328:276|272:336,2,216,8|0|8,0:0|0:0|0:0,0:0:0:0:
328,192,171560,2,0,P|287:138|224:92,1,144,8|8,0:0|0:0,0:0:0:0:
84,192,172115,2,0,P|124:246|188:292,1,144,8|8,0:0|0:0,0:0:0:0:
328,192,172671,5,4,0:0:0:0:
256,144,177115,5,4,0:0:0:0:
292,284,177393,2,0,P|252:276|228:256,1,72,8|0,0:0|0:0,0:0:0:0:
200,188,177671,2,0,P|170:211|156:244,2,72,8|0|8,0:0|0:0|0:0,0:0:0:0:
256,144,178087,6,0,P|220:80|244:16,2,144,0|0|0,0:0|0:0|0:0,0:0:0:0:
328,108,178782,1,8,0:0:0:0:
328,108,178921,2,0,P|364:172|340:236,1,144
404,284,179337,6,0,P|440:220|440:148,1,144,8|8,0:0|0:0,0:0:0:0:
230,55,179893,2,0,P|302:56|364:92,2,144,8|8|8,0:0|0:0|0:0,0:0:0:0:
180,276,180726,2,0,P|241:311|313:312,2,144,8|8|8,0:0|0:0|0:0,0:0:0:0:
328,192,181560,5,8,0:0:0:0:
184,192,181837,1,8,0:0:0:0:
256,348,182115,2,0,L|184:348,1,72,8|0,0:0|0:0,0:0:0:0:
256,256,182393,2,0,L|328:256,1,72,8|0,0:0|0:0,0:0:0:0:
256,163,182671,1,4,0:1:0:0:
327,73,183226,6,0,P|362:83|398:83,2,72,0|2|0,0:0|0:0|0:0,0:0:0:0:
256,60,183643,1,0,0:0:0:0:
256,60,183782,6,0,P|184:68|120:104,1,144,4|8,0:0|0:0,0:0:0:0:
52,228,184337,2,0,P|124:220|188:184,1,144,0|8,0:0|0:0,0:0:0:0:
256,60,184893,1,0,0:0:0:0:
400,60,185171,2,0,B|472:60|472:60|460:96|476:132,2,144,8|0|8,0:0|0:0|0:0,0:0:0:0:
328,60,185865,6,0,B|328:100|296:132|256:132|256:132|153:132,1,216,0|8,0:0|0:0,0:0:0:0:
190,271,186560,2,0,P|118:235|98:179,1,144,0|8,0:0|0:0,0:0:0:0:
84,108,186976,1,0,0:0:0:0:
84,108,187115,2,0,P|80:72|60:44,2,72,0|2|8,0:0|0:0|0:0,0:0:0:0:
98,179,187532,2,0,B|101:222|121:255|162:272|190:271|190:271|265:271,1,216,0|8,0:0|0:0,0:0:0:0:
384,164,188226,6,0,P|372:92|324:44,1,144,0|8,0:0|0:0,0:0:0:0:
256,72,188643,1,0,0:0:0:0:
188,43,188782,2,0,P|138:94|128:164,1,144,0|8,0:0|0:0,0:0:0:0:
196,288,189337,2,0,P|244:240|256:168,1,144,0|8,0:0|0:0,0:0:0:0:
188,192,189754,2,0,B|164:144|216:108|188:52,2,144,0|0|0,0:0|0:0|0:0,0:0:0:0:
256,168,190448,5,0,0:0:0:0:
324,332,190726,2,0,B|296:276|348:240|324:192,1,144,8|0,0:0|0:0,0:0:0:0:
256,168,191143,1,0,0:0:0:0:
256,168,191282,1,8,0:0:0:0:
396,128,191560,1,8,0:0:0:0:
396,128,191698,1,8,0:0:0:0:
328,256,191976,1,8,0:0:0:0:
328,256,192115,2,0,L|184:256,2,144,0|8|4,0:0|0:0|0:0,0:0:0:0:
408,136,192948,6,0,P|368:76|304:48,1,144,8|0,0:0|0:0,0:0:0:0:
256,184,193504,2,0,L|256:260,2,72,8|0|0,0:0|0:0|0:0,0:0:0:0:
207,48,194060,2,0,P|142:76|103:136,2,144,8|0|8,0:0|0:0|0:0,0:0:0:0:
220,120,194754,6,0,P|304:128|300:240,1,216,0|8,0:0|0:0,0:0:0:0:
232,252,195310,2,0,P|200:232|184:200,2,72
256,184,195726,2,0,P|316:148|392:132,2,144,8|0|8,0:0|0:0|0:0,0:0:0:0:
232,252,196421,2,0,P|170:288|100:303,2,144,2|0|0,0:0|0:0|0:0,0:0:0:0:
264,316,197115,2,0,P|325:352|395:367,1,144,0|8,0:0|0:0,0:0:0:0:
372,56,197671,5,0,0:0:0:0:
256,144,197948,1,8,0:0:0:0:
140,56,198226,2,0,P|128:128|80:180,1,144,0|8,0:0|0:0,0:0:0:0:
108,248,198643,2,0,P|128:280|220:328,1,144,0|0,0:0|0:0,0:0:0:0:
252,264,199060,2,0,P|272:232|364:184,1,144,8|8,0:0|0:0,0:0:0:0:
328,324,199615,5,8,0:0:0:0:
184,324,199893,1,8,0:0:0:0:
140,188,200171,1,8,0:0:0:0:
256,104,200448,1,8,0:0:0:0:
372,188,200726,1,8,0:0:0:0:
328,324,201004,2,0,L|180:324,2,144,8|8|4,0:0|0:0|0:0,0:0:0:0:
256,192,201629,12,8,202948,0:0:0:0:
128,128,203226,6,0,P|100:196|128:256,1,144,0|8,0:0|0:0,0:0:0:0:
256,320,203782,2,0,P|284:252|256:192,1,144,2|8,0:0|0:0,0:0:0:0:
128,128,204337,5,0,0:0:0:0:
256,64,204615,1,8,0:0:0:0:
384,128,204893,1,0,0:0:0:0:
256,192,205171,2,0,L|218:254,2,72,8|0|2,0:0|0:0|0:0,0:0:0:0:
332,316,205726,1,8,0:0:0:0:
256,192,206004,12,8,207948,0:0:0:0:
203,315,208226,6,0,P|139:284|96:228,1,144,2|8,0:0|0:0,0:0:0:0:
308,315,208782,2,0,P|372:284|415:228,1,144,0|8,0:0|0:0,0:0:0:0:
256,192,209337,5,8,0:0:0:0:
256,192,209476,1,8,0:0:0:0:
256,48,209754,1,8,0:0:0:0:
256,48,209893,2,0,L|256:192,1,144,0|8,0:0|0:0,0:0:0:0:
256,336,210448,5,4,0:0:0:0:
