osu file format v13

[General]
AudioFilename: Connect.mp3
AudioLeadIn: 500
PreviewTime: 74268
Countdown: 0
SampleSet: Normal
StackLeniency: 0.7
Mode: 1
LetterboxInBreaks: 0
WidescreenStoryboard: 0

[Editor]
Bookmarks: 1695,21696,48362,92807,101696,137251,155029,163918,172807,183918,201696,210584
DistanceSpacing: 0.5
BeatDivisor: 4
GridSize: 32
TimelineZoom: 1

[Metadata]
Title:Connect (Nightcore Trance Remix)
TitleUnicode:コネクト (Nightcore Trance Remix)
Artist:ClariS
ArtistUnicode:ClariS
Creator:Naryuga
Version:Taiko Oni
Source:Puella Magi Madoka Magica
Tags:Konekuto Mahou Shoujo Madoka Magica opening 魔法少女まどか☆マギカ testmx1
BeatmapID:207425
BeatmapSetID:59482

[Difficulty]
HPDrainRate:5
CircleSize:5
OverallDifficulty:5
ApproachRate:9
SliderMultiplier:1.4
SliderTickRate:1

[Events]
//Background and Video events
0,0,"TaikoBGa.jpg",0,60
//Break Periods
//Storyboard Layer 0 (Background)
//Storyboard Layer 1 (Fail)
//Storyboard Layer 2 (Pass)
//Storyboard Layer 3 (Foreground)
//Storyboard Sound Samples
//Background Colour Transformations
3,100,163,162,255

[TimingPoints]
1560,277.777777777778,4,1,0,90,1,0
74893,-100,4,1,0,90,0,1
92671,-100,4,1,0,90,0,0
137115,-100,4,1,0,90,0,1
154893,-100,4,1,0,90,0,0
183782,-100,4,1,0,90,0,1
201560,-100,4,1,0,90,0,0

[Colours]
Combo1 : 112,196,193
Combo2 : 243,89,34

[HitObjects]
256,192,1559,1,4,0:0:0:0:
256,192,1837,1,8,0:0:0:0:
256,192,2115,1,0,0:0:0:0:
256,192,2254,1,0,0:0:0:0:
256,192,2393,1,8,0:0:0:0:
256,192,2532,1,0,0:0:0:0:
256,192,2810,1,0,0:0:0:0:
256,192,2948,1,8,0:0:0:0:
256,192,3226,1,0,0:0:0:0:
256,192,3504,1,8,0:0:0:0:
256,192,3782,1,0,0:0:0:0:
256,192,4059,1,8,0:0:0:0:
256,192,4337,1,8,0:0:0:0:
256,192,4476,1,0,0:0:0:0:
256,192,4615,1,8,0:0:0:0:
256,192,4754,1,0,0:0:0:0:
256,192,5032,1,8,0:0:0:0:
256,192,5310,1,0,0:0:0:0:
256,192,5448,1,8,0:0:0:0:
256,192,5726,1,8,0:0:0:0:
256,192,6004,1,0,0:0:0:0:
256,192,6143,1,0,0:0:0:0:
256,192,6282,1,8,0:0:0:0:
256,192,6559,1,0,0:0:0:0:
256,192,6698,1,0,0:0:0:0:
256,192,6837,1,8,0:0:0:0:
256,192,7115,1,0,0:0:0:0:
256,192,7254,1,0,0:0:0:0:
256,192,7393,1,8,0:0:0:0:
256,192,7532,1,0,0:0:0:0:
256,192,7671,1,0,0:0:0:0:
256,192,7809,1,0,0:0:0:0:
256,192,7948,1,8,0:0:0:0:
256,192,8226,1,0,0:0:0:0:
256,192,8296,1,0,0:0:0:0:
256,192,8365,1,0,0:0:0:0:
256,192,8504,1,8,0:0:0:0:
256,192,8643,1,0,0:0:0:0:
256,192,8782,1,0,0:0:0:0:
256,192,8851,1,0,0:0:0:0:
256,192,8921,1,0,0:0:0:0:
256,192,9060,1,8,0:0:0:0:
256,192,9198,1,0,0:0:0:0:
256,192,9337,8,0,10448,0:0:0:0:
256,192,11560,5,8,0:0:0:0:
256,192,11976,1,8,0:0:0:0:
256,192,12254,1,8,0:0:0:0:
256,192,12671,1,8,0:0:0:0:
256,192,13226,1,0,0:0:0:0:
256,192,13782,1,8,0:0:0:0:
224,192,14198,1,8,0:0:0:0:
256,192,14615,1,8,0:0:0:0:
256,192,14893,1,0,0:0:0:0:
256,192,16004,1,0,0:0:0:0:
256,192,17115,1,8,0:0:0:0:
256,192,18226,8,0,21282,0:0:0:0:
256,192,21560,5,4,0:0:0:0:
256,192,21837,1,8,0:0:0:0:
256,192,21976,1,0,0:0:0:0:
256,192,22115,1,0,0:0:0:0:
256,192,22254,1,0,0:0:0:0:
256,192,22393,1,8,0:0:0:0:
256,192,22671,1,0,0:0:0:0:
256,192,22948,1,0,0:0:0:0:
256,192,23087,1,8,0:0:0:0:
256,192,23157,1,8,0:0:0:0:
256,192,23226,1,8,0:0:0:0:
256,192,23365,1,0,0:0:0:0:
256,192,23504,1,8,0:0:0:0:
256,192,23782,1,0,0:0:0:0:
256,192,24060,1,8,0:0:0:0:
256,192,24198,1,0,0:0:0:0:
256,192,24337,1,0,0:0:0:0:
256,192,24476,1,0,0:0:0:0:
256,192,24615,1,8,0:0:0:0:
256,192,24893,1,0,0:0:0:0:
256,192,25032,1,8,0:0:0:0:
256,192,25101,1,8,0:0:0:0:
256,192,25171,1,0,0:0:0:0:
256,192,25310,1,0,0:0:0:0:
256,192,25448,1,8,0:0:0:0:
256,192,25726,1,8,0:0:0:0:
256,192,26004,1,0,0:0:0:0:
256,192,26282,1,8,0:0:0:0:
256,192,26421,1,0,0:0:0:0:
256,192,26560,1,0,0:0:0:0:
256,192,26698,1,0,0:0:0:0:
256,192,26837,1,8,0:0:0:0:
256,192,27115,1,0,0:0:0:0:
256,192,27254,1,8,0:0:0:0:
256,192,27393,1,0,0:0:0:0:
256,192,27462,1,0,0:0:0:0:
256,192,27532,1,8,0:0:0:0:
256,192,27671,1,8,0:0:0:0:
256,192,27948,1,8,0:0:0:0:
256,192,28226,1,0,0:0:0:0:
256,192,28504,1,8,0:0:0:0:
256,192,28643,1,0,0:0:0:0:
256,192,28782,1,0,0:0:0:0:
256,192,28921,1,0,0:0:0:0:
256,192,28990,1,0,0:0:0:0:
256,192,29060,1,8,0:0:0:0:
256,192,29337,1,0,0:0:0:0:
256,192,29476,1,0,0:0:0:0:
256,192,29754,1,0,0:0:0:0:
256,192,29893,1,0,0:0:0:0:
256,192,29962,1,8,0:0:0:0:
256,192,30032,1,0,0:0:0:0:
256,192,30171,1,8,0:0:0:0:
256,192,30310,1,0,0:0:0:0:
256,192,30448,1,14,0:0:0:0:
256,192,30726,1,8,0:0:0:0:
256,192,30865,1,8,0:0:0:0:
256,192,31004,1,0,0:0:0:0:
256,192,31143,1,0,0:0:0:0:
256,192,31282,1,8,0:0:0:0:
256,192,31560,1,0,0:0:0:0:
256,192,31698,1,0,0:0:0:0:
256,192,31837,1,8,0:0:0:0:
256,192,31976,1,0,0:0:0:0:
256,192,32115,1,8,0:0:0:0:
256,192,32254,1,0,0:0:0:0:
256,192,32323,1,0,0:0:0:0:
256,192,32393,1,8,0:0:0:0:
256,192,32532,1,0,0:0:0:0:
256,192,32671,1,0,0:0:0:0:
256,192,32948,1,8,0:0:0:0:
256,192,33087,1,0,0:0:0:0:
256,192,33226,1,0,0:0:0:0:
256,192,33365,1,8,0:0:0:0:
256,192,33504,1,8,0:0:0:0:
256,192,33782,1,0,0:0:0:0:
256,192,33921,1,8,0:0:0:0:
256,192,33990,1,8,0:0:0:0:
256,192,34060,1,8,0:0:0:0:
256,192,34198,1,0,0:0:0:0:
256,192,34337,1,8,0:0:0:0:
256,192,34476,1,0,0:0:0:0:
256,192,34615,1,8,0:0:0:0:
256,192,34754,1,8,0:0:0:0:
256,192,34893,1,0,0:0:0:0:
256,192,35171,1,8,0:0:0:0:
256,192,35310,1,0,0:0:0:0:
256,192,35448,1,0,0:0:0:0:
256,192,35518,1,0,0:0:0:0:
256,192,35587,1,0,0:0:0:0:
256,192,35726,1,8,0:0:0:0:
256,192,36004,1,0,0:0:0:0:
256,192,36143,1,8,0:0:0:0:
256,192,36282,1,0,0:0:0:0:
256,192,36421,1,0,0:0:0:0:
256,192,36560,1,8,0:0:0:0:
256,192,36629,1,8,0:0:0:0:
256,192,36698,1,0,0:0:0:0:
256,192,36837,1,8,0:0:0:0:
256,192,36976,1,0,0:0:0:0:
256,192,37115,1,0,0:0:0:0:
256,192,37393,1,8,0:0:0:0:
256,192,37532,1,0,0:0:0:0:
256,192,37671,1,0,0:0:0:0:
256,192,37810,1,8,0:0:0:0:
256,192,37879,1,8,0:0:0:0:
256,192,37948,1,8,0:0:0:0:
256,192,38226,1,0,0:0:0:0:
256,192,38365,1,8,0:0:0:0:
256,192,38504,1,0,0:0:0:0:
256,192,38643,1,8,0:0:0:0:
256,192,38712,1,8,0:0:0:0:
256,192,38782,1,8,0:0:0:0:
256,192,38921,1,0,0:0:0:0:
256,192,39060,1,8,0:0:0:0:
256,192,39337,1,4,0:0:0:0:
256,192,39615,1,8,0:0:0:0:
256,192,39893,1,0,0:0:0:0:
256,192,40310,1,8,0:0:0:0:
256,192,40726,1,0,0:0:0:0:
256,192,40865,1,8,0:0:0:0:
256,192,41143,1,8,0:0:0:0:
256,192,41421,1,0,0:0:0:0:
256,192,41837,1,0,0:0:0:0:
256,192,42115,1,8,0:0:0:0:
256,192,42532,1,0,0:0:0:0:
256,192,43365,1,8,0:0:0:0:
256,192,43782,1,0,0:0:0:0:
256,192,44060,1,0,0:0:0:0:
256,192,44337,1,8,0:0:0:0:
256,192,44754,1,8,0:0:0:0:
256,192,45171,1,8,0:0:0:0:
256,192,45310,1,0,0:0:0:0:
256,192,45587,1,8,0:0:0:0:
256,192,45865,1,8,0:0:0:0:
256,192,46004,1,0,0:0:0:0:
256,192,46560,1,8,0:0:0:0:
256,192,47115,1,0,0:0:0:0:
256,192,47671,1,0,0:0:0:0:
256,192,48226,1,0,0:0:0:0:
256,192,48504,1,8,0:0:0:0:
256,192,48643,1,0,0:0:0:0:
256,192,48921,1,0,0:0:0:0:
256,192,49060,1,8,0:0:0:0:
256,192,49198,1,8,0:0:0:0:
256,192,49337,1,0,0:0:0:0:
256,192,49615,1,8,0:0:0:0:
256,192,49754,1,8,0:0:0:0:
256,192,50032,1,0,0:0:0:0:
256,192,50171,1,8,0:0:0:0:
256,192,50310,1,8,0:0:0:0:
256,192,50448,1,0,0:0:0:0:
256,192,50726,1,8,0:0:0:0:
256,192,51004,1,8,0:0:0:0:
256,192,51143,1,0,0:0:0:0:
256,192,51282,1,8,0:0:0:0:
256,192,51421,1,8,0:0:0:0:
256,192,51560,1,0,0:0:0:0:
256,192,51837,1,8,0:0:0:0:
256,192,51976,1,0,0:0:0:0:
256,192,52115,1,0,0:0:0:0:
256,192,52254,1,8,0:0:0:0:
256,192,52532,1,8,0:0:0:0:
256,192,52671,1,0,0:0:0:0:
256,192,52948,1,8,0:0:0:0:
256,192,53087,1,0,0:0:0:0:
256,192,53226,1,8,0:0:0:0:
256,192,53365,1,0,0:0:0:0:
256,192,53643,1,8,0:0:0:0:
256,192,53782,1,0,0:0:0:0:
256,192,53921,1,8,0:0:0:0:
256,192,54060,1,8,0:0:0:0:
256,192,54198,1,0,0:0:0:0:
256,192,54337,1,8,0:0:0:0:
256,192,54476,1,0,0:0:0:0:
256,192,54615,1,8,0:0:0:0:
256,192,54754,1,8,0:0:0:0:
256,192,54893,1,0,0:0:0:0:
256,192,55171,1,8,0:0:0:0:
256,192,55310,1,0,0:0:0:0:
256,192,55587,1,0,0:0:0:0:
256,192,55726,1,8,0:0:0:0:
256,192,56004,1,8,0:0:0:0:
256,192,56143,1,8,0:0:0:0:
256,192,56421,1,8,0:0:0:0:
256,192,56560,1,8,0:0:0:0:
256,192,56837,1,0,0:0:0:0:
256,192,57115,1,4,0:0:0:0:
256,192,57393,1,8,0:0:0:0:
256,192,57532,1,8,0:0:0:0:
256,192,57671,1,0,0:0:0:0:
256,192,57948,1,8,0:0:0:0:
256,192,58087,1,0,0:0:0:0:
256,192,58365,1,0,0:0:0:0:
256,192,58504,1,8,0:0:0:0:
256,192,58643,1,8,0:0:0:0:
256,192,58782,1,0,0:0:0:0:
256,192,59060,1,8,0:0:0:0:
256,192,59337,1,0,0:0:0:0:
256,192,59615,1,8,0:0:0:0:
256,192,59754,1,0,0:0:0:0:
256,192,60032,1,0,0:0:0:0:
256,192,60171,1,8,0:0:0:0:
256,192,60448,1,0,0:0:0:0:
256,192,60587,1,8,0:0:0:0:
256,192,60657,1,8,0:0:0:0:
256,192,60726,1,0,0:0:0:0:
256,192,60865,1,0,0:0:0:0:
256,192,61004,1,8,0:0:0:0:
256,192,61282,1,8,0:0:0:0:
256,192,61421,1,8,0:0:0:0:
256,192,61560,1,0,0:0:0:0:
256,192,61837,1,8,0:0:0:0:
256,192,61976,1,0,0:0:0:0:
256,192,62254,1,0,0:0:0:0:
256,192,62393,1,8,0:0:0:0:
256,192,62671,1,0,0:0:0:0:
256,192,62810,1,8,0:0:0:0:
256,192,62879,1,8,0:0:0:0:
256,192,62948,1,8,0:0:0:0:
256,192,63087,1,0,0:0:0:0:
256,192,63226,1,8,0:0:0:0:
256,192,63504,1,8,0:0:0:0:
256,192,63643,1,0,0:0:0:0:
256,192,63782,1,0,0:0:0:0:
256,192,63851,1,0,0:0:0:0:
256,192,63921,1,0,0:0:0:0:
256,192,64060,1,8,0:0:0:0:
256,192,64337,1,0,0:0:0:0:
256,192,64407,1,0,0:0:0:0:
256,192,64476,1,0,0:0:0:0:
256,192,64615,1,8,0:0:0:0:
256,192,64754,1,0,0:0:0:0:
256,192,65032,1,8,0:0:0:0:
256,192,65171,1,0,0:0:0:0:
256,192,65310,1,0,0:0:0:0:
256,192,65379,1,0,0:0:0:0:
256,192,65448,1,8,0:0:0:0:
256,192,65587,1,0,0:0:0:0:
256,192,65726,1,8,0:0:0:0:
256,192,65865,1,8,0:0:0:0:
256,192,66004,1,4,0:0:0:0:
256,192,66282,1,8,0:0:0:0:
256,192,66421,1,8,0:0:0:0:
256,192,66698,1,0,0:0:0:0:
256,192,66837,1,8,0:0:0:0:
256,192,66976,1,0,0:0:0:0:
256,192,67254,1,0,0:0:0:0:
256,192,67393,1,8,0:0:0:0:
256,192,67532,1,8,0:0:0:0:
256,192,67671,1,0,0:0:0:0:
256,192,67948,1,8,0:0:0:0:
256,192,68087,1,0,0:0:0:0:
256,192,68226,1,8,0:0:0:0:
256,192,68365,1,0,0:0:0:0:
256,192,68504,1,0,0:0:0:0:
256,192,68643,1,8,0:0:0:0:
256,192,68921,1,0,0:0:0:0:
256,192,69060,1,8,0:0:0:0:
256,192,69198,1,0,0:0:0:0:
256,192,69476,1,8,0:0:0:0:
256,192,69615,1,0,0:0:0:0:
256,192,69754,1,0,0:0:0:0:
256,192,69823,1,0,0:0:0:0:
256,192,69893,1,8,0:0:0:0:
256,192,70032,1,0,0:0:0:0:
256,192,70171,1,8,0:0:0:0:
256,192,70448,1,0,0:0:0:0:
256,192,70587,1,0,0:0:0:0:
256,192,70726,1,8,0:0:0:0:
256,192,70865,1,8,0:0:0:0:
256,192,71004,1,0,0:0:0:0:
256,192,71143,1,0,0:0:0:0:
256,192,71282,1,8,0:0:0:0:
256,192,71560,1,0,0:0:0:0:
256,192,71698,1,0,0:0:0:0:
256,192,71837,1,8,0:0:0:0:
256,192,71976,1,8,0:0:0:0:
256,192,72115,1,0,0:0:0:0:
256,192,72254,1,0,0:0:0:0:
256,192,72393,1,8,0:0:0:0:
256,192,72671,1,0,0:0:0:0:
256,192,72740,1,0,0:0:0:0:
256,192,72809,1,0,0:0:0:0:
256,192,72948,1,8,0:0:0:0:
256,192,73087,1,8,0:0:0:0:
256,192,73226,1,0,0:0:0:0:
256,192,73296,1,0,0:0:0:0:
256,192,73365,1,0,0:0:0:0:
256,192,73504,1,8,0:0:0:0:
256,192,73573,1,8,0:0:0:0:
256,192,73643,1,8,0:0:0:0:
256,192,73782,1,0,0:0:0:0:
256,192,74893,1,4,0:0:0:0:
256,192,75171,1,8,0:0:0:0:
256,192,75309,1,0,0:0:0:0:
256,192,75448,1,8,0:0:0:0:
256,192,75587,1,8,0:0:0:0:
256,192,75865,1,0,0:0:0:0:
256,192,76004,1,8,0:0:0:0:
256,192,76143,1,8,0:0:0:0:
256,192,76282,1,0,0:0:0:0:
256,192,76421,1,8,0:0:0:0:
256,192,76698,1,8,0:0:0:0:
256,192,76976,1,8,0:0:0:0:
256,192,77115,1,0,0:0:0:0:
256,192,77254,1,0,0:0:0:0:
256,192,77393,1,8,0:0:0:0:
256,192,77532,1,0,0:0:0:0:
256,192,77601,1,0,0:0:0:0:
256,192,77671,1,8,0:0:0:0:
256,192,77809,1,8,0:0:0:0:
256,192,78087,1,0,0:0:0:0:
256,192,78226,1,8,0:0:0:0:
256,192,78365,1,0,0:0:0:0:
256,192,78435,1,0,0:0:0:0:
256,192,78504,1,8,0:0:0:0:
256,192,78643,1,8,0:0:0:0:
256,192,78782,1,0,0:0:0:0:
256,192,78921,1,0,0:0:0:0:
256,192,79059,1,8,0:0:0:0:
256,192,79337,1,0,0:0:0:0:
256,192,79615,1,8,0:0:0:0:
256,192,79754,1,0,0:0:0:0:
256,192,79893,1,8,0:0:0:0:
256,192,80032,1,8,0:0:0:0:
256,192,80309,1,8,0:0:0:0:
256,192,80448,1,0,0:0:0:0:
256,192,80587,1,0,0:0:0:0:
256,192,80657,1,0,0:0:0:0:
256,192,80726,1,8,0:0:0:0:
256,192,80865,1,8,0:0:0:0:
256,192,81143,1,8,0:0:0:0:
256,192,81421,1,8,0:0:0:0:
256,192,81559,1,0,0:0:0:0:
256,192,81698,1,0,0:0:0:0:
256,192,81837,1,8,0:0:0:0:
256,192,82115,1,0,0:0:0:0:
256,192,82254,1,0,0:0:0:0:
256,192,82393,1,8,0:0:0:0:
256,192,82532,1,0,0:0:0:0:
256,192,82671,1,8,0:0:0:0:
256,192,82809,1,8,0:0:0:0:
256,192,83087,1,8,0:0:0:0:
256,192,83226,1,0,0:0:0:0:
256,192,83296,1,0,0:0:0:0:
256,192,83365,1,0,0:0:0:0:
256,192,83504,1,8,0:0:0:0:
256,192,83643,1,8,0:0:0:0:
256,192,83782,1,4,0:0:0:0:
256,192,84059,1,8,0:0:0:0:
256,192,84198,1,0,0:0:0:0:
256,192,84337,1,8,0:0:0:0:
256,192,84476,1,8,0:0:0:0:
256,192,84754,1,0,0:0:0:0:
256,192,84823,1,0,0:0:0:0:
256,192,84893,1,8,0:0:0:0:
256,192,85032,1,8,0:0:0:0:
256,192,85171,1,0,0:0:0:0:
256,192,85309,1,8,0:0:0:0:
256,192,85587,1,8,0:0:0:0:
256,192,85865,1,8,0:0:0:0:
256,192,86004,1,0,0:0:0:0:
256,192,86282,1,8,0:0:0:0:
256,192,86421,1,0,0:0:0:0:
256,192,86559,1,8,0:0:0:0:
256,192,86698,1,8,0:0:0:0:
256,192,86837,1,0,0:0:0:0:
256,192,86977,1,0,0:0:0:0:
256,192,87046,1,0,0:0:0:0:
256,192,87115,1,8,0:0:0:0:
256,192,87254,1,0,0:0:0:0:
256,192,87393,1,0,0:0:0:0:
256,192,87532,1,8,0:0:0:0:
256,192,87809,1,0,0:0:0:0:
256,192,88087,1,8,0:0:0:0:
256,192,88226,1,8,0:0:0:0:
256,192,88504,1,0,0:0:0:0:
256,192,88782,1,8,0:0:0:0:
256,192,88921,1,0,0:0:0:0:
256,192,89059,1,8,0:0:0:0:
256,192,89198,1,8,0:0:0:0:
256,192,89268,1,8,0:0:0:0:
256,192,89337,1,0,0:0:0:0:
256,192,89476,1,0,0:0:0:0:
256,192,89615,1,8,0:0:0:0:
256,192,89754,1,0,0:0:0:0:
256,192,90032,1,0,0:0:0:0:
256,192,90171,1,8,0:0:0:0:
256,192,90309,1,8,0:0:0:0:
256,192,90448,1,0,0:0:0:0:
256,192,90726,1,8,0:0:0:0:
256,192,90865,1,0,0:0:0:0:
256,192,91004,1,0,0:0:0:0:
256,192,91282,1,8,0:0:0:0:
256,192,91559,1,0,0:0:0:0:
256,192,92115,1,8,0:0:0:0:
256,192,92254,1,0,0:0:0:0:
256,192,92393,1,8,0:0:0:0:
256,192,92671,1,4,0:0:0:0:
256,192,92948,1,8,0:0:0:0:
256,192,93087,1,0,0:0:0:0:
256,192,93226,1,0,0:0:0:0:
256,192,93365,1,0,0:0:0:0:
256,192,93504,1,8,0:0:0:0:
256,192,93782,1,0,0:0:0:0:
256,192,93921,1,8,0:0:0:0:
256,192,93990,1,8,0:0:0:0:
256,192,94059,1,0,0:0:0:0:
256,192,94198,1,8,0:0:0:0:
256,192,94337,1,0,0:0:0:0:
256,192,94615,1,8,0:0:0:0:
256,192,94754,1,0,0:0:0:0:
256,192,94893,1,0,0:0:0:0:
256,192,95171,1,8,0:0:0:0:
256,192,95309,1,0,0:0:0:0:
256,192,95448,1,0,0:0:0:0:
256,192,95587,1,0,0:0:0:0:
256,192,95726,1,8,0:0:0:0:
256,192,96004,1,0,0:0:0:0:
256,192,96143,1,8,0:0:0:0:
256,192,96212,1,8,0:0:0:0:
256,192,96282,1,0,0:0:0:0:
256,192,96421,1,0,0:0:0:0:
256,192,96559,1,8,0:0:0:0:
256,192,96837,1,8,0:0:0:0:
256,192,96976,1,8,0:0:0:0:
256,192,97115,1,0,0:0:0:0:
256,192,97393,1,0,0:0:0:0:
256,192,97532,1,8,0:0:0:0:
256,192,97671,1,0,0:0:0:0:
256,192,97809,1,8,0:0:0:0:
256,192,97948,1,8,0:0:0:0:
256,192,98226,1,0,0:0:0:0:
256,192,98365,1,0,0:0:0:0:
256,192,98435,1,0,0:0:0:0:
256,192,98504,1,8,0:0:0:0:
256,192,98643,1,0,0:0:0:0:
256,192,98782,1,8,0:0:0:0:
256,192,99059,1,8,0:0:0:0:
256,192,99198,1,0,0:0:0:0:
256,192,99337,1,0,0:0:0:0:
256,192,99615,1,0,0:0:0:0:
256,192,99754,1,0,0:0:0:0:
256,192,99893,1,0,0:0:0:0:
256,192,100032,1,8,0:0:0:0:
256,192,100171,1,8,0:0:0:0:
256,192,100448,1,0,0:0:0:0:
256,192,100726,1,0,0:0:0:0:
256,192,100865,1,8,0:0:0:0:
256,192,101004,1,0,0:0:0:0:
256,192,101073,1,0,0:0:0:0:
256,192,101143,1,0,0:0:0:0:
256,192,101212,1,0,0:0:0:0:
256,192,101282,1,8,0:0:0:0:
256,192,101559,1,4,0:0:0:0:
256,192,101837,1,8,0:0:0:0:
256,192,101976,1,0,0:0:0:0:
256,192,102046,1,0,0:0:0:0:
256,192,102115,1,0,0:0:0:0:
256,192,102254,1,0,0:0:0:0:
256,192,102393,1,8,0:0:0:0:
256,192,102532,1,8,0:0:0:0:
256,192,102671,1,0,0:0:0:0:
256,192,102948,1,8,0:0:0:0:
256,192,103087,1,0,0:0:0:0:
256,192,103226,1,0,0:0:0:0:
256,192,103365,1,8,0:0:0:0:
256,192,103504,1,0,0:0:0:0:
256,192,103643,1,8,0:0:0:0:
256,192,103782,1,0,0:0:0:0:
256,192,104059,1,8,0:0:0:0:
256,192,104198,1,0,0:0:0:0:
256,192,104268,1,0,0:0:0:0:
256,192,104337,1,8,0:0:0:0:
256,192,104476,1,0,0:0:0:0:
256,192,104754,1,8,0:0:0:0:
256,192,104893,1,0,0:0:0:0:
256,192,104962,1,0,0:0:0:0:
256,192,105032,1,8,0:0:0:0:
256,192,105171,1,8,0:0:0:0:
256,192,105309,1,0,0:0:0:0:
256,192,105448,1,8,0:0:0:0:
256,192,105587,1,0,0:0:0:0:
256,192,105865,1,8,0:0:0:0:
256,192,106004,1,8,0:0:0:0:
256,192,106282,1,0,0:0:0:0:
256,192,106559,1,0,0:0:0:0:
256,192,106698,1,0,0:0:0:0:
256,192,106837,1,8,0:0:0:0:
256,192,106976,1,8,0:0:0:0:
256,192,107254,1,0,0:0:0:0:
256,192,107323,1,0,0:0:0:0:
256,192,107393,1,8,0:0:0:0:
256,192,107532,1,0,0:0:0:0:
256,192,107809,1,8,0:0:0:0:
256,192,107948,1,0,0:0:0:0:
256,192,108087,1,8,0:0:0:0:
256,192,108226,1,0,0:0:0:0:
256,192,108504,1,0,0:0:0:0:
256,192,108782,1,8,0:0:0:0:
256,192,109059,1,8,0:0:0:0:
256,192,109337,1,0,0:0:0:0:
256,192,109476,1,8,0:0:0:0:
256,192,109615,1,0,0:0:0:0:
256,192,109754,1,0,0:0:0:0:
256,192,109893,1,8,0:0:0:0:
256,192,109962,1,8,0:0:0:0:
256,192,110032,1,8,0:0:0:0:
256,192,110171,1,0,0:0:0:0:
256,192,110310,1,8,0:0:0:0:
256,192,110448,1,0,0:0:0:0:
256,192,110726,1,14,0:0:0:0:
256,192,111004,1,0,0:0:0:0:
256,192,111143,1,8,0:0:0:0:
256,192,111213,1,0,0:0:0:0:
256,192,111282,1,0,0:0:0:0:
256,192,111421,1,0,0:0:0:0:
256,192,111559,1,8,0:0:0:0:
256,192,111837,1,0,0:0:0:0:
256,192,111976,1,8,0:0:0:0:
256,192,112115,1,0,0:0:0:0:
256,192,112254,1,8,0:0:0:0:
256,192,112393,1,8,0:0:0:0:
256,192,112532,1,0,0:0:0:0:
256,192,112671,1,8,0:0:0:0:
256,192,112948,1,8,0:0:0:0:
256,192,113087,1,0,0:0:0:0:
256,192,113226,1,8,0:0:0:0:
256,192,113365,1,8,0:0:0:0:
256,192,113434,1,8,0:0:0:0:
256,192,113504,1,0,0:0:0:0:
256,192,113643,1,8,0:0:0:0:
256,192,113782,1,0,0:0:0:0:
256,192,113921,1,8,0:0:0:0:
256,192,114059,1,8,0:0:0:0:
256,192,114198,1,0,0:0:0:0:
256,192,114337,1,8,0:0:0:0:
256,192,114476,1,0,0:0:0:0:
256,192,114754,1,0,0:0:0:0:
256,192,114893,1,8,0:0:0:0:
256,192,115171,1,0,0:0:0:0:
256,192,115309,1,0,0:0:0:0:
256,192,115448,1,8,0:0:0:0:
256,192,115587,1,0,0:0:0:0:
256,192,115726,1,0,0:0:0:0:
256,192,115865,1,8,0:0:0:0:
256,192,116143,1,8,0:0:0:0:
256,192,116282,1,8,0:0:0:0:
256,192,116421,1,0,0:0:0:0:
256,192,116559,1,0,0:0:0:0:
256,192,116837,1,8,0:0:0:0:
256,192,116976,1,0,0:0:0:0:
256,192,117115,1,8,0:0:0:0:
256,192,117393,1,0,0:0:0:0:
256,192,117532,1,8,0:0:0:0:
256,192,117671,1,0,0:0:0:0:
256,192,117809,1,8,0:0:0:0:
256,192,117879,1,8,0:0:0:0:
256,192,117948,1,0,0:0:0:0:
256,192,118226,1,8,0:0:0:0:
256,192,118365,1,8,0:0:0:0:
257,198,118504,1,0,0:0:0:0:
257,198,118643,1,0,0:0:0:0:
256,192,118782,1,8,0:0:0:0:
256,192,118921,1,0,0:0:0:0:
263,192,118990,1,0,0:0:0:0:
256,192,119060,1,8,0:0:0:0:
256,192,119198,1,8,0:0:0:0:
256,192,119337,1,4,0:0:0:0:
256,196,119615,1,8,0:0:0:0:
256,196,119893,1,0,0:0:0:0:
256,196,120032,1,0,0:0:0:0:
256,196,120171,1,8,0:0:0:0:
256,196,120448,1,0,0:0:0:0:
256,196,120587,1,0,0:0:0:0:
256,196,120657,1,0,0:0:0:0:
256,196,120726,1,8,0:0:0:0:
256,196,120865,1,0,0:0:0:0:
256,196,121004,1,8,0:0:0:0:
256,196,121143,1,0,0:0:0:0:
256,196,121282,1,0,0:0:0:0:
256,196,121351,1,0,0:0:0:0:
256,196,121421,1,8,0:0:0:0:
256,196,121559,1,8,0:0:0:0:
256,196,121837,1,0,0:0:0:0:
256,196,122115,1,8,0:0:0:0:
256,196,122254,1,8,0:0:0:0:
256,196,122393,1,0,0:0:0:0:
256,196,122532,1,8,0:0:0:0:
256,196,122671,1,0,0:0:0:0:
256,196,122809,1,8,0:0:0:0:
256,196,122948,1,0,0:0:0:0:
256,196,123018,1,0,0:0:0:0:
256,196,123087,1,8,0:0:0:0:
256,196,123157,1,0,0:0:0:0:
256,196,123226,1,0,0:0:0:0:
256,196,123365,1,0,0:0:0:0:
256,196,123504,1,8,0:0:0:0:
256,196,123782,1,0,0:0:0:0:
256,196,124059,1,8,0:0:0:0:
256,196,124337,1,0,0:0:0:0:
256,196,124476,1,0,0:0:0:0:
256,196,124615,1,8,0:0:0:0:
256,196,124893,1,0,0:0:0:0:
256,196,125032,1,0,0:0:0:0:
256,196,125101,1,0,0:0:0:0:
256,196,125171,1,8,0:0:0:0:
256,196,125309,1,0,0:0:0:0:
256,196,125448,1,8,0:0:0:0:
256,196,125587,1,0,0:0:0:0:
256,196,125726,1,0,0:0:0:0:
256,196,125796,1,0,0:0:0:0:
256,196,125865,1,8,0:0:0:0:
256,196,126004,1,8,0:0:0:0:
256,196,126282,1,0,0:0:0:0:
256,196,126559,1,8,0:0:0:0:
256,196,126698,1,8,0:0:0:0:
256,196,126837,1,0,0:0:0:0:
256,196,126976,1,8,0:0:0:0:
256,196,127115,1,0,0:0:0:0:
256,196,127254,1,8,0:0:0:0:
256,196,127393,1,0,0:0:0:0:
256,196,127462,1,0,0:0:0:0:
256,196,127532,1,8,0:0:0:0:
256,196,127601,1,0,0:0:0:0:
256,196,127671,1,0,0:0:0:0:
256,196,127809,1,8,0:0:0:0:
256,196,127948,1,0,0:0:0:0:
256,196,128087,1,8,0:0:0:0:
256,196,128226,1,4,0:0:0:0:
256,196,128504,1,8,0:0:0:0:
256,196,128643,1,8,0:0:0:0:
256,196,128782,1,0,0:0:0:0:
256,196,128921,1,0,0:0:0:0:
256,196,129059,1,8,0:0:0:0:
256,196,129198,1,0,0:0:0:0:
256,196,129476,1,0,0:0:0:0:
256,196,129546,1,0,0:0:0:0:
256,196,129615,1,8,0:0:0:0:
256,196,129754,1,8,0:0:0:0:
256,196,129893,1,0,0:0:0:0:
256,196,130171,1,8,0:0:0:0:
256,196,130309,1,0,0:0:0:0:
256,196,130448,1,8,0:0:0:0:
256,196,130587,1,8,0:0:0:0:
256,196,130657,1,8,0:0:0:0:
256,196,130726,1,0,0:0:0:0:
256,196,130865,1,8,0:0:0:0:
256,196,131143,1,0,0:0:0:0:
256,196,131282,1,8,0:0:0:0:
256,196,131421,1,8,0:0:0:0:
256,196,131559,1,0,0:0:0:0:
256,196,131698,1,8,0:0:0:0:
256,196,131768,1,8,0:0:0:0:
256,196,131837,1,0,0:0:0:0:
256,196,131976,1,0,0:0:0:0:
256,196,132115,1,8,0:0:0:0:
256,196,132393,1,8,0:0:0:0:
256,196,132671,1,8,0:0:0:0:
256,196,132809,1,0,0:0:0:0:
256,196,132948,1,8,0:0:0:0:
256,196,133226,1,8,0:0:0:0:
256,196,133365,1,0,0:0:0:0:
256,196,133504,1,8,0:0:0:0:
256,196,133782,1,8,0:0:0:0:
256,196,133921,1,0,0:0:0:0:
256,196,133990,1,0,0:0:0:0:
256,196,134059,1,8,0:0:0:0:
256,196,134198,1,0,0:0:0:0:
256,196,134337,1,8,0:0:0:0:
256,196,134476,1,0,0:0:0:0:
256,196,134546,1,0,0:0:0:0:
256,196,134615,1,8,0:0:0:0:
256,196,134893,1,8,0:0:0:0:
256,196,135032,1,0,0:0:0:0:
256,196,135171,1,8,0:0:0:0:
256,196,135309,1,0,0:0:0:0:
256,196,135448,1,8,0:0:0:0:
256,196,135587,1,0,0:0:0:0:
256,196,135726,1,8,0:0:0:0:
256,196,135796,1,0,0:0:0:0:
256,196,135865,1,0,0:0:0:0:
256,196,135934,1,0,0:0:0:0:
256,196,136004,1,8,0:0:0:0:
256,196,137115,1,4,0:0:0:0:
256,196,137393,1,8,0:0:0:0:
256,196,137532,1,0,0:0:0:0:
256,196,137671,1,8,0:0:0:0:
256,196,137809,1,8,0:0:0:0:
256,196,138087,1,8,0:0:0:0:
256,196,138157,1,8,0:0:0:0:
256,196,138226,1,0,0:0:0:0:
256,196,138365,1,0,0:0:0:0:
256,196,138504,1,8,0:0:0:0:
256,196,138643,1,8,0:0:0:0:
256,192,138782,1,0,0:0:0:0:
256,196,138921,1,0,0:0:0:0:
256,196,139059,1,8,0:0:0:0:
256,196,139198,1,0,0:0:0:0:
256,196,139268,1,0,0:0:0:0:
256,196,139337,1,8,0:0:0:0:
256,196,139615,1,0,0:0:0:0:
256,196,139754,1,8,0:0:0:0:
256,196,139823,1,8,0:0:0:0:
256,196,139893,1,8,0:0:0:0:
256,196,140032,1,0,0:0:0:0:
256,196,140310,1,8,0:0:0:0:
256,196,140448,1,8,0:0:0:0:
256,196,140587,1,0,0:0:0:0:
256,196,140726,1,0,0:0:0:0:
256,196,140865,1,8,0:0:0:0:
256,196,140935,1,8,0:0:0:0:
256,196,141004,1,8,0:0:0:0:
256,196,141143,1,0,0:0:0:0:
256,196,141282,1,8,0:0:0:0:
256,196,141559,1,0,0:0:0:0:
256,196,141837,1,8,0:0:0:0:
256,196,141976,1,0,0:0:0:0:
256,192,142046,1,0,0:0:0:0:
256,196,142115,1,8,0:0:0:0:
256,196,142254,1,8,0:0:0:0:
256,196,142532,1,0,0:0:0:0:
256,196,142671,1,8,0:0:0:0:
256,196,142809,1,0,0:0:0:0:
256,196,142878,1,0,0:0:0:0:
256,196,142948,1,8,0:0:0:0:
256,196,143087,1,8,0:0:0:0:
256,196,143365,1,0,0:0:0:0:
256,196,143504,1,0,0:0:0:0:
256,196,143643,1,8,0:0:0:0:
256,196,143782,1,0,0:0:0:0:
256,196,144059,1,8,0:0:0:0:
256,196,144337,1,0,0:0:0:0:
256,196,144476,1,0,0:0:0:0:
256,196,144615,1,8,0:0:0:0:
256,196,144754,1,0,0:0:0:0:
256,196,144893,1,8,0:0:0:0:
256,196,145032,1,8,0:0:0:0:
256,196,145309,1,8,0:0:0:0:
256,196,145448,1,0,0:0:0:0:
256,196,145518,1,0,0:0:0:0:
256,196,145587,1,0,0:0:0:0:
256,196,145726,1,8,0:0:0:0:
256,196,145865,1,8,0:0:0:0:
256,196,146004,1,4,0:0:0:0:
256,196,146282,1,8,0:0:0:0:
256,196,146421,1,0,0:0:0:0:
256,196,146559,1,8,0:0:0:0:
256,196,146698,1,8,0:0:0:0:
256,196,146976,1,0,0:0:0:0:
256,196,147115,1,8,0:0:0:0:
256,196,147254,1,8,0:0:0:0:
256,196,147323,1,8,0:0:0:0:
256,196,147393,1,0,0:0:0:0:
256,196,147532,1,8,0:0:0:0:
256,196,147809,1,8,0:0:0:0:
256,196,148087,1,8,0:0:0:0:
256,196,148226,1,0,0:0:0:0:
256,196,148504,1,8,0:0:0:0:
256,196,148643,1,0,0:0:0:0:
256,192,148712,1,0,0:0:0:0:
256,196,148782,1,8,0:0:0:0:
256,196,148921,1,8,0:0:0:0:
256,192,149060,1,0,0:0:0:0:
256,196,149198,1,0,0:0:0:0:
256,196,149337,1,8,0:0:0:0:
256,196,149476,1,0,0:0:0:0:
256,196,149546,1,0,0:0:0:0:
256,196,149615,1,8,0:0:0:0:
256,196,149754,1,8,0:0:0:0:
256,196,150032,1,0,0:0:0:0:
256,196,150171,1,0,0:0:0:0:
256,196,150309,1,0,0:0:0:0:
256,196,150448,1,8,0:0:0:0:
256,196,150726,1,0,0:0:0:0:
256,196,151004,1,8,0:0:0:0:
256,196,151143,1,0,0:0:0:0:
256,196,151282,1,8,0:0:0:0:
256,196,151559,1,8,0:0:0:0:
256,196,151698,1,0,0:0:0:0:
256,196,151837,1,8,0:0:0:0:
256,196,151976,1,8,0:0:0:0:
256,196,152046,1,8,0:0:0:0:
256,196,152115,1,0,0:0:0:0:
256,196,152254,1,8,0:0:0:0:
256,196,152532,1,8,0:0:0:0:
256,192,152671,1,0,0:0:0:0:
256,196,152948,1,8,0:0:0:0:
256,192,153087,1,0,0:0:0:0:
256,192,153226,1,0,0:0:0:0:
256,192,153365,1,0,0:0:0:0:
256,192,153504,1,8,0:0:0:0:
256,192,153782,1,0,0:0:0:0:
256,192,153921,1,0,0:0:0:0:
256,192,154198,1,0,0:0:0:0:
256,196,154337,1,8,0:0:0:0:
256,196,154476,1,8,0:0:0:0:
256,192,154893,1,4,0:0:0:0:
256,192,155171,1,8,0:0:0:0:
256,192,155309,1,0,0:0:0:0:
256,192,155587,1,0,0:0:0:0:
256,192,155726,1,8,0:0:0:0:
256,192,156004,1,0,0:0:0:0:
256,192,156143,1,8,0:0:0:0:
256,192,156282,1,0,0:0:0:0:
256,192,156421,1,8,0:0:0:0:
256,192,156490,1,8,0:0:0:0:
256,192,156559,1,8,0:0:0:0:
256,192,156698,1,0,0:0:0:0:
256,192,156837,1,8,0:0:0:0:
256,192,157115,1,0,0:0:0:0:
256,192,157393,1,8,0:0:0:0:
256,192,157532,1,0,0:0:0:0:
256,192,157809,1,0,0:0:0:0:
256,192,157948,1,8,0:0:0:0:
256,192,158226,1,0,0:0:0:0:
256,192,158365,1,8,0:0:0:0:
256,192,158434,1,8,0:0:0:0:
256,192,158504,1,0,0:0:0:0:
256,192,158643,1,0,0:0:0:0:
256,192,158782,1,8,0:0:0:0:
256,192,158921,1,0,0:0:0:0:
256,192,159059,1,8,0:0:0:0:
256,192,159337,1,0,0:0:0:0:
256,192,159615,1,8,0:0:0:0:
256,192,159754,1,0,0:0:0:0:
256,192,160032,1,0,0:0:0:0:
256,192,160171,1,8,0:0:0:0:
256,192,160448,1,0,0:0:0:0:
256,192,160587,1,8,0:0:0:0:
256,192,160726,1,0,0:0:0:0:
256,192,160796,1,0,0:0:0:0:
256,192,160865,1,8,0:0:0:0:
256,192,161004,1,8,0:0:0:0:
256,192,161143,1,0,0:0:0:0:
256,192,161282,1,8,0:0:0:0:
256,192,161559,1,0,0:0:0:0:
256,192,161837,1,8,0:0:0:0:
256,192,161976,1,0,0:0:0:0:
256,192,162254,1,0,0:0:0:0:
256,192,162393,1,8,0:0:0:0:
256,192,162671,1,0,0:0:0:0:
256,192,162809,1,0,0:0:0:0:
256,192,162879,1,0,0:0:0:0:
256,192,162948,1,0,0:0:0:0:
256,192,163087,1,8,0:0:0:0:
256,192,163226,1,0,0:0:0:0:
256,192,163504,1,8,0:0:0:0:
256,192,163643,1,0,0:0:0:0:
256,192,163782,1,14,0:0:0:0:
256,192,164059,1,0,0:0:0:0:
256,192,164198,1,8,0:0:0:0:
256,192,164476,1,0,0:0:0:0:
256,192,164546,1,0,0:0:0:0:
256,192,164615,1,8,0:0:0:0:
256,192,164893,1,0,0:0:0:0:
256,192,165032,1,8,0:0:0:0:
256,192,165171,1,0,0:0:0:0:
256,192,165309,1,0,0:0:0:0:
256,192,165448,1,8,0:0:0:0:
256,192,165587,1,0,0:0:0:0:
256,192,165726,1,8,0:0:0:0:
256,192,166004,1,0,0:0:0:0:
256,192,166282,1,8,0:0:0:0:
256,192,166421,1,0,0:0:0:0:
256,192,166698,1,0,0:0:0:0:
256,192,166768,1,0,0:0:0:0:
256,192,166837,1,8,0:0:0:0:
256,192,167115,1,0,0:0:0:0:
256,192,167254,1,8,0:0:0:0:
256,192,167393,1,8,0:0:0:0:
256,192,167532,1,0,0:0:0:0:
256,192,167671,1,8,0:0:0:0:
256,192,167948,1,8,0:0:0:0:
256,192,168226,1,0,0:0:0:0:
256,192,168504,1,8,0:0:0:0:
256,192,168643,1,0,0:0:0:0:
256,192,168921,1,0,0:0:0:0:
256,192,168990,1,0,0:0:0:0:
256,192,169059,1,8,0:0:0:0:
256,192,169337,1,0,0:0:0:0:
256,192,169476,1,8,0:0:0:0:
256,192,169615,1,0,0:0:0:0:
256,192,169754,1,0,0:0:0:0:
256,192,169893,1,8,0:0:0:0:
256,192,170032,1,0,0:0:0:0:
256,192,170171,1,8,0:0:0:0:
256,192,170448,1,0,0:0:0:0:
256,192,170587,1,0,0:0:0:0:
256,192,170726,1,8,0:0:0:0:
256,192,170865,1,0,0:0:0:0:
256,192,171004,1,0,0:0:0:0:
256,192,171143,1,8,0:0:0:0:
256,192,171282,1,8,0:0:0:0:
256,192,171559,1,8,0:0:0:0:
256,192,171629,1,8,0:0:0:0:
256,192,171698,1,8,0:0:0:0:
256,192,171837,1,0,0:0:0:0:
256,192,171976,1,0,0:0:0:0:
256,192,172115,1,8,0:0:0:0:
256,192,172184,1,8,0:0:0:0:
256,192,172254,1,8,0:0:0:0:
256,192,172393,1,0,0:0:0:0:
256,192,172462,1,0,0:0:0:0:
256,192,172532,1,0,0:0:0:0:
256,192,172671,1,14,0:0:0:0:
256,196,172948,1,8,0:0:0:0:
256,196,173087,1,0,0:0:0:0:
256,196,173226,1,8,0:0:0:0:
256,196,173365,1,0,0:0:0:0:
256,196,173643,1,8,0:0:0:0:
256,196,173921,1,8,0:0:0:0:
256,196,174198,1,0,0:0:0:0:
256,196,174476,1,0,0:0:0:0:
256,196,174754,1,0,0:0:0:0:
256,196,174893,1,8,0:0:0:0:
256,196,175171,1,0,0:0:0:0:
256,196,175448,1,8,0:0:0:0:
256,196,175587,1,8,0:0:0:0:
256,196,175865,1,8,0:0:0:0:
256,196,176143,1,0,0:0:0:0:
256,196,176282,1,0,0:0:0:0:
256,196,176421,1,8,0:0:0:0:
256,196,176559,1,0,0:0:0:0:
256,196,176837,1,8,0:0:0:0:
256,196,177115,1,4,0:0:0:0:
256,196,177393,1,8,0:0:0:0:
256,196,177532,1,0,0:0:0:0:
256,196,177671,1,8,0:0:0:0:
256,196,177809,1,0,0:0:0:0:
256,196,178087,1,8,0:0:0:0:
256,196,178365,1,8,0:0:0:0:
256,196,178504,1,8,0:0:0:0:
256,196,178643,1,0,0:0:0:0:
256,196,178782,1,8,0:0:0:0:
256,196,178921,1,0,0:0:0:0:
256,196,179198,1,0,0:0:0:0:
256,196,179337,1,8,0:0:0:0:
256,196,179615,1,0,0:0:0:0:
256,196,179754,1,0,0:0:0:0:
256,196,179893,1,8,0:0:0:0:
256,196,180171,1,0,0:0:0:0:
256,196,180309,1,0,0:0:0:0:
256,196,180448,1,8,0:0:0:0:
256,196,180587,1,8,0:0:0:0:
256,196,180726,1,0,0:0:0:0:
256,196,180865,1,0,0:0:0:0:
256,196,181004,1,8,0:0:0:0:
256,196,181143,1,8,0:0:0:0:
256,196,181282,1,0,0:0:0:0:
256,196,181559,1,8,0:0:0:0:
256,196,181629,1,8,0:0:0:0:
256,196,181698,1,0,0:0:0:0:
256,196,181837,1,8,0:0:0:0:
256,196,181976,1,0,0:0:0:0:
256,196,182115,1,8,0:0:0:0:
256,196,182185,1,8,0:0:0:0:
256,196,182254,1,0,0:0:0:0:
256,196,182393,1,8,0:0:0:0:
256,196,182462,1,8,0:0:0:0:
256,196,182532,1,0,0:0:0:0:
256,196,182601,1,0,0:0:0:0:
256,196,182671,1,8,0:0:0:0:
256,196,183226,1,8,0:0:0:0:
256,196,183365,1,8,0:0:0:0:
256,196,183504,1,8,0:0:0:0:
256,196,183643,1,8,0:0:0:0:
256,192,183782,1,4,0:0:0:0:
256,192,184059,1,8,0:0:0:0:
256,192,184198,1,0,0:0:0:0:
256,192,184268,1,0,0:0:0:0:
256,192,184337,1,8,0:0:0:0:
256,192,184476,1,8,0:0:0:0:
256,192,184615,1,0,0:0:0:0:
256,192,184754,1,0,0:0:0:0:
256,192,184893,1,8,0:0:0:0:
256,192,185032,1,8,0:0:0:0:
256,192,185171,1,0,0:0:0:0:
256,192,185309,1,8,0:0:0:0:
256,192,185587,1,8,0:0:0:0:
256,192,185726,1,0,0:0:0:0:
256,192,185865,1,8,0:0:0:0:
256,192,186004,1,0,0:0:0:0:
256,192,186282,1,8,0:0:0:0:
256,192,186421,1,0,0:0:0:0:
256,192,186490,1,0,0:0:0:0:
256,192,186559,1,8,0:0:0:0:
256,192,186698,1,8,0:0:0:0:
256,192,186837,1,0,0:0:0:0:
256,192,186976,1,0,0:0:0:0:
256,192,187046,1,0,0:0:0:0:
256,192,187115,1,8,0:0:0:0:
256,192,187254,1,0,0:0:0:0:
256,192,187393,1,0,0:0:0:0:
256,192,187532,1,8,0:0:0:0:
256,192,187809,1,0,0:0:0:0:
256,192,187948,1,8,0:0:0:0:
256,192,188087,1,8,0:0:0:0:
256,192,188226,1,0,0:0:0:0:
256,192,188504,1,8,0:0:0:0:
256,192,188643,1,0,0:0:0:0:
256,192,188712,1,0,0:0:0:0:
256,192,188782,1,8,0:0:0:0:
256,192,188921,1,8,0:0:0:0:
256,192,189059,1,0,0:0:0:0:
256,192,189198,1,8,0:0:0:0:
256,192,189337,1,0,0:0:0:0:
256,192,189476,1,0,0:0:0:0:
256,192,189615,1,8,0:0:0:0:
256,192,189754,1,8,0:0:0:0:
256,192,189893,1,0,0:0:0:0:
256,192,190032,1,8,0:0:0:0:
256,192,190101,1,8,0:0:0:0:
256,192,190171,1,0,0:0:0:0:
256,192,190309,1,8,0:0:0:0:
256,192,190448,1,0,0:0:0:0:
256,192,190726,1,8,0:0:0:0:
256,192,191004,1,0,0:0:0:0:
256,192,191143,1,0,0:0:0:0:
256,192,191282,1,8,0:0:0:0:
256,192,191421,1,0,0:0:0:0:
256,192,191559,1,8,0:0:0:0:
256,192,191698,1,8,0:0:0:0:
256,192,191976,1,8,0:0:0:0:
256,192,192115,1,0,0:0:0:0:
256,192,192185,1,0,0:0:0:0:
256,192,192254,1,0,0:0:0:0:
256,192,192393,1,8,0:0:0:0:
256,192,192462,1,8,0:0:0:0:
256,192,192532,1,8,0:0:0:0:
256,196,192671,1,4,0:0:0:0:
256,196,192948,1,8,0:0:0:0:
256,196,193087,1,0,0:0:0:0:
256,192,193157,1,0,0:0:0:0:
256,196,193226,1,8,0:0:0:0:
256,196,193365,1,8,0:0:0:0:
256,196,193643,1,0,0:0:0:0:
256,192,193712,1,0,0:0:0:0:
256,196,193782,1,8,0:0:0:0:
256,196,193921,1,8,0:0:0:0:
256,196,194059,1,0,0:0:0:0:
256,196,194198,1,8,0:0:0:0:
256,196,194268,1,8,0:0:0:0:
256,196,194337,1,0,0:0:0:0:
256,196,194476,1,8,0:0:0:0:
256,196,194754,1,8,0:0:0:0:
256,196,194893,1,0,0:0:0:0:
256,196,195171,1,8,0:0:0:0:
256,196,195309,1,0,0:0:0:0:
256,196,195448,1,8,0:0:0:0:
256,196,195587,1,8,0:0:0:0:
256,196,195726,1,0,0:0:0:0:
256,196,195865,1,0,0:0:0:0:
256,196,196004,1,8,0:0:0:0:
256,196,196143,1,0,0:0:0:0:
256,196,196212,1,0,0:0:0:0:
256,196,196282,1,0,0:0:0:0:
256,196,196421,1,8,0:0:0:0:
256,196,196698,1,8,0:0:0:0:
256,196,196837,1,0,0:0:0:0:
256,196,196976,1,0,0:0:0:0:
256,196,197046,1,0,0:0:0:0:
256,196,197115,1,8,0:0:0:0:
256,196,197254,1,8,0:0:0:0:
256,196,197393,1,0,0:0:0:0:
256,196,197671,1,8,0:0:0:0:
256,196,197809,1,0,0:0:0:0:
256,196,197948,1,8,0:0:0:0:
256,196,198226,1,8,0:0:0:0:
256,196,198365,1,0,0:0:0:0:
256,196,198504,1,8,0:0:0:0:
256,196,198643,1,8,0:0:0:0:
256,196,198712,1,8,0:0:0:0:
256,196,198782,1,0,0:0:0:0:
256,192,198921,1,0,0:0:0:0:
256,196,199059,1,8,0:0:0:0:
256,196,199198,1,8,0:0:0:0:
256,192,199337,1,0,0:0:0:0:
256,196,199615,1,8,0:0:0:0:
256,192,199754,1,8,0:0:0:0:
256,192,199893,1,0,0:0:0:0:
256,196,200032,1,0,0:0:0:0:
256,192,200171,1,8,0:0:0:0:
256,192,200448,1,0,0:0:0:0:
256,196,200587,1,0,0:0:0:0:
256,196,200726,1,8,0:0:0:0:
256,192,200796,1,8,0:0:0:0:
256,192,200865,1,8,0:0:0:0:
256,196,201004,1,0,0:0:0:0:
256,196,201143,1,0,0:0:0:0:
256,192,201282,1,8,0:0:0:0:
256,192,201351,1,8,0:0:0:0:
256,192,201421,1,8,0:0:0:0:
256,192,201490,1,8,0:0:0:0:
256,196,201559,1,0,0:0:0:0:
256,192,201837,1,8,0:0:0:0:
256,192,202115,1,0,0:0:0:0:
256,196,202254,1,0,0:0:0:0:
256,192,202393,1,8,0:0:0:0:
256,196,202671,1,0,0:0:0:0:
256,192,202948,1,0,0:0:0:0:
256,192,203087,1,0,0:0:0:0:
256,192,203226,1,8,0:0:0:0:
256,192,203504,1,0,0:0:0:0:
256,196,203782,1,8,0:0:0:0:
256,196,204059,1,0,0:0:0:0:
256,196,204198,1,0,0:0:0:0:
256,192,204337,1,8,0:0:0:0:
256,192,204615,1,8,0:0:0:0:
256,192,204893,1,0,0:0:0:0:
256,192,205032,1,8,0:0:0:0:
256,196,205171,1,0,0:0:0:0:
256,196,205309,1,0,0:0:0:0:
256,196,205448,1,8,0:0:0:0:
256,196,205726,1,8,0:0:0:0:
256,192,206004,1,0,0:0:0:0:
256,192,206282,1,8,0:0:0:0:
256,192,206421,1,0,0:0:0:0:
256,192,206559,1,0,0:0:0:0:
256,192,206698,1,8,0:0:0:0:
256,192,206837,1,8,0:0:0:0:
256,196,207115,1,0,0:0:0:0:
256,196,207254,1,8,0:0:0:0:
256,192,207393,1,0,0:0:0:0:
256,192,207462,1,0,0:0:0:0:
256,192,207532,1,0,0:0:0:0:
256,192,207671,1,8,0:0:0:0:
256,192,207948,1,8,0:0:0:0:
256,192,208226,1,0,0:0:0:0:
256,192,208504,1,8,0:0:0:0:
256,192,208643,1,0,0:0:0:0:
256,192,208782,1,0,0:0:0:0:
256,192,208921,1,0,0:0:0:0:
256,192,208990,1,0,0:0:0:0:
256,192,209059,1,8,0:0:0:0:
256,192,209337,1,0,0:0:0:0:
256,192,209476,1,0,0:0:0:0:
256,192,209754,1,8,0:0:0:0:
256,192,209893,1,0,0:0:0:0:
256,192,209962,1,8,0:0:0:0:
256,192,210032,1,0,0:0:0:0:
256,192,210171,1,8,0:0:0:0:
256,192,210309,1,0,0:0:0:0:
256,192,210448,1,14,0:0:0:0:
