osu file format v13

[General]
AudioFilename: Connect.mp3
AudioLeadIn: 500
PreviewTime: 74268
Countdown: 0
SampleSet: Normal
StackLeniency: 0.7
Mode: 1
LetterboxInBreaks: 0
WidescreenStoryboard: 0

[Editor]
Bookmarks: 1695,21696,48362,92807,101696,137251,155029,163918,172807,183918,201696,210584
DistanceSpacing: 0.5
BeatDivisor: 4
GridSize: 4
TimelineZoom: 1.4

[Metadata]
Title:Connect (Nightcore Trance Remix)
TitleUnicode:コネクト (Nightcore Trance Remix)
Artist:ClariS
ArtistUnicode:ClariS
Creator:Naryuga
Version:Taiko Inner Oni
Source:Puella Magi Madoka Magica
Tags:Konekuto Mahou Shoujo Madoka Magica opening 魔法少女まどか☆マギカ testmx1
BeatmapID:178237
BeatmapSetID:59482

[Difficulty]
HPDrainRate:5
CircleSize:5
OverallDifficulty:6
ApproachRate:9
SliderMultiplier:1.4
SliderTickRate:1

[Events]
//Background and Video events
0,0,"TaikoBGa.jpg",0,60
//Break Periods
//Storyboard Layer 0 (Background)
//Storyboard Layer 1 (Fail)
//Storyboard Layer 2 (Pass)
//Storyboard Layer 3 (Foreground)
//Storyboard Sound Samples
//Background Colour Transformations
3,100,163,162,255

[TimingPoints]
1560,277.777777777778,4,1,0,90,1,0
74893,-100,4,1,0,90,0,1
92671,-100,4,1,0,90,0,0
137115,-100,4,1,0,90,0,1
154893,-100,4,1,0,90,0,0
183782,-100,4,1,0,90,0,1
201560,-100,4,1,0,90,0,0

[Colours]
Combo1 : 112,196,193
Combo2 : 243,89,34

[HitObjects]
248,192,1559,5,4,0:0:0:0:
248,192,1837,1,8,0:0:0:0:
248,192,1976,1,0,0:0:0:0:
248,192,2115,1,0,0:0:0:0:
248,192,2254,1,0,0:0:0:0:
248,192,2393,1,8,0:0:0:0:
248,192,2532,1,0,0:0:0:0:
248,192,2671,1,0,0:0:0:0:
248,192,2810,1,8,0:0:0:0:
248,192,2948,1,0,0:0:0:0:
248,192,3018,1,0,0:0:0:0:
248,192,3087,1,0,0:0:0:0:
248,192,3226,1,8,0:0:0:0:
248,192,3504,1,8,0:0:0:0:
248,192,3643,1,0,0:0:0:0:
248,192,3782,1,0,0:0:0:0:
248,192,3921,1,0,0:0:0:0:
248,192,4060,1,8,0:0:0:0:
248,192,4198,1,0,0:0:0:0:
248,192,4337,1,8,0:0:0:0:
248,192,4476,1,8,0:0:0:0:
248,192,4615,1,0,0:0:0:0:
248,192,4754,1,8,0:0:0:0:
248,192,4893,1,0,0:0:0:0:
248,192,5032,1,8,0:0:0:0:
248,192,5171,1,0,0:0:0:0:
248,192,5310,1,8,0:0:0:0:
248,192,5448,1,0,0:0:0:0:
248,192,5518,1,0,0:0:0:0:
248,192,5587,1,0,0:0:0:0:
248,192,5726,1,8,0:0:0:0:
248,192,6004,1,0,0:0:0:0:
248,192,6143,1,0,0:0:0:0:
248,192,6282,1,8,0:0:0:0:
248,192,6421,1,0,0:0:0:0:
248,192,6560,1,0,0:0:0:0:
248,192,6698,1,0,0:0:0:0:
248,192,6837,1,8,0:0:0:0:
248,192,6976,1,0,0:0:0:0:
248,192,7115,1,0,0:0:0:0:
248,192,7185,1,0,0:0:0:0:
248,192,7254,1,0,0:0:0:0:
248,192,7393,1,8,0:0:0:0:
248,192,7532,1,0,0:0:0:0:
248,192,7671,1,0,0:0:0:0:
248,192,7740,1,0,0:0:0:0:
248,192,7810,1,0,0:0:0:0:
248,192,7948,1,8,0:0:0:0:
248,192,8087,1,0,0:0:0:0:
248,192,8226,1,0,0:0:0:0:
248,192,8296,1,0,0:0:0:0:
248,192,8365,1,8,0:0:0:0:
248,192,8504,1,0,0:0:0:0:
248,192,8573,1,0,0:0:0:0:
248,192,8643,1,8,0:0:0:0:
248,192,8782,1,0,0:0:0:0:
248,192,8851,1,0,0:0:0:0:
248,192,8921,1,8,0:0:0:0:
248,192,9060,1,0,0:0:0:0:
248,192,9129,1,0,0:0:0:0:
248,192,9198,1,8,0:0:0:0:
248,192,9337,1,0,0:0:0:0:
248,192,9407,1,0,0:0:0:0:
248,192,9476,1,8,0:0:0:0:
248,192,9546,1,0,0:0:0:0:
248,192,9615,1,8,0:0:0:0:
248,192,9685,1,0,0:0:0:0:
248,192,9754,1,0,0:0:0:0:
248,192,9823,1,0,0:0:0:0:
248,192,9893,1,8,0:0:0:0:
248,192,9962,1,8,0:0:0:0:
248,192,10032,1,0,0:0:0:0:
248,192,10101,1,0,0:0:0:0:
248,192,10171,1,8,0:0:0:0:
248,192,10240,1,8,0:0:0:0:
248,192,10310,1,0,0:0:0:0:
248,192,10379,1,0,0:0:0:0:
248,192,10448,1,8,0:0:0:0:
248,192,11004,1,8,0:0:0:0:
248,192,11560,1,0,0:0:0:0:
248,192,11698,1,0,0:0:0:0:
248,192,11976,1,8,0:0:0:0:
248,192,12254,1,0,0:0:0:0:
248,192,12532,1,0,0:0:0:0:
256,192,12671,1,8,0:0:0:0:
248,192,13087,1,0,0:0:0:0:
248,192,13226,1,8,0:0:0:0:
248,192,13365,1,8,0:0:0:0:
248,192,13643,1,0,0:0:0:0:
248,192,13782,1,8,0:0:0:0:
248,192,13921,1,0,0:0:0:0:
248,192,14198,1,8,0:0:0:0:
248,192,14476,1,0,0:0:0:0:
248,192,14615,1,8,0:0:0:0:
248,192,14893,1,8,0:0:0:0:
248,192,15310,1,0,0:0:0:0:
248,192,15448,1,8,0:0:0:0:
248,192,15587,1,8,0:0:0:0:
248,192,15865,1,0,0:0:0:0:
248,192,16004,1,8,0:0:0:0:
248,192,16143,1,8,0:0:0:0:
248,192,16421,1,8,0:0:0:0:
248,192,16698,1,0,0:0:0:0:
248,192,17115,1,8,0:0:0:0:
256,192,18226,8,0,21282,0:0:0:0:
256,196,21560,5,4,0:0:0:0:
256,196,21837,1,8,0:0:0:0:
256,196,21976,1,0,0:0:0:0:
256,196,22115,1,0,0:0:0:0:
256,196,22254,1,0,0:0:0:0:
256,196,22323,1,0,0:0:0:0:
256,196,22393,1,8,0:0:0:0:
256,196,22532,1,0,0:0:0:0:
256,196,22671,1,0,0:0:0:0:
256,196,22810,1,8,0:0:0:0:
256,196,22948,1,0,0:0:0:0:
256,196,23018,1,0,0:0:0:0:
256,196,23087,1,8,0:0:0:0:
256,196,23226,1,8,0:0:0:0:
256,196,23296,1,8,0:0:0:0:
256,196,23365,1,0,0:0:0:0:
256,196,23435,1,0,0:0:0:0:
256,196,23504,1,8,0:0:0:0:
256,196,23643,1,8,0:0:0:0:
256,196,23782,1,0,0:0:0:0:
256,196,24060,1,8,0:0:0:0:
256,196,24198,1,0,0:0:0:0:
296,180,24337,1,0,0:0:0:0:
256,196,24407,1,0,0:0:0:0:
256,192,24476,1,8,0:0:0:0:
256,196,24615,1,8,0:0:0:0:
256,196,24754,1,0,0:0:0:0:
256,196,24893,1,0,0:0:0:0:
256,196,25032,1,8,0:0:0:0:
256,196,25171,1,0,0:0:0:0:
256,196,25240,1,0,0:0:0:0:
256,196,25310,1,8,0:0:0:0:
256,196,25448,1,8,0:0:0:0:
256,196,25518,1,0,0:0:0:0:
256,196,25587,1,0,0:0:0:0:
256,196,25657,1,0,0:0:0:0:
256,196,25726,1,8,0:0:0:0:
256,196,25865,1,8,0:0:0:0:
256,196,26004,1,0,0:0:0:0:
256,196,26282,1,0,0:0:0:0:
256,196,26421,1,8,0:0:0:0:
256,196,26560,1,0,0:0:0:0:
256,196,26629,1,0,0:0:0:0:
256,196,26768,1,8,0:0:0:0:
256,196,26837,1,8,0:0:0:0:
256,196,26976,1,0,0:0:0:0:
256,196,27115,1,0,0:0:0:0:
256,196,27254,1,8,0:0:0:0:
256,196,27323,1,0,0:0:0:0:
256,196,27393,1,0,0:0:0:0:
256,196,27532,1,8,0:0:0:0:
256,196,27671,1,8,0:0:0:0:
256,196,27740,1,8,0:0:0:0:
256,196,27879,1,0,0:0:0:0:
256,196,27948,1,8,0:0:0:0:
256,196,28087,1,8,0:0:0:0:
256,196,28226,1,0,0:0:0:0:
256,196,28504,1,0,0:0:0:0:
256,196,28643,1,8,0:0:0:0:
256,196,28782,1,0,0:0:0:0:
256,196,28921,1,8,0:0:0:0:
256,196,28990,1,8,0:0:0:0:
256,196,29060,1,0,0:0:0:0:
256,196,29198,1,8,0:0:0:0:
256,196,29337,1,0,0:0:0:0:
256,196,29476,1,0,0:0:0:0:
256,196,29754,1,0,0:0:0:0:
256,196,29893,1,8,0:0:0:0:
256,196,29962,1,8,0:0:0:0:
256,196,30032,1,0,0:0:0:0:
256,196,30101,1,0,0:0:0:0:
256,196,30171,1,8,0:0:0:0:
256,196,30310,1,0,0:0:0:0:
256,196,30448,1,14,0:0:0:0:
256,196,30726,1,8,0:0:0:0:
256,196,30865,1,0,0:0:0:0:
256,196,31004,1,0,0:0:0:0:
256,196,31142,1,0,0:0:0:0:
256,196,31212,1,0,0:0:0:0:
256,196,31282,1,8,0:0:0:0:
256,196,31421,1,0,0:0:0:0:
256,196,31560,1,0,0:0:0:0:
256,196,31698,1,8,0:0:0:0:
256,196,31768,1,0,0:0:0:0:
256,196,31837,1,0,0:0:0:0:
256,196,31976,1,8,0:0:0:0:
256,196,32115,1,8,0:0:0:0:
256,196,32185,1,0,0:0:0:0:
256,196,32254,1,0,0:0:0:0:
256,196,32323,1,0,0:0:0:0:
256,196,32393,1,8,0:0:0:0:
256,196,32532,1,8,0:0:0:0:
256,196,32671,1,0,0:0:0:0:
256,196,32948,1,8,0:0:0:0:
256,196,33087,1,0,0:0:0:0:
256,196,33226,1,0,0:0:0:0:
256,196,33296,1,0,0:0:0:0:
256,196,33365,1,0,0:0:0:0:
256,196,33435,1,0,0:0:0:0:
256,196,33504,1,8,0:0:0:0:
256,196,33643,1,0,0:0:0:0:
256,196,33782,1,0,0:0:0:0:
256,196,33921,1,8,0:0:0:0:
256,196,33990,1,0,0:0:0:0:
256,196,34060,1,0,0:0:0:0:
256,196,34198,1,8,0:0:0:0:
256,196,34337,1,8,0:0:0:0:
256,196,34407,1,0,0:0:0:0:
256,196,34476,1,0,0:0:0:0:
256,196,34546,1,0,0:0:0:0:
256,196,34615,1,8,0:0:0:0:
256,196,34754,1,8,0:0:0:0:
256,196,34893,1,0,0:0:0:0:
256,196,35171,1,8,0:0:0:0:
256,196,35310,1,0,0:0:0:0:
256,196,35448,1,0,0:0:0:0:
256,196,35518,1,0,0:0:0:0:
256,196,35657,1,0,0:0:0:0:
256,196,35726,1,8,0:0:0:0:
256,196,35865,1,0,0:0:0:0:
256,196,36004,1,0,0:0:0:0:
256,196,36143,1,8,0:0:0:0:
256,196,36212,1,0,0:0:0:0:
256,196,36282,1,0,0:0:0:0:
256,196,36421,1,8,0:0:0:0:
256,196,36560,1,8,0:0:0:0:
256,196,36629,1,0,0:0:0:0:
256,196,36768,1,0,0:0:0:0:
256,196,36837,1,8,0:0:0:0:
256,196,36976,1,8,0:0:0:0:
256,196,37115,1,0,0:0:0:0:
256,196,37185,1,0,0:0:0:0:
256,196,37254,1,0,0:0:0:0:
256,196,37393,1,8,0:0:0:0:
256,196,37532,1,8,0:0:0:0:
256,196,37671,1,0,0:0:0:0:
256,196,37740,1,0,0:0:0:0:
256,196,37810,1,0,0:0:0:0:
256,196,37879,1,0,0:0:0:0:
256,196,37948,1,8,0:0:0:0:
256,196,38087,1,0,0:0:0:0:
256,196,38226,1,0,0:0:0:0:
256,196,38365,1,8,0:0:0:0:
256,196,38435,1,8,0:0:0:0:
256,196,38504,1,0,0:0:0:0:
256,196,38573,1,0,0:0:0:0:
256,196,38643,1,0,0:0:0:0:
256,196,38712,1,0,0:0:0:0:
256,196,38782,1,8,0:0:0:0:
256,196,38851,1,8,0:0:0:0:
256,196,38921,1,0,0:0:0:0:
256,196,38990,1,0,0:0:0:0:
256,196,39060,1,8,0:0:0:0:
256,196,39337,1,4,0:0:0:0:
256,196,39615,1,8,0:0:0:0:
256,196,39893,1,0,0:0:0:0:
256,196,40032,1,0,0:0:0:0:
256,196,40310,1,8,0:0:0:0:
256,196,40726,1,0,0:0:0:0:
256,196,40865,1,8,0:0:0:0:
256,196,41143,1,8,0:0:0:0:
256,196,41421,1,0,0:0:0:0:
256,196,41560,1,8,0:0:0:0:
256,196,41837,1,8,0:0:0:0:
256,196,42115,1,8,0:0:0:0:
256,196,42254,1,0,0:0:0:0:
256,196,42532,1,0,0:0:0:0:
256,196,43365,1,0,0:0:0:0:
256,196,43643,1,0,0:0:0:0:
256,196,43782,1,8,0:0:0:0:
256,196,44060,1,0,0:0:0:0:
256,196,44337,1,0,0:0:0:0:
256,196,44476,1,8,0:0:0:0:
256,196,44754,1,8,0:0:0:0:
256,196,45032,1,8,0:0:0:0:
256,196,45171,1,8,0:0:0:0:
256,196,45310,1,0,0:0:0:0:
256,196,45587,1,8,0:0:0:0:
256,196,45865,1,8,0:0:0:0:
256,196,46004,1,0,0:0:0:0:
256,196,46560,1,8,0:0:0:0:
256,196,47115,1,0,0:0:0:0:
256,196,47671,1,0,0:0:0:0:
256,196,48226,1,0,0:0:0:0:
256,196,48504,1,8,0:0:0:0:
256,196,48643,1,0,0:0:0:0:
256,196,48712,1,0,0:0:0:0:
256,196,48782,1,0,0:0:0:0:
256,196,48921,1,0,0:0:0:0:
256,196,49060,1,8,0:0:0:0:
256,196,49198,1,8,0:0:0:0:
256,196,49337,1,0,0:0:0:0:
256,196,49615,1,8,0:0:0:0:
256,196,49754,1,8,0:0:0:0:
256,196,49824,1,8,0:0:0:0:
256,196,49893,1,8,0:0:0:0:
256,196,50032,1,0,0:0:0:0:
256,196,50101,1,0,0:0:0:0:
256,196,50171,1,0,0:0:0:0:
256,196,50310,1,8,0:0:0:0:
256,196,50448,1,0,0:0:0:0:
256,196,50726,1,8,0:0:0:0:
256,196,50865,1,8,0:0:0:0:
256,196,50935,1,8,0:0:0:0:
256,196,51004,1,8,0:0:0:0:
256,196,51143,1,0,0:0:0:0:
256,196,51282,1,8,0:0:0:0:
256,196,51421,1,8,0:0:0:0:
256,196,51560,1,0,0:0:0:0:
256,196,51698,1,8,0:0:0:0:
256,196,51837,1,8,0:0:0:0:
256,196,51976,1,0,0:0:0:0:
256,196,52115,1,8,0:0:0:0:
256,196,52185,1,8,0:0:0:0:
256,196,52254,1,0,0:0:0:0:
256,196,52323,1,0,0:0:0:0:
256,196,52393,1,8,0:0:0:0:
256,196,52532,1,0,0:0:0:0:
256,196,52671,1,8,0:0:0:0:
256,196,52948,1,8,0:0:0:0:
256,196,53226,1,8,0:0:0:0:
256,196,53365,1,0,0:0:0:0:
256,196,53504,1,0,0:0:0:0:
256,196,53643,1,8,0:0:0:0:
256,196,53782,1,0,0:0:0:0:
256,196,53921,1,8,0:0:0:0:
256,196,54060,1,8,0:0:0:0:
256,196,54198,1,8,0:0:0:0:
256,196,54337,1,8,0:0:0:0:
256,196,54407,1,8,0:0:0:0:
256,196,54476,1,0,0:0:0:0:
256,196,54615,1,8,0:0:0:0:
252,236,54754,1,8,0:0:0:0:
256,196,54893,1,0,0:0:0:0:
256,196,55032,1,8,0:0:0:0:
256,196,55171,1,8,0:0:0:0:
216,180,55310,1,0,0:0:0:0:
256,196,55379,1,0,0:0:0:0:
256,196,55448,1,8,0:0:0:0:
256,196,55587,1,0,0:0:0:0:
256,196,55726,1,8,0:0:0:0:
256,196,55865,1,0,0:0:0:0:
256,196,56004,1,8,0:0:0:0:
256,196,56143,1,8,0:0:0:0:
256,196,56421,1,8,0:0:0:0:
256,196,56560,1,8,0:0:0:0:
256,196,56837,1,0,0:0:0:0:
256,196,57115,1,4,0:0:0:0:
256,196,57393,1,8,0:0:0:0:
256,196,57532,1,8,0:0:0:0:
256,196,57671,1,0,0:0:0:0:
256,196,57810,1,8,0:0:0:0:
256,196,57878,1,8,0:0:0:0:
256,196,57948,1,0,0:0:0:0:
256,196,58087,1,8,0:0:0:0:
256,196,58226,1,0,0:0:0:0:
256,196,58365,1,8,0:0:0:0:
256,196,58435,1,8,0:0:0:0:
256,196,58504,1,0,0:0:0:0:
256,196,58643,1,8,0:0:0:0:
256,196,58782,1,0,0:0:0:0:
256,196,58851,1,0,0:0:0:0:
256,196,58921,1,0,0:0:0:0:
256,196,58990,1,0,0:0:0:0:
256,196,59060,1,8,0:0:0:0:
256,196,59198,1,0,0:0:0:0:
256,196,59337,1,0,0:0:0:0:
256,196,59476,1,8,0:0:0:0:
256,196,59615,1,8,0:0:0:0:
256,196,59754,1,0,0:0:0:0:
256,196,59893,1,8,0:0:0:0:
256,196,60032,1,8,0:0:0:0:
256,196,60171,1,0,0:0:0:0:
256,196,60310,1,8,0:0:0:0:
256,196,60379,1,8,0:0:0:0:
256,196,60448,1,8,0:0:0:0:
256,196,60587,1,0,0:0:0:0:
256,196,60726,1,8,0:0:0:0:
256,196,60796,1,8,0:0:0:0:
256,196,60865,1,8,0:0:0:0:
256,196,61004,1,0,0:0:0:0:
256,196,61073,1,0,0:0:0:0:
256,196,61143,1,0,0:0:0:0:
256,196,61212,1,0,0:0:0:0:
256,196,61282,1,8,0:0:0:0:
256,196,61421,1,8,0:0:0:0:
256,196,61560,1,0,0:0:0:0:
256,196,61837,1,0,0:0:0:0:
256,196,61976,1,8,0:0:0:0:
256,196,62114,1,0,0:0:0:0:
256,196,62253,1,0,0:0:0:0:
256,196,62393,1,8,0:0:0:0:
256,196,62531,1,0,0:0:0:0:
256,196,62601,1,0,0:0:0:0:
256,196,62670,1,0,0:0:0:0:
256,196,62810,1,0,0:0:0:0:
256,196,62948,1,8,0:0:0:0:
256,196,63087,1,0,0:0:0:0:
256,196,63157,1,0,0:0:0:0:
256,196,63226,1,8,0:0:0:0:
256,196,63365,1,0,0:0:0:0:
256,196,63504,1,8,0:0:0:0:
256,196,63643,1,0,0:0:0:0:
256,196,63713,1,0,0:0:0:0:
256,196,63782,1,0,0:0:0:0:
256,196,64060,1,8,0:0:0:0:
256,196,64198,1,0,0:0:0:0:
256,196,64337,1,8,0:0:0:0:
256,196,64476,1,0,0:0:0:0:
256,196,64615,1,0,0:0:0:0:
256,196,64754,1,8,0:0:0:0:
256,196,64893,1,0,0:0:0:0:
256,196,64962,1,0,0:0:0:0:
256,196,65032,1,8,0:0:0:0:
256,196,65101,1,0,0:0:0:0:
256,196,65171,1,0,0:0:0:0:
256,196,65310,1,0,0:0:0:0:
256,196,65448,1,8,0:0:0:0:
256,196,65587,1,0,0:0:0:0:
256,196,65657,1,0,0:0:0:0:
256,196,65726,1,8,0:0:0:0:
256,196,65865,1,8,0:0:0:0:
256,196,66004,1,4,0:0:0:0:
256,196,66282,1,8,0:0:0:0:
256,196,66421,1,0,0:0:0:0:
256,196,66560,1,8,0:0:0:0:
256,196,66698,1,0,0:0:0:0:
256,196,66768,1,0,0:0:0:0:
256,196,66837,1,8,0:0:0:0:
256,196,66976,1,0,0:0:0:0:
256,196,67115,1,0,0:0:0:0:
256,196,67185,1,8,0:0:0:0:
256,196,67254,1,0,0:0:0:0:
256,196,67323,1,0,0:0:0:0:
256,196,67393,1,8,0:0:0:0:
256,196,67532,1,0,0:0:0:0:
256,196,67671,1,8,0:0:0:0:
256,196,67740,1,0,0:0:0:0:
256,196,67810,1,0,0:0:0:0:
256,192,67879,1,0,0:0:0:0:
256,196,67948,1,8,0:0:0:0:
256,196,68087,1,0,0:0:0:0:
256,196,68226,1,8,0:0:0:0:
256,196,68365,1,0,0:0:0:0:
256,196,68435,1,0,0:0:0:0:
256,196,68505,1,8,0:0:0:0:
256,196,68643,1,8,0:0:0:0:
256,196,68712,1,8,0:0:0:0:
256,196,68782,1,0,0:0:0:0:
256,196,68851,1,0,0:0:0:0:
256,196,68921,1,8,0:0:0:0:
256,196,69060,1,8,0:0:0:0:
256,196,69198,1,0,0:0:0:0:
256,196,69337,1,0,0:0:0:0:
256,196,69476,1,8,0:0:0:0:
256,196,69615,1,8,0:0:0:0:
256,196,69754,1,0,0:0:0:0:
256,196,69893,1,8,0:0:0:0:
256,196,69962,1,8,0:0:0:0:
256,196,70032,1,0,0:0:0:0:
256,196,70101,1,0,0:0:0:0:
256,196,70171,1,8,0:0:0:0:
256,196,70240,1,0,0:0:0:0:
256,196,70310,1,0,0:0:0:0:
256,196,70379,1,0,0:0:0:0:
256,196,70448,1,8,0:0:0:0:
256,196,70587,1,0,0:0:0:0:
256,196,70726,1,0,0:0:0:0:
256,196,70865,1,0,0:0:0:0:
256,196,71004,1,0,0:0:0:0:
256,196,71143,1,0,0:0:0:0:
256,196,71282,1,0,0:0:0:0:
256,196,71421,1,0,0:0:0:0:
256,196,71560,1,8,0:0:0:0:
256,196,71629,1,0,0:0:0:0:
256,196,71698,1,0,0:0:0:0:
256,196,71837,1,0,0:0:0:0:
256,196,71976,1,0,0:0:0:0:
256,196,72115,1,8,0:0:0:0:
256,196,72185,1,0,0:0:0:0:
256,196,72254,1,0,0:0:0:0:
256,196,72393,1,0,0:0:0:0:
256,196,72532,1,0,0:0:0:0:
256,196,72671,1,8,0:0:0:0:
256,196,72740,1,0,0:0:0:0:
256,196,72810,1,0,0:0:0:0:
256,196,72948,1,8,0:0:0:0:
256,196,73018,1,0,0:0:0:0:
256,196,73087,1,0,0:0:0:0:
256,196,73226,1,8,0:0:0:0:
256,196,73296,1,0,0:0:0:0:
256,196,73365,1,0,0:0:0:0:
256,196,73435,1,0,0:0:0:0:
256,196,73504,1,8,0:0:0:0:
256,196,73573,1,0,0:0:0:0:
256,196,73643,1,8,0:0:0:0:
256,196,73712,1,8,0:0:0:0:
256,196,73782,1,8,0:0:0:0:
256,196,73921,1,8,0:0:0:0:
256,196,74337,1,8,0:0:0:0:
256,196,74476,1,0,0:0:0:0:
256,196,74615,1,8,0:0:0:0:
260,200,74685,1,8,0:0:0:0:
256,196,74754,1,8,0:0:0:0:
256,196,74893,1,4,0:0:0:0:
256,196,75171,1,8,0:0:0:0:
256,196,75310,1,0,0:0:0:0:
256,196,75379,1,0,0:0:0:0:
256,196,75448,1,8,0:0:0:0:
256,196,75587,1,8,0:0:0:0:
256,196,75726,1,0,0:0:0:0:
256,196,75865,1,8,0:0:0:0:
256,196,76004,1,0,0:0:0:0:
256,196,76143,1,8,0:0:0:0:
256,196,76212,1,8,0:0:0:0:
256,196,76282,1,8,0:0:0:0:
256,196,76421,1,8,0:0:0:0:
256,196,76560,1,0,0:0:0:0:
256,196,76698,1,8,0:0:0:0:
256,196,76768,1,8,0:0:0:0:
256,196,76837,1,0,0:0:0:0:
256,196,76907,1,0,0:0:0:0:
256,196,76976,1,8,0:0:0:0:
296,184,77115,1,8,0:0:0:0:
256,196,77393,1,0,0:0:0:0:
256,196,77532,1,8,0:0:0:0:
256,196,77601,1,8,0:0:0:0:
256,196,77671,1,8,0:0:0:0:
256,196,77810,1,8,0:0:0:0:
256,196,77879,1,0,0:0:0:0:
256,196,77948,1,8,0:0:0:0:
256,196,78087,1,0,0:0:0:0:
256,196,78226,1,8,0:0:0:0:
256,196,78365,1,0,0:0:0:0:
256,196,78435,1,0,0:0:0:0:
256,196,78504,1,0,0:0:0:0:
256,196,78643,1,8,0:0:0:0:
256,196,78921,1,0,0:0:0:0:
256,196,79060,1,0,0:0:0:0:
256,196,79198,1,8,0:0:0:0:
256,196,79337,1,8,0:0:0:0:
256,196,79476,1,0,0:0:0:0:
256,196,79546,1,0,0:0:0:0:
256,196,79615,1,8,0:0:0:0:
256,196,79754,1,0,0:0:0:0:
256,196,79893,1,8,0:0:0:0:
256,196,80032,1,0,0:0:0:0:
256,196,80101,1,0,0:0:0:0:
256,196,80171,1,8,0:0:0:0:
256,196,80310,1,0,0:0:0:0:
256,196,80379,1,0,0:0:0:0:
256,196,80448,1,8,0:0:0:0:
256,196,80587,1,8,0:0:0:0:
256,196,80726,1,0,0:0:0:0:
256,196,80865,1,8,0:0:0:0:
256,196,80935,1,8,0:0:0:0:
256,196,81004,1,8,0:0:0:0:
256,196,81143,1,8,0:0:0:0:
256,196,81282,1,0,0:0:0:0:
256,196,81421,1,8,0:0:0:0:
256,196,81560,1,0,0:0:0:0:
256,196,81698,1,0,0:0:0:0:
256,196,81768,1,0,0:0:0:0:
256,196,81837,1,8,0:0:0:0:
256,196,81976,1,0,0:0:0:0:
256,196,82115,1,8,0:0:0:0:
256,196,82185,1,8,0:0:0:0:
256,196,82254,1,0,0:0:0:0:
256,196,82323,1,0,0:0:0:0:
256,196,82393,1,8,0:0:0:0:
256,196,82532,1,0,0:0:0:0:
256,196,82671,1,12,0:0:0:0:
256,196,82810,1,12,0:0:0:0:
256,196,83087,1,0,0:0:0:0:
256,196,83157,1,0,0:0:0:0:
256,196,83226,1,8,0:0:0:0:
256,196,83296,1,0,0:0:0:0:
256,196,83365,1,0,0:0:0:0:
256,196,83435,1,0,0:0:0:0:
256,196,83504,1,8,0:0:0:0:
256,196,83573,1,8,0:0:0:0:
256,196,83643,1,0,0:0:0:0:
256,196,83782,1,14,0:0:0:0:
256,196,84060,1,8,0:0:0:0:
256,196,84198,1,0,0:0:0:0:
256,196,84337,1,8,0:0:0:0:
256,196,84476,1,0,0:0:0:0:
256,196,84546,1,0,0:0:0:0:
256,196,84615,1,8,0:0:0:0:
256,196,84754,1,0,0:0:0:0:
256,196,84893,1,8,0:0:0:0:
256,196,84962,1,8,0:0:0:0:
256,196,85032,1,8,0:0:0:0:
256,196,85171,1,0,0:0:0:0:
256,196,85310,1,8,0:0:0:0:
256,196,85379,1,8,0:0:0:0:
256,196,85448,1,8,0:0:0:0:
256,196,85587,1,0,0:0:0:0:
256,196,85657,1,0,0:0:0:0:
256,196,85726,1,0,0:0:0:0:
256,196,85865,1,8,0:0:0:0:
256,196,86004,1,8,0:0:0:0:
256,196,86282,1,0,0:0:0:0:
256,196,86421,1,0,0:0:0:0:
256,196,86560,1,8,0:0:0:0:
256,196,86698,1,8,0:0:0:0:
256,196,86768,1,0,0:0:0:0:
256,196,86837,1,0,0:0:0:0:
256,196,86976,1,8,0:0:0:0:
256,196,87046,1,0,0:0:0:0:
256,196,87115,1,8,0:0:0:0:
256,196,87254,1,8,0:0:0:0:
256,196,87393,1,0,0:0:0:0:
256,196,87532,1,8,0:0:0:0:
256,196,87601,1,8,0:0:0:0:
256,196,87671,1,8,0:0:0:0:
256,196,87810,1,0,0:0:0:0:
256,196,87879,1,0,0:0:0:0:
256,196,87948,1,0,0:0:0:0:
256,196,88087,1,8,0:0:0:0:
256,196,88226,1,8,0:0:0:0:
256,196,88504,1,0,0:0:0:0:
256,196,88782,1,8,0:0:0:0:
256,196,88921,1,0,0:0:0:0:
256,196,88990,1,0,0:0:0:0:
256,196,89060,1,8,0:0:0:0:
256,196,89198,1,0,0:0:0:0:
256,196,89337,1,8,0:0:0:0:
256,196,89476,1,0,0:0:0:0:
256,196,89546,1,0,0:0:0:0:
256,196,89615,1,0,0:0:0:0:
256,196,89754,1,8,0:0:0:0:
256,196,89893,1,0,0:0:0:0:
256,196,89962,1,0,0:0:0:0:
256,196,90032,1,8,0:0:0:0:
256,196,90171,1,8,0:0:0:0:
256,196,90310,1,0,0:0:0:0:
256,196,90448,1,0,0:0:0:0:
256,196,90587,1,0,0:0:0:0:
256,196,90657,1,0,0:0:0:0:
256,196,90726,1,8,0:0:0:0:
256,196,90865,1,0,0:0:0:0:
256,196,91004,1,0,0:0:0:0:
256,196,91073,1,0,0:0:0:0:
256,196,91143,1,0,0:0:0:0:
256,196,91212,1,0,0:0:0:0:
256,196,91282,1,8,0:0:0:0:
256,196,91421,1,0,0:0:0:0:
256,196,91560,1,8,0:0:0:0:
256,196,91698,1,8,0:0:0:0:
256,196,91837,1,0,0:0:0:0:
256,196,91976,1,8,0:0:0:0:
256,196,92254,1,0,0:0:0:0:
256,196,92393,1,8,0:0:0:0:
256,196,92671,1,4,0:0:0:0:
256,196,92948,1,8,0:0:0:0:
256,196,93087,1,0,0:0:0:0:
256,196,93226,1,0,0:0:0:0:
256,196,93365,1,0,0:0:0:0:
256,196,93434,1,0,0:0:0:0:
256,196,93504,1,8,0:0:0:0:
256,196,93643,1,0,0:0:0:0:
256,196,93782,1,0,0:0:0:0:
256,196,93851,1,0,0:0:0:0:
256,196,93921,1,8,0:0:0:0:
256,196,94059,1,0,0:0:0:0:
256,196,94129,1,0,0:0:0:0:
256,196,94198,1,8,0:0:0:0:
256,196,94337,1,8,0:0:0:0:
256,196,94407,1,8,0:0:0:0:
256,196,94476,1,0,0:0:0:0:
256,196,94546,1,0,0:0:0:0:
256,196,94615,1,8,0:0:0:0:
256,196,94754,1,8,0:0:0:0:
256,196,94893,1,0,0:0:0:0:
256,196,95171,1,8,0:0:0:0:
256,196,95309,1,0,0:0:0:0:
296,180,95448,1,0,0:0:0:0:
256,196,95518,1,0,0:0:0:0:
256,196,95587,1,8,0:0:0:0:
256,196,95726,1,8,0:0:0:0:
256,196,95865,1,0,0:0:0:0:
256,196,96004,1,0,0:0:0:0:
256,196,96073,1,0,0:0:0:0:
256,196,96143,1,8,0:0:0:0:
256,196,96282,1,0,0:0:0:0:
256,196,96351,1,0,0:0:0:0:
256,196,96421,1,8,0:0:0:0:
256,196,96559,1,8,0:0:0:0:
256,196,96629,1,0,0:0:0:0:
256,196,96698,1,0,0:0:0:0:
256,196,96768,1,0,0:0:0:0:
256,196,96837,1,8,0:0:0:0:
256,196,96976,1,8,0:0:0:0:
256,196,97115,1,0,0:0:0:0:
256,196,97393,1,0,0:0:0:0:
256,196,97532,1,8,0:0:0:0:
256,196,97671,1,0,0:0:0:0:
256,196,97740,1,0,0:0:0:0:
256,196,97879,1,8,0:0:0:0:
256,196,97948,1,8,0:0:0:0:
256,196,98087,1,0,0:0:0:0:
256,196,98226,1,0,0:0:0:0:
256,196,98296,1,0,0:0:0:0:
256,196,98365,1,8,0:0:0:0:
256,196,98504,1,0,0:0:0:0:
256,196,98643,1,8,0:0:0:0:
256,196,98782,1,8,0:0:0:0:
256,196,98851,1,0,0:0:0:0:
256,196,98990,1,0,0:0:0:0:
256,196,99060,1,8,0:0:0:0:
256,196,99198,1,8,0:0:0:0:
256,196,99337,1,0,0:0:0:0:
256,196,99476,1,0,0:0:0:0:
256,196,99615,1,8,0:0:0:0:
256,196,99893,1,0,0:0:0:0:
256,196,100032,1,0,0:0:0:0:
256,196,100171,1,8,0:0:0:0:
256,196,100448,1,0,0:0:0:0:
256,196,100587,1,8,0:0:0:0:
256,196,100657,1,8,0:0:0:0:
256,196,100726,1,0,0:0:0:0:
256,196,100796,1,0,0:0:0:0:
256,196,100865,1,8,0:0:0:0:
256,196,100935,1,8,0:0:0:0:
256,196,101004,1,8,0:0:0:0:
256,196,101143,1,0,0:0:0:0:
256,196,101212,1,0,0:0:0:0:
256,196,101282,1,8,0:0:0:0:
256,196,101560,1,4,0:0:0:0:
256,196,101837,1,8,0:0:0:0:
256,196,102115,1,0,0:0:0:0:
256,196,102254,1,0,0:0:0:0:
256,196,102323,1,0,0:0:0:0:
256,196,102393,1,8,0:0:0:0:
256,196,102532,1,0,0:0:0:0:
256,196,102671,1,8,0:0:0:0:
256,196,102740,1,8,0:0:0:0:
256,196,102810,1,8,0:0:0:0:
256,196,102948,1,0,0:0:0:0:
256,196,103087,1,8,0:0:0:0:
256,196,103226,1,0,0:0:0:0:
256,196,103365,1,8,0:0:0:0:
256,196,103435,1,8,0:0:0:0:
256,196,103504,1,0,0:0:0:0:
256,196,103643,1,8,0:0:0:0:
256,196,103782,1,8,0:0:0:0:
256,196,103921,1,0,0:0:0:0:
256,196,104060,1,8,0:0:0:0:
256,196,104198,1,0,0:0:0:0:
256,196,104337,1,8,0:0:0:0:
256,196,104407,1,8,0:0:0:0:
256,196,104476,1,0,0:0:0:0:
256,196,104615,1,0,0:0:0:0:
256,196,104754,1,8,0:0:0:0:
256,196,104893,1,0,0:0:0:0:
256,196,104962,1,0,0:0:0:0:
256,196,105032,1,8,0:0:0:0:
256,196,105101,1,0,0:0:0:0:
256,196,105171,1,8,0:0:0:0:
256,196,105310,1,8,0:0:0:0:
256,196,105448,1,8,0:0:0:0:
256,196,105518,1,0,0:0:0:0:
256,196,105587,1,0,0:0:0:0:
256,196,105657,1,0,0:0:0:0:
256,196,105726,1,8,0:0:0:0:
256,196,105865,1,0,0:0:0:0:
256,196,105935,1,0,0:0:0:0:
256,196,106004,1,8,0:0:0:0:
256,196,106282,1,8,0:0:0:0:
256,196,106421,1,0,0:0:0:0:
256,196,106560,1,0,0:0:0:0:
256,196,106629,1,0,0:0:0:0:
256,196,106698,1,8,0:0:0:0:
256,196,106837,1,8,0:0:0:0:
256,196,106976,1,8,0:0:0:0:
256,196,107115,1,0,0:0:0:0:
256,196,107254,1,0,0:0:0:0:
256,196,107393,1,8,0:0:0:0:
256,196,107532,1,8,0:0:0:0:
256,196,107671,1,0,0:0:0:0:
256,196,107810,1,8,0:0:0:0:
256,196,107879,1,8,0:0:0:0:
256,196,107948,1,0,0:0:0:0:
256,196,108087,1,8,0:0:0:0:
256,196,108226,1,0,0:0:0:0:
256,196,108296,1,0,0:0:0:0:
256,196,108365,1,0,0:0:0:0:
256,196,108504,1,8,0:0:0:0:
256,196,108643,1,8,0:0:0:0:
256,196,108782,1,0,0:0:0:0:
256,196,108851,1,0,0:0:0:0:
256,196,108921,1,0,0:0:0:0:
256,196,109060,1,8,0:0:0:0:
256,196,109198,1,8,0:0:0:0:
256,196,109337,1,0,0:0:0:0:
256,196,109476,1,0,0:0:0:0:
256,196,109615,1,8,0:0:0:0:
256,196,109685,1,8,0:0:0:0:
256,196,109754,1,8,0:0:0:0:
256,196,109893,1,0,0:0:0:0:
256,196,109962,1,0,0:0:0:0:
256,196,110032,1,0,0:0:0:0:
256,196,110101,1,0,0:0:0:0:
256,196,110171,1,8,0:0:0:0:
256,196,110310,1,0,0:0:0:0:
256,196,110448,1,8,0:0:0:0:
256,196,110726,1,14,0:0:0:0:
256,196,111004,1,0,0:0:0:0:
256,196,111143,1,8,0:0:0:0:
256,196,111212,1,0,0:0:0:0:
256,196,111282,1,0,0:0:0:0:
256,196,111421,1,8,0:0:0:0:
256,196,111560,1,0,0:0:0:0:
256,196,111698,1,0,0:0:0:0:
256,196,111768,1,0,0:0:0:0:
256,196,111837,1,8,0:0:0:0:
256,196,111976,1,8,0:0:0:0:
256,196,112115,1,0,0:0:0:0:
256,196,112254,1,8,0:0:0:0:
256,196,112393,1,0,0:0:0:0:
256,196,112532,1,8,0:0:0:0:
256,196,112601,1,8,0:0:0:0:
256,196,112671,1,0,0:0:0:0:
256,196,112810,1,0,0:0:0:0:
256,196,112948,1,8,0:0:0:0:
256,196,113087,1,0,0:0:0:0:
256,196,113157,1,0,0:0:0:0:
256,196,113226,1,8,0:0:0:0:
256,196,113365,1,8,0:0:0:0:
256,196,113435,1,0,0:0:0:0:
256,196,113504,1,0,0:0:0:0:
256,196,113643,1,8,0:0:0:0:
256,196,113782,1,0,0:0:0:0:
256,196,113921,1,8,0:0:0:0:
256,196,113990,1,8,0:0:0:0:
256,196,114060,1,8,0:0:0:0:
256,196,114129,1,8,0:0:0:0:
256,196,114198,1,0,0:0:0:0:
256,196,114337,1,8,0:0:0:0:
256,196,114407,1,8,0:0:0:0:
256,196,114476,1,8,0:0:0:0:
256,196,114546,1,8,0:0:0:0:
256,196,114615,1,0,0:0:0:0:
256,196,114754,1,8,0:0:0:0:
256,192,114893,1,0,0:0:0:0:
256,196,115171,1,0,0:0:0:0:
256,196,115310,1,0,0:0:0:0:
256,196,115448,1,8,0:0:0:0:
256,196,115518,1,8,0:0:0:0:
256,196,115587,1,0,0:0:0:0:
256,196,115726,1,0,0:0:0:0:
256,196,115865,1,8,0:0:0:0:
256,196,116004,1,0,0:0:0:0:
256,196,116143,1,8,0:0:0:0:
256,196,116212,1,8,0:0:0:0:
256,196,116282,1,0,0:0:0:0:
256,196,116421,1,8,0:0:0:0:
256,196,116560,1,0,0:0:0:0:
256,196,116698,1,0,0:0:0:0:
256,196,116837,1,8,0:0:0:0:
256,196,116976,1,0,0:0:0:0:
256,196,117046,1,0,0:0:0:0:
256,196,117115,1,8,0:0:0:0:
256,196,117254,1,0,0:0:0:0:
256,196,117393,1,0,0:0:0:0:
256,196,117532,1,8,0:0:0:0:
256,196,117671,1,0,0:0:0:0:
256,196,117810,1,0,0:0:0:0:
256,196,117879,1,0,0:0:0:0:
256,196,117948,1,8,0:0:0:0:
256,196,118018,1,8,0:0:0:0:
256,196,118087,1,0,0:0:0:0:
256,196,118226,1,8,0:0:0:0:
256,196,118365,1,8,0:0:0:0:
256,196,118504,1,0,0:0:0:0:
256,196,118573,1,8,0:0:0:0:
256,196,118643,1,0,0:0:0:0:
256,196,118782,1,8,0:0:0:0:
256,196,118851,1,8,0:0:0:0:
256,196,118921,1,0,0:0:0:0:
256,196,118990,1,8,0:0:0:0:
256,196,119060,1,0,0:0:0:0:
256,196,119198,1,8,0:0:0:0:
256,196,119337,1,4,0:0:0:0:
256,196,119615,1,8,0:0:0:0:
256,196,119893,1,0,0:0:0:0:
256,196,120032,1,0,0:0:0:0:
256,196,120171,1,8,0:0:0:0:
256,196,120448,1,0,0:0:0:0:
256,196,120587,1,0,0:0:0:0:
256,196,120657,1,0,0:0:0:0:
256,196,120726,1,8,0:0:0:0:
256,196,120865,1,0,0:0:0:0:
256,196,121004,1,8,0:0:0:0:
256,196,121143,1,0,0:0:0:0:
256,196,121282,1,0,0:0:0:0:
256,196,121351,1,0,0:0:0:0:
256,196,121421,1,8,0:0:0:0:
256,196,121560,1,8,0:0:0:0:
256,196,121837,1,0,0:0:0:0:
256,196,122115,1,8,0:0:0:0:
256,196,122254,1,8,0:0:0:0:
256,196,122393,1,0,0:0:0:0:
256,196,122532,1,8,0:0:0:0:
256,196,122671,1,0,0:0:0:0:
256,196,122810,1,8,0:0:0:0:
256,196,122948,1,0,0:0:0:0:
256,196,123018,1,0,0:0:0:0:
256,196,123087,1,8,0:0:0:0:
256,196,123157,1,0,0:0:0:0:
256,196,123226,1,0,0:0:0:0:
256,196,123365,1,0,0:0:0:0:
256,196,123504,1,8,0:0:0:0:
256,196,123782,1,0,0:0:0:0:
256,196,124060,1,8,0:0:0:0:
256,196,124337,1,0,0:0:0:0:
256,196,124476,1,0,0:0:0:0:
256,196,124615,1,8,0:0:0:0:
256,196,124754,1,0,0:0:0:0:
256,196,124893,1,8,0:0:0:0:
256,196,125032,1,0,0:0:0:0:
256,196,125171,1,8,0:0:0:0:
256,196,125310,1,0,0:0:0:0:
256,196,125448,1,0,0:0:0:0:
256,196,125518,1,0,0:0:0:0:
256,196,125587,1,0,0:0:0:0:
256,196,125726,1,8,0:0:0:0:
256,196,125865,1,0,0:0:0:0:
256,196,126004,1,8,0:0:0:0:
256,196,126143,1,8,0:0:0:0:
256,196,126212,1,8,0:0:0:0:
256,196,126282,1,0,0:0:0:0:
256,196,126421,1,8,0:0:0:0:
256,196,126560,1,8,0:0:0:0:
256,196,126698,1,0,0:0:0:0:
256,196,126836,1,8,0:0:0:0:
256,196,126975,1,0,0:0:0:0:
256,196,127115,1,0,0:0:0:0:
256,196,127254,1,0,0:0:0:0:
256,196,127323,1,8,0:0:0:0:
256,196,127393,1,8,0:0:0:0:
256,196,127462,1,8,0:0:0:0:
256,196,127532,1,0,0:0:0:0:
256,196,127601,1,8,0:0:0:0:
256,196,127671,1,0,0:0:0:0:
256,196,127810,1,8,0:0:0:0:
256,196,127948,1,0,0:0:0:0:
256,196,128087,1,8,0:0:0:0:
256,196,128226,1,4,0:0:0:0:
256,196,128504,1,8,0:0:0:0:
256,196,128643,1,0,0:0:0:0:
256,196,128782,1,0,0:0:0:0:
256,196,128851,1,0,0:0:0:0:
256,196,128990,1,0,0:0:0:0:
256,196,129060,1,8,0:0:0:0:
256,196,129198,1,0,0:0:0:0:
256,196,129337,1,0,0:0:0:0:
256,196,129407,1,8,0:0:0:0:
256,196,129546,1,0,0:0:0:0:
256,196,129615,1,8,0:0:0:0:
256,196,129754,1,0,0:0:0:0:
256,196,129893,1,0,0:0:0:0:
256,196,129962,1,8,0:0:0:0:
256,196,130032,1,8,0:0:0:0:
256,196,130101,1,8,0:0:0:0:
256,196,130171,1,0,0:0:0:0:
256,196,130310,1,8,0:0:0:0:
256,196,130448,1,8,0:0:0:0:
256,196,130587,1,0,0:0:0:0:
256,196,130657,1,0,0:0:0:0:
256,196,130726,1,0,0:0:0:0:
256,196,130865,1,8,0:0:0:0:
256,196,131004,1,0,0:0:0:0:
256,196,131073,1,0,0:0:0:0:
256,196,131143,1,0,0:0:0:0:
256,196,131282,1,8,0:0:0:0:
256,196,131421,1,8,0:0:0:0:
256,196,131490,1,8,0:0:0:0:
256,196,131560,1,0,0:0:0:0:
256,196,131698,1,8,0:0:0:0:
256,196,131837,1,8,0:0:0:0:
256,196,131976,1,0,0:0:0:0:
256,196,132115,1,0,0:0:0:0:
256,196,132393,1,8,0:0:0:0:
256,196,132532,1,0,0:0:0:0:
256,196,132671,1,8,0:0:0:0:
256,196,132810,1,0,0:0:0:0:
256,196,132948,1,8,0:0:0:0:
256,196,133087,1,8,0:0:0:0:
256,196,133226,1,0,0:0:0:0:
256,196,133365,1,8,0:0:0:0:
256,196,133504,1,8,0:0:0:0:
256,196,133643,1,0,0:0:0:0:
256,196,133782,1,8,0:0:0:0:
256,196,133851,1,8,0:0:0:0:
256,196,133921,1,0,0:0:0:0:
256,196,134060,1,0,0:0:0:0:
256,196,134129,1,0,0:0:0:0:
256,196,134198,1,8,0:0:0:0:
256,196,134337,1,0,0:0:0:0:
256,196,134407,1,0,0:0:0:0:
256,196,134476,1,8,0:0:0:0:
256,196,134615,1,8,0:0:0:0:
256,196,134685,1,8,0:0:0:0:
256,196,134754,1,0,0:0:0:0:
256,196,134893,1,8,0:0:0:0:
256,196,134962,1,0,0:0:0:0:
256,196,135032,1,0,0:0:0:0:
256,196,135171,1,8,0:0:0:0:
256,196,135240,1,0,0:0:0:0:
256,196,135310,1,0,0:0:0:0:
256,196,135448,1,8,0:0:0:0:
256,196,135518,1,0,0:0:0:0:
256,196,135587,1,0,0:0:0:0:
256,196,135657,1,0,0:0:0:0:
256,196,135726,1,8,0:0:0:0:
256,196,135796,1,0,0:0:0:0:
256,196,135865,1,8,0:0:0:0:
256,196,135935,1,0,0:0:0:0:
256,196,136004,1,8,0:0:0:0:
256,196,136143,1,8,0:0:0:0:
256,196,136560,1,8,0:0:0:0:
256,196,136698,1,0,0:0:0:0:
256,196,136837,1,8,0:0:0:0:
260,200,136907,1,8,0:0:0:0:
256,196,136976,1,8,0:0:0:0:
256,196,137115,1,4,0:0:0:0:
256,196,137393,1,8,0:0:0:0:
256,196,137532,1,0,0:0:0:0:
256,196,137671,1,8,0:0:0:0:
256,196,137810,1,8,0:0:0:0:
256,196,137948,1,0,0:0:0:0:
256,196,138018,1,0,0:0:0:0:
256,196,138087,1,8,0:0:0:0:
256,196,138226,1,8,0:0:0:0:
256,196,138365,1,8,0:0:0:0:
256,196,138504,1,0,0:0:0:0:
256,196,138573,1,0,0:0:0:0:
256,196,138643,1,8,0:0:0:0:
256,196,138782,1,0,0:0:0:0:
256,196,138921,1,8,0:0:0:0:
256,196,139060,1,0,0:0:0:0:
256,196,139198,1,8,0:0:0:0:
256,196,139268,1,8,0:0:0:0:
256,196,139337,1,8,0:0:0:0:
256,196,139615,1,0,0:0:0:0:
256,196,139754,1,8,0:0:0:0:
256,196,139823,1,8,0:0:0:0:
256,196,139893,1,8,0:0:0:0:
256,196,140032,1,0,0:0:0:0:
256,196,140171,1,8,0:0:0:0:
256,196,140310,1,0,0:0:0:0:
256,196,140379,1,0,0:0:0:0:
256,196,140448,1,8,0:0:0:0:
256,196,140587,1,0,0:0:0:0:
256,196,140726,1,0,0:0:0:0:
256,196,140865,1,8,0:0:0:0:
256,196,141143,1,0,0:0:0:0:
256,196,141212,1,0,0:0:0:0:
256,196,141282,1,0,0:0:0:0:
256,196,141421,1,8,0:0:0:0:
256,196,141560,1,8,0:0:0:0:
256,196,141837,1,0,0:0:0:0:
256,196,141976,1,0,0:0:0:0:
256,196,142046,1,0,0:0:0:0:
256,196,142115,1,8,0:0:0:0:
256,196,142254,1,8,0:0:0:0:
256,196,142393,1,0,0:0:0:0:
256,196,142532,1,0,0:0:0:0:
256,196,142601,1,0,0:0:0:0:
256,196,142671,1,8,0:0:0:0:
256,196,142810,1,8,0:0:0:0:
256,196,142948,1,0,0:0:0:0:
256,196,143087,1,8,0:0:0:0:
256,196,143157,1,0,0:0:0:0:
256,196,143226,1,8,0:0:0:0:
256,196,143365,1,8,0:0:0:0:
256,196,143435,1,8,0:0:0:0:
256,196,143504,1,0,0:0:0:0:
256,196,143643,1,0,0:0:0:0:
256,196,143782,1,8,0:0:0:0:
256,196,144060,1,8,0:0:0:0:
256,196,144198,1,0,0:0:0:0:
256,196,144268,1,0,0:0:0:0:
256,196,144337,1,8,0:0:0:0:
256,196,144476,1,0,0:0:0:0:
256,196,144546,1,0,0:0:0:0:
256,196,144615,1,8,0:0:0:0:
256,196,144685,1,0,0:0:0:0:
256,196,144754,1,8,0:0:0:0:
256,196,144893,1,14,0:0:0:0:
256,196,145032,1,14,0:0:0:0:
256,196,145310,1,0,0:0:0:0:
256,196,145448,1,8,0:0:0:0:
256,196,145518,1,0,0:0:0:0:
256,196,145587,1,0,0:0:0:0:
256,196,145657,1,0,0:0:0:0:
256,196,145726,1,8,0:0:0:0:
256,196,145795,1,0,0:0:0:0:
256,196,145865,1,8,0:0:0:0:
256,196,146004,1,14,0:0:0:0:
256,196,146282,1,0,0:0:0:0:
256,196,146421,1,0,0:0:0:0:
256,196,146490,1,0,0:0:0:0:
256,196,146560,1,8,0:0:0:0:
256,196,146698,1,8,0:0:0:0:
256,196,146837,1,8,0:0:0:0:
256,196,146976,1,0,0:0:0:0:
256,196,147046,1,0,0:0:0:0:
256,196,147115,1,8,0:0:0:0:
256,196,147254,1,8,0:0:0:0:
256,196,147393,1,0,0:0:0:0:
256,196,147532,1,8,0:0:0:0:
256,196,147671,1,0,0:0:0:0:
256,196,147810,1,8,0:0:0:0:
256,196,147879,1,8,0:0:0:0:
256,196,147948,1,0,0:0:0:0:
256,196,148087,1,8,0:0:0:0:
256,196,148226,1,8,0:0:0:0:
256,196,148504,1,8,0:0:0:0:
256,196,148643,1,0,0:0:0:0:
256,196,148782,1,8,0:0:0:0:
256,196,148851,1,8,0:0:0:0:
256,196,148921,1,8,0:0:0:0:
256,196,149060,1,0,0:0:0:0:
256,196,149198,1,0,0:0:0:0:
256,196,149268,1,0,0:0:0:0:
256,196,149337,1,8,0:0:0:0:
256,196,149407,1,0,0:0:0:0:
256,196,149476,1,0,0:0:0:0:
256,196,149615,1,8,0:0:0:0:
256,196,149754,1,8,0:0:0:0:
256,196,149823,1,0,0:0:0:0:
256,196,149893,1,8,0:0:0:0:
256,196,150032,1,0,0:0:0:0:
256,196,150101,1,8,0:0:0:0:
256,196,150171,1,0,0:0:0:0:
256,196,150310,1,8,0:0:0:0:
256,196,150448,1,0,0:0:0:0:
256,196,150726,1,8,0:0:0:0:
256,196,151004,1,8,0:0:0:0:
256,196,151143,1,0,0:0:0:0:
256,196,151212,1,0,0:0:0:0:
256,196,151282,1,8,0:0:0:0:
256,196,151421,1,0,0:0:0:0:
256,196,151560,1,8,0:0:0:0:
256,196,151698,1,0,0:0:0:0:
256,196,151768,1,0,0:0:0:0:
256,196,151837,1,0,0:0:0:0:
256,196,151976,1,8,0:0:0:0:
256,196,152046,1,8,0:0:0:0:
256,196,152115,1,8,0:0:0:0:
256,196,152254,1,8,0:0:0:0:
256,196,152393,1,0,0:0:0:0:
256,196,152532,1,0,0:0:0:0:
256,196,152601,1,0,0:0:0:0:
256,196,152671,1,8,0:0:0:0:
256,196,152810,1,0,0:0:0:0:
256,196,152948,1,8,0:0:0:0:
256,196,153087,1,8,0:0:0:0:
256,196,153157,1,8,0:0:0:0:
256,196,153226,1,0,0:0:0:0:
256,196,153365,1,0,0:0:0:0:
256,196,153435,1,0,0:0:0:0:
256,196,153504,1,8,0:0:0:0:
256,196,153643,1,0,0:0:0:0:
256,196,153782,1,0,0:0:0:0:
256,196,153921,1,0,0:0:0:0:
256,196,154198,1,8,0:0:0:0:
256,196,154337,1,0,0:0:0:0:
256,196,154476,1,8,0:0:0:0:
256,196,154546,1,8,0:0:0:0:
256,196,154615,1,8,0:0:0:0:
256,196,154685,1,8,0:0:0:0:
256,196,154754,1,0,0:0:0:0:
256,196,154893,1,4,0:0:0:0:
256,196,155171,1,8,0:0:0:0:
256,196,155310,1,0,0:0:0:0:
256,196,155448,1,0,0:0:0:0:
256,196,155518,1,0,0:0:0:0:
256,196,155587,1,0,0:0:0:0:
256,196,155726,1,8,0:0:0:0:
256,196,155865,1,0,0:0:0:0:
256,196,156004,1,0,0:0:0:0:
256,196,156143,1,8,0:0:0:0:
256,196,156282,1,0,0:0:0:0:
256,196,156421,1,8,0:0:0:0:
256,196,156560,1,8,0:0:0:0:
256,196,156629,1,8,0:0:0:0:
256,196,156698,1,0,0:0:0:0:
256,196,156768,1,0,0:0:0:0:
256,196,156837,1,8,0:0:0:0:
256,196,156976,1,8,0:0:0:0:
256,196,157115,1,0,0:0:0:0:
256,196,157393,1,0,0:0:0:0:
256,196,157532,1,8,0:0:0:0:
256,196,157601,1,8,0:0:0:0:
256,196,157671,1,0,0:0:0:0:
256,196,157810,1,8,0:0:0:0:
256,196,157948,1,8,0:0:0:0:
256,196,158087,1,0,0:0:0:0:
256,196,158226,1,0,0:0:0:0:
256,196,158365,1,8,0:0:0:0:
256,196,158504,1,0,0:0:0:0:
256,196,158643,1,8,0:0:0:0:
256,196,158712,1,0,0:0:0:0:
256,196,158782,1,8,0:0:0:0:
256,196,158921,1,0,0:0:0:0:
256,196,159060,1,8,0:0:0:0:
256,196,159198,1,0,0:0:0:0:
256,196,159268,1,0,0:0:0:0:
256,196,159337,1,8,0:0:0:0:
256,196,159615,1,0,0:0:0:0:
256,196,159754,1,8,0:0:0:0:
256,196,159893,1,0,0:0:0:0:
256,196,160032,1,8,0:0:0:0:
256,196,160171,1,8,0:0:0:0:
256,196,160310,1,0,0:0:0:0:
256,196,160448,1,0,0:0:0:0:
256,196,160587,1,0,0:0:0:0:
256,196,160657,1,0,0:0:0:0:
256,196,160726,1,8,0:0:0:0:
256,196,160865,1,0,0:0:0:0:
256,196,161004,1,0,0:0:0:0:
256,196,161073,1,8,0:0:0:0:
256,196,161212,1,0,0:0:0:0:
256,196,161282,1,8,0:0:0:0:
256,196,161421,1,0,0:0:0:0:
256,196,161560,1,8,0:0:0:0:
256,196,161837,1,0,0:0:0:0:
256,196,161976,1,8,0:0:0:0:
256,196,162115,1,0,0:0:0:0:
256,196,162254,1,8,0:0:0:0:
256,196,162393,1,8,0:0:0:0:
256,196,162532,1,0,0:0:0:0:
256,196,162601,1,0,0:0:0:0:
256,196,162671,1,0,0:0:0:0:
256,196,162810,1,8,0:0:0:0:
256,196,162948,1,0,0:0:0:0:
256,196,163087,1,8,0:0:0:0:
256,196,163226,1,8,0:0:0:0:
256,196,163296,1,0,0:0:0:0:
256,196,163435,1,0,0:0:0:0:
256,196,163504,1,8,0:0:0:0:
256,196,163643,1,8,0:0:0:0:
256,196,163782,1,4,0:0:0:0:
256,196,164060,1,8,0:0:0:0:
256,196,164198,1,0,0:0:0:0:
256,196,164337,1,0,0:0:0:0:
256,196,164476,1,0,0:0:0:0:
256,196,164546,1,0,0:0:0:0:
256,196,164615,1,8,0:0:0:0:
256,196,164754,1,0,0:0:0:0:
256,196,164893,1,0,0:0:0:0:
256,196,164962,1,0,0:0:0:0:
256,196,165032,1,8,0:0:0:0:
256,196,165101,1,8,0:0:0:0:
256,196,165171,1,0,0:0:0:0:
256,196,165310,1,0,0:0:0:0:
256,196,165448,1,8,0:0:0:0:
256,196,165518,1,0,0:0:0:0:
256,196,165587,1,0,0:0:0:0:
256,196,165657,1,0,0:0:0:0:
256,196,165726,1,8,0:0:0:0:
256,196,165865,1,0,0:0:0:0:
256,196,166004,1,8,0:0:0:0:
256,196,166143,1,0,0:0:0:0:
256,196,166282,1,0,0:0:0:0:
256,196,166421,1,8,0:0:0:0:
256,196,166560,1,0,0:0:0:0:
256,196,166629,1,0,0:0:0:0:
256,196,166698,1,0,0:0:0:0:
256,196,166837,1,8,0:0:0:0:
256,196,166976,1,0,0:0:0:0:
256,196,167115,1,0,0:0:0:0:
256,196,167254,1,8,0:0:0:0:
256,196,167323,1,8,0:0:0:0:
256,196,167393,1,0,0:0:0:0:
256,196,167532,1,8,0:0:0:0:
256,196,167671,1,8,0:0:0:0:
256,196,167810,1,0,0:0:0:0:
256,196,167948,1,8,0:0:0:0:
256,196,168087,1,0,0:0:0:0:
256,196,168157,1,0,0:0:0:0:
256,196,168226,1,8,0:0:0:0:
256,196,168504,1,0,0:0:0:0:
256,196,168643,1,0,0:0:0:0:
256,196,168712,1,0,0:0:0:0:
256,196,168782,1,8,0:0:0:0:
256,196,168921,1,0,0:0:0:0:
256,196,169060,1,8,0:0:0:0:
256,196,169198,1,0,0:0:0:0:
256,196,169337,1,0,0:0:0:0:
256,196,169476,1,8,0:0:0:0:
256,196,169546,1,8,0:0:0:0:
256,196,169615,1,0,0:0:0:0:
256,196,169754,1,0,0:0:0:0:
256,196,169893,1,8,0:0:0:0:
256,196,169962,1,0,0:0:0:0:
256,196,170032,1,0,0:0:0:0:
256,196,170171,1,8,0:0:0:0:
256,196,170310,1,0,0:0:0:0:
256,196,170448,1,8,0:0:0:0:
256,196,170587,1,0,0:0:0:0:
256,196,170726,1,0,0:0:0:0:
256,196,170865,1,8,0:0:0:0:
256,196,171004,1,0,0:0:0:0:
256,196,171143,1,0,0:0:0:0:
256,196,171282,1,8,0:0:0:0:
256,196,171421,1,0,0:0:0:0:
256,196,171560,1,0,0:0:0:0:
256,196,171629,1,8,0:0:0:0:
256,196,171698,1,8,0:0:0:0:
256,196,171837,1,0,0:0:0:0:
256,196,171907,1,8,0:0:0:0:
256,196,171976,1,8,0:0:0:0:
256,196,172046,1,0,0:0:0:0:
256,196,172115,1,8,0:0:0:0:
256,196,172254,1,0,0:0:0:0:
256,196,172323,1,0,0:0:0:0:
256,196,172393,1,8,0:0:0:0:
256,196,172462,1,0,0:0:0:0:
256,196,172532,1,0,0:0:0:0:
256,196,172601,1,0,0:0:0:0:
256,196,172671,1,8,0:0:0:0:
256,196,172948,1,8,0:0:0:0:
256,196,173087,1,0,0:0:0:0:
256,196,173226,1,8,0:0:0:0:
256,196,173365,1,0,0:0:0:0:
256,196,173643,1,8,0:0:0:0:
256,196,173921,1,8,0:0:0:0:
256,196,174060,1,0,0:0:0:0:
256,196,174198,1,8,0:0:0:0:
256,196,174476,1,0,0:0:0:0:
256,196,174754,1,0,0:0:0:0:
256,196,174893,1,8,0:0:0:0:
256,196,175171,1,0,0:0:0:0:
256,196,175310,1,0,0:0:0:0:
256,196,175448,1,8,0:0:0:0:
256,196,175587,1,8,0:0:0:0:
256,196,175865,1,8,0:0:0:0:
256,196,176143,1,0,0:0:0:0:
256,196,176282,1,0,0:0:0:0:
256,196,176421,1,8,0:0:0:0:
256,196,176560,1,0,0:0:0:0:
256,196,176629,1,0,0:0:0:0:
256,196,176698,1,0,0:0:0:0:
256,196,176837,1,8,0:0:0:0:
256,196,176976,1,0,0:0:0:0:
256,196,177115,1,4,0:0:0:0:
256,196,177393,1,8,0:0:0:0:
256,196,177532,1,0,0:0:0:0:
256,196,177671,1,8,0:0:0:0:
256,196,177810,1,0,0:0:0:0:
256,196,177948,1,0,0:0:0:0:
256,196,178087,1,8,0:0:0:0:
256,196,178226,1,0,0:0:0:0:
256,196,178365,1,0,0:0:0:0:
256,196,178504,1,8,0:0:0:0:
256,196,178643,1,0,0:0:0:0:
256,196,178782,1,8,0:0:0:0:
256,196,178851,1,8,0:0:0:0:
256,196,178921,1,0,0:0:0:0:
256,196,178990,1,0,0:0:0:0:
256,196,179060,1,8,0:0:0:0:
256,196,179198,1,0,0:0:0:0:
256,196,179337,1,8,0:0:0:0:
256,196,179476,1,0,0:0:0:0:
256,196,179546,1,0,0:0:0:0:
256,196,179615,1,8,0:0:0:0:
256,196,179754,1,0,0:0:0:0:
256,196,179893,1,8,0:0:0:0:
256,196,180032,1,0,0:0:0:0:
256,196,180101,1,0,0:0:0:0:
256,196,180171,1,8,0:0:0:0:
256,196,180310,1,0,0:0:0:0:
256,196,180448,1,8,0:0:0:0:
256,196,180518,1,0,0:0:0:0:
256,196,180587,1,0,0:0:0:0:
256,196,180726,1,8,0:0:0:0:
256,196,180865,1,0,0:0:0:0:
256,196,181004,1,8,0:0:0:0:
256,196,181073,1,0,0:0:0:0:
256,196,181143,1,0,0:0:0:0:
256,196,181282,1,8,0:0:0:0:
256,196,181421,1,0,0:0:0:0:
256,196,181560,1,8,0:0:0:0:
256,196,181629,1,0,0:0:0:0:
256,196,181698,1,0,0:0:0:0:
256,196,181837,1,8,0:0:0:0:
256,196,181907,1,0,0:0:0:0:
256,196,181976,1,0,0:0:0:0:
256,196,182115,1,8,0:0:0:0:
256,196,182185,1,0,0:0:0:0:
256,196,182254,1,8,0:0:0:0:
256,196,182323,1,0,0:0:0:0:
256,196,182393,1,8,0:0:0:0:
256,196,182462,1,0,0:0:0:0:
256,196,182532,1,8,0:0:0:0:
256,196,182601,1,8,0:0:0:0:
256,196,182671,1,8,0:0:0:0:
256,196,182810,1,8,0:0:0:0:
256,196,182948,1,0,0:0:0:0:
256,196,183087,1,8,0:0:0:0:
256,196,183157,1,0,0:0:0:0:
256,196,183226,1,8,0:0:0:0:
256,196,183296,1,8,0:0:0:0:
256,196,183365,1,8,0:0:0:0:
256,196,183435,1,8,0:0:0:0:
256,196,183504,1,0,0:0:0:0:
256,196,183643,1,8,0:0:0:0:
256,196,183782,1,4,0:0:0:0:
256,196,184060,1,8,0:0:0:0:
256,196,184198,1,0,0:0:0:0:
256,196,184268,1,0,0:0:0:0:
256,196,184337,1,8,0:0:0:0:
256,196,184476,1,8,0:0:0:0:
256,196,184615,1,0,0:0:0:0:
256,196,184754,1,0,0:0:0:0:
256,196,184823,1,0,0:0:0:0:
256,196,184893,1,8,0:0:0:0:
256,196,185032,1,8,0:0:0:0:
256,196,185171,1,0,0:0:0:0:
256,196,185240,1,0,0:0:0:0:
256,196,185310,1,8,0:0:0:0:
256,196,185448,1,0,0:0:0:0:
256,196,185587,1,8,0:0:0:0:
256,196,185657,1,8,0:0:0:0:
256,196,185726,1,0,0:0:0:0:
256,196,185796,1,0,0:0:0:0:
256,196,185865,1,8,0:0:0:0:
256,196,186004,1,8,0:0:0:0:
256,196,186282,1,0,0:0:0:0:
256,196,186421,1,8,0:0:0:0:
256,196,186490,1,0,0:0:0:0:
256,196,186560,1,8,0:0:0:0:
256,196,186698,1,8,0:0:0:0:
256,196,186837,1,0,0:0:0:0:
256,196,186976,1,0,0:0:0:0:
256,196,187046,1,8,0:0:0:0:
256,196,187115,1,8,0:0:0:0:
256,196,187185,1,8,0:0:0:0:
256,196,187254,1,0,0:0:0:0:
256,196,187393,1,0,0:0:0:0:
256,196,187532,1,8,0:0:0:0:
260,196,187601,1,8,0:0:0:0:
256,196,187671,1,8,0:0:0:0:
256,196,187810,1,0,0:0:0:0:
256,196,187948,1,8,0:0:0:0:
256,196,188087,1,8,0:0:0:0:
256,196,188226,1,8,0:0:0:0:
256,196,188504,1,0,0:0:0:0:
256,196,188643,1,0,0:0:0:0:
256,196,188782,1,8,0:0:0:0:
256,196,188921,1,8,0:0:0:0:
256,196,188990,1,0,0:0:0:0:
256,196,189060,1,0,0:0:0:0:
256,196,189198,1,8,0:0:0:0:
256,196,189337,1,8,0:0:0:0:
256,196,189476,1,0,0:0:0:0:
256,196,189545,1,0,0:0:0:0:
256,196,189615,1,8,0:0:0:0:
256,196,189754,1,8,0:0:0:0:
256,196,189893,1,0,0:0:0:0:
256,196,190032,1,8,0:0:0:0:
256,196,190101,1,0,0:0:0:0:
256,196,190171,1,0,0:0:0:0:
256,196,190310,1,8,0:0:0:0:
256,196,190448,1,8,0:0:0:0:
256,196,190587,1,0,0:0:0:0:
256,196,190656,1,0,0:0:0:0:
256,196,190726,1,0,0:0:0:0:
256,196,190865,1,8,0:0:0:0:
256,196,191004,1,0,0:0:0:0:
256,196,191073,1,0,0:0:0:0:
256,196,191143,1,8,0:0:0:0:
256,196,191212,1,0,0:0:0:0:
256,196,191282,1,8,0:0:0:0:
256,196,191421,1,0,0:0:0:0:
256,196,191560,1,14,0:0:0:0:
256,196,191698,1,14,0:0:0:0:
256,196,191976,1,0,0:0:0:0:
256,196,192046,1,0,0:0:0:0:
256,196,192115,1,8,0:0:0:0:
256,196,192185,1,0,0:0:0:0:
256,196,192254,1,8,0:0:0:0:
256,196,192323,1,8,0:0:0:0:
256,196,192393,1,8,0:0:0:0:
256,196,192462,1,8,0:0:0:0:
256,196,192532,1,0,0:0:0:0:
256,196,192671,1,14,0:0:0:0:
256,196,192948,1,0,0:0:0:0:
256,196,193087,1,0,0:0:0:0:
256,196,193157,1,0,0:0:0:0:
256,196,193226,1,8,0:0:0:0:
256,196,193365,1,8,0:0:0:0:
256,196,193504,1,0,0:0:0:0:
256,196,193643,1,0,0:0:0:0:
256,196,193782,1,8,0:0:0:0:
256,196,193921,1,8,0:0:0:0:
256,196,193990,1,8,0:0:0:0:
256,196,194060,1,0,0:0:0:0:
256,196,194198,1,8,0:0:0:0:
256,196,194337,1,0,0:0:0:0:
256,196,194476,1,8,0:0:0:0:
256,196,194546,1,0,0:0:0:0:
256,196,194615,1,0,0:0:0:0:
256,196,194754,1,8,0:0:0:0:
256,196,194893,1,8,0:0:0:0:
256,196,195171,1,0,0:0:0:0:
256,196,195310,1,0,0:0:0:0:
256,196,195379,1,0,0:0:0:0:
256,196,195448,1,8,0:0:0:0:
256,196,195587,1,8,0:0:0:0:
256,196,195726,1,0,0:0:0:0:
256,196,195865,1,0,0:0:0:0:
256,196,195935,1,0,0:0:0:0:
256,196,196004,1,8,0:0:0:0:
256,196,196143,1,8,0:0:0:0:
256,196,196212,1,8,0:0:0:0:
256,196,196282,1,0,0:0:0:0:
256,196,196421,1,8,0:0:0:0:
256,196,196560,1,0,0:0:0:0:
256,196,196698,1,0,0:0:0:0:
256,196,196768,1,0,0:0:0:0:
256,196,196837,1,8,0:0:0:0:
256,196,196976,1,8,0:0:0:0:
256,196,197115,1,0,0:0:0:0:
256,196,197254,1,0,0:0:0:0:
256,196,197393,1,8,0:0:0:0:
256,196,197671,1,8,0:0:0:0:
256,196,197810,1,0,0:0:0:0:
256,196,197948,1,8,0:0:0:0:
256,196,198087,1,0,0:0:0:0:
256,196,198157,1,0,0:0:0:0:
256,196,198226,1,8,0:0:0:0:
256,196,198365,1,8,0:0:0:0:
256,196,198504,1,0,0:0:0:0:
256,196,198643,1,0,0:0:0:0:
256,196,198712,1,0,0:0:0:0:
256,196,198782,1,8,0:0:0:0:
256,196,198921,1,8,0:0:0:0:
256,196,198990,1,8,0:0:0:0:
256,196,199060,1,0,0:0:0:0:
256,196,199198,1,8,0:0:0:0:
256,196,199337,1,0,0:0:0:0:
256,196,199476,1,0,0:0:0:0:
256,196,199615,1,0,0:0:0:0:
256,196,199754,1,0,0:0:0:0:
256,196,199893,1,0,0:0:0:0:
256,196,200032,1,0,0:0:0:0:
256,196,200101,1,0,0:0:0:0:
256,196,200171,1,8,0:0:0:0:
256,196,200310,1,0,0:0:0:0:
256,196,200448,1,8,0:0:0:0:
256,196,200518,1,0,0:0:0:0:
256,196,200587,1,8,0:0:0:0:
256,196,200726,1,8,0:0:0:0:
256,196,200796,1,0,0:0:0:0:
256,196,200865,1,8,0:0:0:0:
256,196,201004,1,8,0:0:0:0:
256,196,201073,1,0,0:0:0:0:
256,196,201143,1,8,0:0:0:0:
256,196,201212,1,8,0:0:0:0:
256,196,201282,1,8,0:0:0:0:
256,196,201351,1,8,0:0:0:0:
256,196,201421,1,0,0:0:0:0:
256,196,201490,1,0,0:0:0:0:
256,196,201560,1,8,0:0:0:0:
256,196,201837,1,8,0:0:0:0:
256,196,201976,1,0,0:0:0:0:
256,196,202115,1,0,0:0:0:0:
256,196,202254,1,8,0:0:0:0:
256,196,202323,1,8,0:0:0:0:
256,196,202393,1,8,0:0:0:0:
256,196,202532,1,0,0:0:0:0:
256,196,202671,1,0,0:0:0:0:
256,196,202810,1,8,0:0:0:0:
256,196,202948,1,0,0:0:0:0:
256,196,203087,1,8,0:0:0:0:
256,196,203226,1,8,0:0:0:0:
256,196,203296,1,0,0:0:0:0:
256,196,203365,1,0,0:0:0:0:
256,192,203435,1,0,0:0:0:0:
256,196,203504,1,8,0:0:0:0:
256,196,203643,1,0,0:0:0:0:
256,196,203782,1,8,0:0:0:0:
256,196,203921,1,0,0:0:0:0:
256,196,204060,1,8,0:0:0:0:
256,196,204337,1,8,0:0:0:0:
256,196,204476,1,0,0:0:0:0:
256,196,204615,1,8,0:0:0:0:
256,196,204893,1,0,0:0:0:0:
256,196,205032,1,0,0:0:0:0:
256,196,205101,1,0,0:0:0:0:
256,196,205171,1,8,0:0:0:0:
256,196,205310,1,0,0:0:0:0:
256,196,205448,1,8,0:0:0:0:
256,196,205518,1,8,0:0:0:0:
256,196,205587,1,0,0:0:0:0:
256,196,205726,1,8,0:0:0:0:
256,196,205796,1,8,0:0:0:0:
256,196,205865,1,0,0:0:0:0:
256,196,205935,1,0,0:0:0:0:
256,196,206004,1,8,0:0:0:0:
256,196,206282,1,8,0:0:0:0:
256,196,206421,1,0,0:0:0:0:
256,196,206560,1,0,0:0:0:0:
256,196,206698,1,8,0:0:0:0:
256,196,206768,1,8,0:0:0:0:
256,196,206837,1,8,0:0:0:0:
256,196,206976,1,0,0:0:0:0:
256,196,207115,1,0,0:0:0:0:
256,196,207254,1,8,0:0:0:0:
256,196,207323,1,0,0:0:0:0:
256,196,207393,1,0,0:0:0:0:
256,196,207532,1,8,0:0:0:0:
256,196,207671,1,8,0:0:0:0:
256,196,207740,1,0,0:0:0:0:
256,196,207810,1,0,0:0:0:0:
256,196,207879,1,0,0:0:0:0:
256,196,207948,1,8,0:0:0:0:
256,196,208087,1,8,0:0:0:0:
256,196,208157,1,8,0:0:0:0:
256,196,208226,1,0,0:0:0:0:
256,196,208365,1,0,0:0:0:0:
256,196,208504,1,8,0:0:0:0:
256,196,208643,1,8,0:0:0:0:
256,196,208782,1,0,0:0:0:0:
256,196,208921,1,0,0:0:0:0:
256,196,208990,1,8,0:0:0:0:
256,196,209060,1,8,0:0:0:0:
256,196,209198,1,8,0:0:0:0:
256,196,209337,1,4,0:0:0:0:
256,196,209476,1,4,0:0:0:0:
256,196,209615,1,0,0:0:0:0:
256,196,209685,1,0,0:0:0:0:
256,196,209754,1,8,0:0:0:0:
256,196,209893,1,0,0:0:0:0:
256,196,209962,1,8,0:0:0:0:
256,196,210032,1,0,0:0:0:0:
256,196,210171,1,8,0:0:0:0:
256,196,210310,1,0,0:0:0:0:
256,196,210448,1,14,0:0:0:0:
