osu file format v13

[General]
AudioFilename: Connect.mp3
AudioLeadIn: 500
PreviewTime: 74268
Countdown: 0
SampleSet: Normal
StackLeniency: 0.7
Mode: 1
LetterboxInBreaks: 0
WidescreenStoryboard: 0

[Editor]
Bookmarks: 1695,21696,48362,92807,101696,137251,155029,172807,183918,201696,210584
DistanceSpacing: 0.5
BeatDivisor: 4
GridSize: 32
TimelineZoom: 1

[Metadata]
Title:Connect (Nightcore Trance Remix)
TitleUnicode:コネクト (Nightcore Trance Remix)
Artist:ClariS
ArtistUnicode:ClariS
Creator:Naryuga
Version:Taiko Futsuu
Source:Puella Magi Madoka Magica
Tags:Konekuto Mahou Shoujo Madoka Magica opening 魔法少女まどか☆マギカ testmx1
BeatmapID:179356
BeatmapSetID:59482

[Difficulty]
HPDrainRate:4
CircleSize:5
OverallDifficulty:3
ApproachRate:5
SliderMultiplier:1.2
SliderTickRate:1

[Events]
//Background and Video events
0,0,"TaikoBGa.jpg",0,60
//Break Periods
//Storyboard Layer 0 (Background)
//Storyboard Layer 1 (Fail)
//Storyboard Layer 2 (Pass)
//Storyboard Layer 3 (Foreground)
//Storyboard Sound Samples
//Background Colour Transformations
3,100,163,162,255

[TimingPoints]
1560,277.777777777778,4,1,0,90,1,0
74893,-100,4,1,0,90,0,1
92671,-100,4,1,0,90,0,0
137115,-100,4,1,0,90,0,1
154893,-100,4,1,0,90,0,0
183782,-100,4,1,0,90,0,1
201560,-100,4,1,0,90,0,0

[Colours]
Combo1 : 112,196,193
Combo2 : 243,89,34

[HitObjects]
256,192,1559,5,4,0:0:0:0:
256,192,2115,1,8,0:0:0:0:
256,192,2671,1,0,0:0:0:0:
256,192,3226,1,8,0:0:0:0:
256,192,3504,1,0,0:0:0:0:
256,192,3782,1,0,0:0:0:0:
256,192,4337,1,8,0:0:0:0:
256,192,4893,1,0,0:0:0:0:
256,192,5448,1,8,0:0:0:0:
256,192,5726,1,8,0:0:0:0:
256,192,6004,1,0,0:0:0:0:
256,192,6559,1,0,0:0:0:0:
256,192,7115,1,0,0:0:0:0:
256,192,7393,1,0,0:0:0:0:
256,192,7671,1,0,0:0:0:0:
256,192,8226,1,0,0:0:0:0:
256,192,8504,1,0,0:0:0:0:
256,192,8782,1,0,0:0:0:0:
256,192,9060,1,0,0:0:0:0:
256,192,9337,12,0,10448,0:0:0:0:
256,192,11560,5,8,0:0:0:0:
256,192,12671,1,0,0:0:0:0:
256,192,13782,1,8,0:0:0:0:
256,192,14893,1,0,0:0:0:0:
256,192,16004,1,0,0:0:0:0:
256,192,17115,1,8,0:0:0:0:
256,192,18226,8,0,21282,0:0:0:0:
256,192,21560,5,4,0:0:0:0:
256,192,22115,1,8,0:0:0:0:
256,192,22948,1,0,0:0:0:0:
256,192,23504,1,8,0:0:0:0:
256,192,23782,1,0,0:0:0:0:
256,192,24337,1,8,0:0:0:0:
256,192,25171,1,8,0:0:0:0:
256,192,25726,1,8,0:0:0:0:
256,192,26004,1,0,0:0:0:0:
256,192,26560,1,8,0:0:0:0:
256,192,27393,1,0,0:0:0:0:
256,192,27948,1,8,0:0:0:0:
256,192,28226,1,0,0:0:0:0:
256,192,28782,1,8,0:0:0:0:
256,192,29337,1,0,0:0:0:0:
256,192,29893,1,8,0:0:0:0:
256,192,30171,1,8,0:0:0:0:
256,192,30448,1,4,0:0:0:0:
256,192,31004,1,8,0:0:0:0:
256,192,31837,1,0,0:0:0:0:
256,192,32393,1,8,0:0:0:0:
256,192,32671,1,0,0:0:0:0:
256,192,33226,1,8,0:0:0:0:
256,192,34060,1,8,0:0:0:0:
256,192,34615,1,8,0:0:0:0:
256,192,34893,1,0,0:0:0:0:
256,192,35448,1,8,0:0:0:0:
256,192,36282,1,0,0:0:0:0:
256,192,36837,1,8,0:0:0:0:
256,192,37115,1,0,0:0:0:0:
256,192,37671,1,8,0:0:0:0:
256,192,38226,1,0,0:0:0:0:
256,192,38782,1,8,0:0:0:0:
256,192,39060,1,8,0:0:0:0:
256,192,39337,1,4,0:0:0:0:
256,192,40448,1,0,0:0:0:0:
256,192,41560,1,0,0:0:0:0:
248,192,43782,1,8,0:0:0:0:
248,192,44893,1,8,0:0:0:0:
248,192,46004,1,8,0:0:0:0:
256,192,48226,1,0,0:0:0:0:
256,192,48782,1,8,0:0:0:0:
256,192,49060,1,0,0:0:0:0:
256,192,49337,1,8,0:0:0:0:
256,192,50448,1,0,0:0:0:0:
256,192,51004,1,8,0:0:0:0:
256,192,51282,1,8,0:0:0:0:
256,192,51560,1,0,0:0:0:0:
256,192,52671,1,0,0:0:0:0:
256,192,53226,1,8,0:0:0:0:
256,192,53782,1,0,0:0:0:0:
256,192,54337,1,8,0:0:0:0:
256,192,54893,1,0,0:0:0:0:
256,192,56004,1,8,0:0:0:0:
256,192,57115,1,4,0:0:0:0:
256,192,57671,1,8,0:0:0:0:
256,192,58226,1,0,0:0:0:0:
256,192,58782,1,8,0:0:0:0:
256,192,59060,1,8,0:0:0:0:
256,192,59337,1,0,0:0:0:0:
256,192,59754,1,8,0:0:0:0:
256,192,60171,1,8,0:0:0:0:
256,192,61004,1,0,0:0:0:0:
256,192,61282,1,8,0:0:0:0:
256,192,61560,1,0,0:0:0:0:
256,192,61976,1,0,0:0:0:0:
256,192,62393,1,0,0:0:0:0:
256,192,63226,1,0,0:0:0:0:
256,192,63504,1,8,0:0:0:0:
256,192,63782,1,0,0:0:0:0:
256,192,64615,1,0,0:0:0:0:
256,192,64893,1,0,0:0:0:0:
256,192,65448,1,8,0:0:0:0:
256,192,65726,1,0,0:0:0:0:
256,192,66004,1,0,0:0:0:0:
256,192,66560,1,8,0:0:0:0:
256,192,67115,1,0,0:0:0:0:
256,192,67671,1,0,0:0:0:0:
256,192,67948,1,0,0:0:0:0:
256,192,68226,1,8,0:0:0:0:
256,192,68643,1,8,0:0:0:0:
256,192,69060,1,8,0:0:0:0:
256,192,69615,1,0,0:0:0:0:
256,192,69893,1,8,0:0:0:0:
256,192,70171,1,8,0:0:0:0:
256,192,70448,1,0,0:0:0:0:
256,192,71004,1,0,0:0:0:0:
256,192,71560,1,0,0:0:0:0:
256,192,71837,1,0,0:0:0:0:
256,192,72115,1,0,0:0:0:0:
256,192,72671,1,0,0:0:0:0:
256,192,72948,1,0,0:0:0:0:
256,192,73226,1,0,0:0:0:0:
256,192,73504,1,0,0:0:0:0:
256,192,73782,1,0,0:0:0:0:
256,192,74893,1,4,0:0:0:0:
256,192,75448,1,8,0:0:0:0:
256,192,76004,1,0,0:0:0:0:
256,192,76421,1,8,0:0:0:0:
256,192,76698,1,8,0:0:0:0:
256,192,77115,1,0,0:0:0:0:
256,192,77671,1,8,0:0:0:0:
256,192,78226,1,0,0:0:0:0:
256,192,78504,1,8,0:0:0:0:
256,192,79059,1,8,0:0:0:0:
256,192,79337,1,0,0:0:0:0:
256,192,79893,1,8,0:0:0:0:
256,192,80448,1,0,0:0:0:0:
256,192,80865,1,8,0:0:0:0:
256,192,81143,1,8,0:0:0:0:
256,192,81559,1,0,0:0:0:0:
256,192,82115,1,8,0:0:0:0:
256,192,82671,1,0,0:0:0:0:
256,192,83226,1,0,0:0:0:0:
256,192,83504,1,0,0:0:0:0:
256,192,83782,1,4,0:0:0:0:
256,192,84337,1,8,0:0:0:0:
256,192,84893,1,0,0:0:0:0:
256,192,85309,1,8,0:0:0:0:
256,192,85587,1,8,0:0:0:0:
256,192,86004,1,0,0:0:0:0:
256,192,86559,1,8,0:0:0:0:
256,192,87115,1,8,0:0:0:0:
256,192,87393,1,0,0:0:0:0:
256,192,87948,1,0,0:0:0:0:
256,192,88226,1,8,0:0:0:0:
256,192,88782,1,0,0:0:0:0:
256,192,89337,1,8,0:0:0:0:
256,192,89754,1,0,0:0:0:0:
256,192,90032,1,8,0:0:0:0:
256,192,90448,1,0,0:0:0:0:
256,192,91004,1,8,0:0:0:0:
256,192,91559,1,0,0:0:0:0:
256,192,92671,1,4,0:0:0:0:
256,192,93226,1,0,0:0:0:0:
256,192,93504,1,8,0:0:0:0:
256,192,94059,1,8,0:0:0:0:
256,192,94615,1,8,0:0:0:0:
256,192,94893,1,0,0:0:0:0:
256,192,95448,1,0,0:0:0:0:
256,192,95726,1,8,0:0:0:0:
256,192,96282,1,0,0:0:0:0:
256,192,96837,1,8,0:0:0:0:
256,192,97115,1,0,0:0:0:0:
256,192,97671,1,0,0:0:0:0:
256,192,97948,1,8,0:0:0:0:
256,192,98504,1,8,0:0:0:0:
256,192,99059,1,8,0:0:0:0:
256,192,99337,1,0,0:0:0:0:
256,192,99893,1,0,0:0:0:0:
256,192,100171,1,8,0:0:0:0:
256,192,100726,1,0,0:0:0:0:
256,192,101004,1,8,0:0:0:0:
256,192,101282,1,8,0:0:0:0:
256,192,101560,1,4,0:0:0:0:
256,192,102115,1,0,0:0:0:0:
256,192,102393,1,8,0:0:0:0:
256,192,102948,1,8,0:0:0:0:
256,192,103365,1,8,0:0:0:0:
256,192,103782,1,0,0:0:0:0:
256,192,104337,1,8,0:0:0:0:
256,192,104893,1,8,0:0:0:0:
256,192,105171,1,8,0:0:0:0:
256,192,105448,1,8,0:0:0:0:
256,192,106004,1,0,0:0:0:0:
256,192,106559,1,0,0:0:0:0:
256,192,106837,1,8,0:0:0:0:
256,192,107393,1,0,0:0:0:0:
256,192,107671,1,0,0:0:0:0:
256,192,108226,1,0,0:0:0:0:
256,192,108782,1,8,0:0:0:0:
256,192,109337,1,0,0:0:0:0:
256,192,109893,1,0,0:0:0:0:
256,192,110448,1,0,0:0:0:0:
256,192,110726,1,6,0:0:0:0:
256,192,111282,1,8,0:0:0:0:
256,192,111559,1,0,0:0:0:0:
256,192,112115,1,8,0:0:0:0:
256,192,112671,1,0,0:0:0:0:
256,192,113226,1,8,0:0:0:0:
256,192,113782,1,8,0:0:0:0:
256,192,114060,1,8,0:0:0:0:
256,192,114337,1,8,0:0:0:0:
256,192,114893,1,0,0:0:0:0:
256,192,115448,1,8,0:0:0:0:
256,192,116004,1,0,0:0:0:0:
256,192,116282,1,0,0:0:0:0:
256,192,116559,1,8,0:0:0:0:
256,192,117115,1,8,0:0:0:0:
256,192,117532,1,8,0:0:0:0:
256,192,117948,1,0,0:0:0:0:
256,192,118226,1,0,0:0:0:0:
288,192,118782,1,8,0:0:0:0:
256,192,119337,1,4,0:0:0:0:
256,192,119893,1,8,0:0:0:0:
256,192,120171,1,0,0:0:0:0:
256,192,120726,1,0,0:0:0:0:
256,192,121004,1,8,0:0:0:0:
256,192,121559,1,0,0:0:0:0:
256,192,121976,1,8,0:0:0:0:
256,192,122393,1,8,0:0:0:0:
256,192,123226,1,8,0:0:0:0:
256,192,123504,1,8,0:0:0:0:
256,192,123782,1,0,0:0:0:0:
256,192,124615,1,0,0:0:0:0:
256,192,125448,1,0,0:0:0:0:
256,192,125726,1,8,0:0:0:0:
256,192,126004,1,0,0:0:0:0:
256,192,126837,1,0,0:0:0:0:
256,192,127115,1,0,0:0:0:0:
256,192,127671,1,8,0:0:0:0:
256,192,127948,1,8,0:0:0:0:
256,192,128226,1,0,0:0:0:0:
256,192,128782,1,8,0:0:0:0:
256,192,129337,1,0,0:0:0:0:
256,192,129893,1,8,0:0:0:0:
256,192,130171,1,8,0:0:0:0:
256,192,130448,1,0,0:0:0:0:
256,192,130865,1,8,0:0:0:0:
256,192,131282,1,0,0:0:0:0:
256,192,132115,1,0,0:0:0:0:
256,192,132393,1,0,0:0:0:0:
256,192,132671,1,8,0:0:0:0:
256,192,133226,1,8,0:0:0:0:
256,192,133782,1,0,0:0:0:0:
256,192,134059,1,0,0:0:0:0:
256,192,134337,1,8,0:0:0:0:
256,192,134893,1,0,0:0:0:0:
256,192,135171,1,0,0:0:0:0:
256,192,135448,1,8,0:0:0:0:
256,192,135726,1,8,0:0:0:0:
256,192,136004,1,0,0:0:0:0:
256,192,137115,1,4,0:0:0:0:
256,192,137671,1,8,0:0:0:0:
256,192,137948,1,0,0:0:0:0:
256,192,138226,1,8,0:0:0:0:
256,192,138643,1,8,0:0:0:0:
256,192,138921,1,0,0:0:0:0:
256,192,139337,1,8,0:0:0:0:
256,192,139893,1,0,0:0:0:0:
256,192,140448,1,8,0:0:0:0:
256,192,140726,1,8,0:0:0:0:
256,192,141282,1,0,0:0:0:0:
256,192,141559,1,8,0:0:0:0:
256,192,142115,1,8,0:0:0:0:
256,192,142393,1,0,0:0:0:0:
256,192,142671,1,8,0:0:0:0:
256,192,143087,1,8,0:0:0:0:
256,192,143365,1,0,0:0:0:0:
256,192,143782,1,0,0:0:0:0:
256,192,144337,1,8,0:0:0:0:
256,192,144893,1,0,0:0:0:0:
256,192,145448,1,0,0:0:0:0:
256,192,145726,1,0,0:0:0:0:
256,192,146004,1,4,0:0:0:0:
256,192,146559,1,8,0:0:0:0:
256,192,146837,1,0,0:0:0:0:
256,192,147115,1,8,0:0:0:0:
256,192,147532,1,8,0:0:0:0:
256,192,147810,1,0,0:0:0:0:
256,192,148226,1,0,0:0:0:0:
256,192,148782,1,8,0:0:0:0:
256,192,149059,1,0,0:0:0:0:
256,192,149337,1,8,0:0:0:0:
256,192,149754,1,8,0:0:0:0:
256,192,150170,1,0,0:0:0:0:
256,192,150448,1,8,0:0:0:0:
256,192,151004,1,0,0:0:0:0:
256,192,151559,1,8,0:0:0:0:
256,192,151976,1,0,0:0:0:0:
256,192,152254,1,8,0:0:0:0:
256,192,152670,1,0,0:0:0:0:
256,192,153226,1,8,0:0:0:0:
256,192,153781,1,0,0:0:0:0:
256,192,154893,1,4,0:0:0:0:
256,192,155448,1,0,0:0:0:0:
256,192,155726,1,8,0:0:0:0:
256,192,156282,1,0,0:0:0:0:
256,192,156559,1,8,0:0:0:0:
256,192,157115,1,0,0:0:0:0:
256,192,157671,1,0,0:0:0:0:
256,192,157948,1,8,0:0:0:0:
256,192,158504,1,8,0:0:0:0:
256,192,158782,1,0,0:0:0:0:
256,192,159337,1,0,0:0:0:0:
256,192,159893,1,0,0:0:0:0:
256,192,160171,1,8,0:0:0:0:
256,192,160726,1,0,0:0:0:0:
256,192,161004,1,8,0:0:0:0:
256,192,161559,1,0,0:0:0:0:
256,192,162115,1,0,0:0:0:0:
256,192,162393,1,8,0:0:0:0:
256,192,162948,1,8,0:0:0:0:
256,192,163226,1,0,0:0:0:0:
256,192,163782,1,4,0:0:0:0:
256,192,164198,1,0,0:0:0:0:
256,192,164615,1,8,0:0:0:0:
256,192,165448,1,8,0:0:0:0:
256,192,166004,1,0,0:0:0:0:
256,192,166421,1,8,0:0:0:0:
256,192,166837,1,0,0:0:0:0:
256,192,167671,1,8,0:0:0:0:
256,192,168226,1,8,0:0:0:0:
256,192,168643,1,8,0:0:0:0:
256,192,169059,1,0,0:0:0:0:
256,192,169893,1,8,0:0:0:0:
256,192,170448,1,0,0:0:0:0:
256,192,170865,1,0,0:0:0:0:
256,192,171282,1,8,0:0:0:0:
256,192,172115,1,8,0:0:0:0:
256,192,172393,1,8,0:0:0:0:
256,192,172671,1,4,0:0:0:0:
256,192,173782,1,8,0:0:0:0:
256,192,174893,1,8,0:0:0:0:
256,192,175448,1,8,0:0:0:0:
256,192,176004,1,0,0:0:0:0:
256,192,177115,1,4,0:0:0:0:
256,192,177671,1,8,0:0:0:0:
256,192,178226,1,0,0:0:0:0:
256,192,178504,1,0,0:0:0:0:
256,192,178782,1,8,0:0:0:0:
256,192,179337,1,12,0:0:0:0:
256,192,179893,1,4,0:0:0:0:
256,192,180448,1,12,0:0:0:0:
256,192,181004,1,12,0:0:0:0:
256,192,181559,1,4,0:0:0:0:
256,192,182115,1,0,0:0:0:0:
256,192,182393,1,0,0:0:0:0:
256,192,182671,1,0,0:0:0:0:
256,192,183782,1,4,0:0:0:0:
256,192,184337,1,8,0:0:0:0:
256,192,184615,1,0,0:0:0:0:
256,192,184893,1,8,0:0:0:0:
256,192,185309,1,8,0:0:0:0:
256,192,185587,1,8,0:0:0:0:
256,192,186004,1,0,0:0:0:0:
256,192,186559,1,8,0:0:0:0:
256,192,186837,1,0,0:0:0:0:
256,192,187115,1,8,0:0:0:0:
256,192,187532,1,8,0:0:0:0:
256,192,187948,1,0,0:0:0:0:
256,192,188226,1,8,0:0:0:0:
256,192,188782,1,8,0:0:0:0:
256,192,189059,1,0,0:0:0:0:
256,192,189337,1,8,0:0:0:0:
256,192,189754,1,8,0:0:0:0:
256,192,190032,1,8,0:0:0:0:
256,192,190448,1,0,0:0:0:0:
256,192,191004,1,8,0:0:0:0:
256,192,191559,1,0,0:0:0:0:
256,192,192115,1,0,0:0:0:0:
256,192,192393,1,0,0:0:0:0:
256,192,192671,1,4,0:0:0:0:
256,192,193226,1,8,0:0:0:0:
256,192,193504,1,0,0:0:0:0:
256,192,193782,1,8,0:0:0:0:
256,192,194198,1,8,0:0:0:0:
256,192,194476,1,8,0:0:0:0:
256,192,194893,1,0,0:0:0:0:
256,192,195448,1,8,0:0:0:0:
256,192,195726,1,0,0:0:0:0:
256,192,196004,1,8,0:0:0:0:
256,192,196421,1,8,0:0:0:0:
256,192,196837,1,0,0:0:0:0:
256,192,197115,1,8,0:0:0:0:
256,192,197671,1,8,0:0:0:0:
256,192,197948,1,8,0:0:0:0:
256,192,198226,1,8,0:0:0:0:
256,192,198643,1,0,0:0:0:0:
256,192,198921,1,8,0:0:0:0:
256,192,199337,1,0,0:0:0:0:
256,192,199893,1,8,0:0:0:0:
256,192,200448,1,0,0:0:0:0:
256,192,201004,1,8,0:0:0:0:
256,192,201560,1,4,0:0:0:0:
256,192,202115,1,8,0:0:0:0:
256,192,202671,1,0,0:0:0:0:
256,192,203226,1,8,0:0:0:0:
256,192,203782,1,0,0:0:0:0:
256,192,204337,1,0,0:0:0:0:
256,192,204893,1,8,0:0:0:0:
256,192,205448,1,8,0:0:0:0:
256,192,206004,1,0,0:0:0:0:
256,192,206559,1,8,0:0:0:0:
256,192,207115,1,0,0:0:0:0:
256,192,207393,1,0,0:0:0:0:
256,192,207671,1,8,0:0:0:0:
256,192,208226,1,0,0:0:0:0:
256,192,208782,1,8,0:0:0:0:
256,192,209059,1,0,0:0:0:0:
256,192,209337,1,8,0:0:0:0:
256,192,209893,1,0,0:0:0:0:
256,192,210171,1,8,0:0:0:0:
256,192,210448,1,4,0:0:0:0:
